  0
SECTION
  2
HEADER
  9
$ACADVER
  1
AC1009
  9
$DWGCODEPAGE
  3
dos932
  9
$INSBASE
 10
0.0
 20
0.0
 30
0.0
  9
$EXTMIN
 10
-27.752452
 20
-60.62539
 30
0.0
  9
$EXTMAX
 10
117.893097
 20
98.394028
 30
0.0
  9
$LIMMIN
 10
-27.752452
 20
-60.62539
  9
$LIMMAX
 10
117.893097
 20
98.394028
  9
$ORTHOMODE
 70
     0
  9
$REGENMODE
 70
     1
  9
$FILLMODE
 70
     1
  9
$QTEXTMODE
 70
     0
  9
$MIRRTEXT
 70
     1
  9
$DRAGMODE
 70
     2
  9
$LTSCALE
 40
1.0
  9
$OSMODE
 70
     0
  9
$ATTMODE
 70
     1
  9
$TEXTSIZE
 40
3.3
  9
$TRACEWID
 40
0.05
  9
$TEXTSTYLE
  7
MX_NOTE_STANDARD
  9
$CLAYER
  8
LY_1
  9
$CELTYPE
  6
CONTINUOUS
  9
$CECOLOR
 62
   256
  9
$DIMSCALE
 40
1.0
  9
$DIMASZ
 40
2.5
  9
$DIMEXO
 40
0.0
  9
$DIMDLI
 40
3.75
  9
$DIMRND
 40
0.0
  9
$DIMDLE
 40
0.0
  9
$DIMEXE
 40
1.1938
  9
$DIMTP
 40
0.0
  9
$DIMTM
 40
0.0
  9
$DIMTXT
 40
3.3
  9
$DIMCEN
 40
2.5
  9
$DIMTSZ
 40
0.0
  9
$DIMTOL
 70
     0
  9
$DIMLIM
 70
     0
  9
$DIMTIH
 70
     0
  9
$DIMTOH
 70
     0
  9
$DIMSE1
 70
     0
  9
$DIMSE2
 70
     0
  9
$DIMTAD
 70
     1
  9
$DIMZIN
 70
     8
  9
$DIMBLK
  1

  9
$DIMASO
 70
     1
  9
$DIMSHO
 70
     1
  9
$DIMPOST
  1

  9
$DIMAPOST
  1

  9
$DIMALT
 70
     0
  9
$DIMALTD
 70
     4
  9
$DIMALTF
 40
0.03937
  9
$DIMLFAC
 40
1.0
  9
$DIMTOFL
 70
     1
  9
$DIMTVP
 40
0.0
  9
$DIMTIX
 70
     0
  9
$DIMSOXD
 70
     0
  9
$DIMSAH
 70
     1
  9
$DIMBLK1
  1
_OPEN30
  9
$DIMBLK2
  1
_OPEN30
  9
$DIMSTYLE
  2
MXDIMSTYLE
  9
$DIMCLRD
 70
     0
  9
$DIMCLRE
 70
     0
  9
$DIMCLRT
 70
     0
  9
$DIMTFAC
 40
1.0
  9
$DIMGAP
 40
1.0
  9
$LUNITS
 70
     2
  9
$LUPREC
 70
     4
  9
$AXISMODE
 70
     0
  9
$AXISUNIT
 10
0.0
 20
0.0
  9
$SKETCHINC
 40
0.1
  9
$FILLETRAD
 40
0.0
  9
$AUNITS
 70
     0
  9
$AUPREC
 70
     0
  9
$MENU
  1
acad
  9
$ELEVATION
 40
0.0
  9
$PELEVATION
 40
0.0
  9
$THICKNESS
 40
0.0
  9
$LIMCHECK
 70
     0
  9
$BLIPMODE
 70
     1
  9
$CHAMFERA
 40
0.0
  9
$CHAMFERB
 40
0.0
  9
$SKPOLY
 70
     0
  9
$TDCREATE
 40
2454901.551782407
  9
$TDUPDATE
 40
2454901.551782407
  9
$TDINDWG
 40
0.0000000000
  9
$TDUSRTIMER
 40
0.0000000000
  9
$USRTIMER
 70
     1
  9
$ANGBASE
 50
0.0
  9
$ANGDIR
 70
     0
  9
$PDMODE
 70
     0
  9
$PDSIZE
 40
0.0
  9
$PLINEWID
 40
0.0
  9
$COORDS
 70
     1
  9
$SPLFRAME
 70
     0
  9
$SPLINETYPE
 70
     6
  9
$SPLINESEGS
 70
     8
  9
$ATTDIA
 70
     0
  9
$ATTREQ
 70
     1
  9
$HANDLING
 70
     1
  9
$HANDSEED
  5
109
  9
$SURFTAB1
 70
     6
  9
$SURFTAB2
 70
     6
  9
$SURFTYPE
 70
     6
  9
$SURFU
 70
     6
  9
$SURFV
 70
     6
  9
$UCSNAME
  2

  9
$UCSORG
 10
0.0
 20
0.0
 30
0.0
  9
$UCSXDIR
 10
1.0
 20
0.0
 30
0.0
  9
$UCSYDIR
 10
0.0
 20
1.0
 30
0.0
  9
$PUCSNAME
  2

  9
$PUCSORG
 10
0.0
 20
0.0
 30
0.0
  9
$PUCSXDIR
 10
1.0
 20
0.0
 30
0.0
  9
$PUCSYDIR
 10
0.0
 20
1.0
 30
0.0
  9
$USERI1
 70
     0
  9
$USERI2
 70
     0
  9
$USERI3
 70
     0
  9
$USERI4
 70
     0
  9
$USERI5
 70
     0
  9
$USERR1
 40
0.0
  9
$USERR2
 40
0.0
  9
$USERR3
 40
0.0
  9
$USERR4
 40
0.0
  9
$USERR5
 40
0.0
  9
$WORLDVIEW
 70
     1
  9
$SHADEDGE
 70
     3
  9
$SHADEDIF
 70
    70
  9
$TILEMODE
 70
     1
  9
$MAXACTVP
 70
    16
  9
$PINSBASE
 10
0.0
 20
0.0
 30
0.0
  9
$PLIMCHECK
 70
     0
  9
$PEXTMIN
 10
1.000000E+20
 20
1.000000E+20
 30
1.000000E+20
  9
$PEXTMAX
 10
-1.000000E+20
 20
-1.000000E+20
 30
-1.000000E+20
  9
$PLIMMIN
 10
0.0
 20
0.0
  9
$PLIMMAX
 10
12.0
 20
9.0
  9
$UNITMODE
 70
     0
  9
$VISRETAIN
 70
     0
  9
$PLINEGEN
 70
     1
  9
$PSLTSCALE
 70
     0
  9
$TREEDEPTH
 70
  3020
  0
ENDSEC
  0
SECTION
  2
TABLES
  0
TABLE
  2
VPORT
 70
     1
  0
VPORT
  2
*ACTIVE
 70
     0
 10
0.0
 20
0.0
 11
1.0
 21
1.0
 12
45.070323
 22
18.884319
 13
0.0
 23
0.0
 14
1.0
 24
1.0
 15
0.0
 25
0.0
 16
0.0
 26
0.0
 36
1.0
 17
0.0
 27
0.0
 37
0.0
 40
160.609612
 41
1.732051
 42
50.0
 43
0.0
 44
0.0
 50
0.0
 51
0.0
 71
     0
 72
   100
 73
     1
 74
     1
 75
     0
 76
     0
 77
     0
 78
     0
  0
ENDTAB
  0
TABLE
  2
LTYPE
 70
     3
  0
LTYPE
  2
CONTINUOUS
 70
    64
  3
Solid line
 72
    65
 73
     0
 40
0.0
  0
LTYPE
  2
PHANTOM
 70
    64
  3
Phantom ______  __  __  ______  __  __  ______
 72
    65
 73
     6
 40
63.5
 49
31.75
 49
-6.35
 49
6.35
 49
-6.35
 49
6.35
 49
-6.35
  0
LTYPE
  2
CENTER
 70
    64
  3
Center ____ _ ____ _ ____ _ ____ _ ____ _ ____
 72
    65
 73
     4
 40
50.8
 49
31.75
 49
-6.35
 49
6.35
 49
-6.35
  0
ENDTAB
  0
TABLE
  2
LAYER
 70
     3
  0
LAYER
  2
0
 70
     0
 62
     7
  6
CONTINUOUS
  0
LAYER
  2
LY_1
 70
     0
 62
     7
  6
CONTINUOUS
  0
LAYER
  2
DEFPOINTS
 70
     0
 62
     7
  6
CONTINUOUS
  0
ENDTAB
  0
TABLE
  2
STYLE
 70
     2
  0
STYLE
  2
MX_NOTE_STANDARD
 70
     0
 40
0.0
 41
1.0
 50
0.0
 71
     0
 42
3.3
  3
txt.shx
  4
extfont.shx
  0
STYLE
  2
MX_DIMTXSTY_2
 70
     0
 40
0.0
 41
0.85
 50
0.0
 71
     0
 42
3.3
  3
txt.shx
  4
extfont.shx
  0
ENDTAB
  0
TABLE
  2
VIEW
 70
     0
  0
ENDTAB
  0
TABLE
  2
UCS
 70
     0
  0
ENDTAB
  0
TABLE
  2
APPID
 70
     1
  0
APPID
  2
ACAD
 70
     0
  0
ENDTAB
  0
TABLE
  2
DIMSTYLE
 70
     1
  0
DIMSTYLE
  2
MXDIMSTYLE
 70
     0
  3

  4

  5

  6
_OPEN30
  7
_OPEN30
 40
1.0
 41
2.5
 42
0.0
 43
3.75
 44
1.1938
 45
0.0
 46
0.0
 47
0.0
 48
0.0
 71
     0
 72
     0
 73
     0
 74
     0
 75
     0
 76
     0
 77
     1
 78
     8
140
3.3
141
2.5
142
0.0
143
0.03937
144
1.0
145
0.0
146
1.0
147
1.0
170
     0
171
     4
172
     1
173
     1
174
     0
175
     0
176
     0
177
     0
178
     0
  0
ENDTAB
  0
ENDSEC
  0
SECTION
  2
BLOCKS
  0
BLOCK
  8
0
  6
BYBLOCK
 62
     0
  5
20
  2
_OPEN30
 70
     2
 10
0.0
 20
0.0
 30
0.0
  3
_OPEN30
  0
LINE
  8
0
  6
BYBLOCK
 62
     0
  5
21
 10
-1.0
 20
0.267949
 30
0.0
 11
0.0
 21
0.0
 31
0.0
  0
LINE
  8
0
  6
BYBLOCK
 62
     0
  5
22
 10
0.0
 20
0.0
 30
0.0
 11
-1.0
 21
-0.267949
 31
0.0
  0
LINE
  8
0
  6
BYBLOCK
 62
     0
  5
23
 10
0.0
 20
0.0
 30
0.0
 11
-1.0
 21
0.0
 31
0.0
  0
ENDBLK
  8
0
  6
BYBLOCK
 62
     0
  5
24
  0
BLOCK
  8
0
  6
BYBLOCK
 62
     0
  5
26
  2
*D1
 70
     1
 10
0.0
 20
0.0
 30
0.0
  3
*D1
  0
LINE
  8
0
  6
CONTINUOUS
 62
   110
  5
27
 10
78.0
 20
35.999985
 30
0.0
 11
78.0
 21
0.0
 31
0.0
  0
LINE
  8
0
  6
CONTINUOUS
 62
   110
  5
28
 10
70.0
 20
35.999985
 30
0.0
 11
79.193787
 21
35.999985
 31
0.0
  0
LINE
  8
0
  6
CONTINUOUS
 62
   110
  5
29
 10
28.567764
 20
0.0
 30
0.0
 11
79.193787
 21
0.0
 31
0.0
  0
INSERT
  8
0
  6
CONTINUOUS
 62
   110
  5
30
  2
_OPEN
 10
78.0
 20
35.999985
 30
0.0
 41
2.19
 42
2.19
 50
90.0
 43
2.19
  0
INSERT
  8
0
  6
CONTINUOUS
 62
   110
  5
31
  2
_OPEN
 10
78.0
 20
0.0
 30
0.0
 41
2.19
 42
2.19
 50
270.0
 43
2.19
  0
TEXT
  8
0
  6
CONTINUOUS
 62
   110
  5
33
 10
77.0
 20
15.233536
 30
0.0
 40
4.099999
  1
36
 50
90.0
 41
0.98743
  7
MX_DIMTXSTY_2
 11
74.95
 21
15.233536
 31
0.0
 73
     2
  0
POINT
  8
DEFPOINTS
  6
CONTINUOUS
 62
     0
  5
34
 10
70.0
 20
35.999985
 30
0.0
  0
POINT
  8
DEFPOINTS
  6
CONTINUOUS
 62
     0
  5
35
 10
28.567764
 20
0.0
 30
0.0
  0
POINT
  8
DEFPOINTS
  6
CONTINUOUS
 62
     0
  5
36
 10
78.0
 20
0.0
 30
0.0
  0
ENDBLK
  8
0
  6
BYBLOCK
 62
     0
  5
37
  0
BLOCK
  8
0
  6
BYBLOCK
 62
     0
  5
2B
  2
_OPEN
 70
     2
 10
0.0
 20
0.0
 30
0.0
  3
_OPEN
  0
LINE
  8
0
  6
BYBLOCK
 62
     0
  5
2C
 10
-1.0
 20
0.166667
 30
0.0
 11
0.0
 21
0.0
 31
0.0
  0
LINE
  8
0
  6
BYBLOCK
 62
     0
  5
2D
 10
0.0
 20
0.0
 30
0.0
 11
-1.0
 21
-0.166667
 31
0.0
  0
LINE
  8
0
  6
BYBLOCK
 62
     0
  5
2E
 10
0.0
 20
0.0
 30
0.0
 11
-1.0
 21
0.0
 31
0.0
  0
ENDBLK
  8
0
  6
BYBLOCK
 62
     0
  5
2F
  0
BLOCK
  8
0
  6
BYBLOCK
 62
     0
  5
3A
  2
*D3
 70
     1
 10
0.0
 20
0.0
 30
0.0
  3
*D3
  0
LINE
  8
0
  6
CONTINUOUS
 62
   110
  5
3B
 10
0.0
 20
43.999985
 30
0.0
 11
70.0
 21
43.999985
 31
0.0
  0
LINE
  8
0
  6
CONTINUOUS
 62
   110
  5
3C
 10
0.0
 20
22.930466
 30
0.0
 11
0.0
 21
45.193771
 31
0.0
  0
LINE
  8
0
  6
CONTINUOUS
 62
   110
  5
3D
 10
70.0
 20
35.999985
 30
0.0
 11
70.0
 21
45.193771
 31
0.0
  0
INSERT
  8
0
  6
CONTINUOUS
 62
   110
  5
3E
  2
_OPEN
 10
0.0
 20
43.999985
 30
0.0
 41
2.19
 42
2.19
 50
180.0
 43
2.19
  0
INSERT
  8
0
  6
CONTINUOUS
 62
   110
  5
3F
  2
_OPEN
 10
70.0
 20
43.999985
 30
0.0
 41
2.19
 42
2.19
 43
2.19
  0
TEXT
  8
0
  6
CONTINUOUS
 62
   110
  5
40
 10
32.294892
 20
44.999985
 30
0.0
 40
4.099999
  1
70
 41
1.077196
  7
MX_DIMTXSTY_2
 11
32.294892
 21
47.049984
 31
0.0
 73
     2
  0
POINT
  8
DEFPOINTS
  6
CONTINUOUS
 62
     0
  5
41
 10
0.0
 20
22.930466
 30
0.0
  0
POINT
  8
DEFPOINTS
  6
CONTINUOUS
 62
     0
  5
42
 10
70.0
 20
35.999985
 30
0.0
  0
POINT
  8
DEFPOINTS
  6
CONTINUOUS
 62
     0
  5
43
 10
70.0
 20
43.999985
 30
0.0
  0
ENDBLK
  8
0
  6
BYBLOCK
 62
     0
  5
44
  0
BLOCK
  8
0
  6
BYBLOCK
 62
     0
  5
47
  2
*D4
 70
     1
 10
0.0
 20
0.0
 30
0.0
  3
*D4
  0
LINE
  8
0
  6
CONTINUOUS
 62
   110
  5
48
 10
23.0
 20
-23.5
 30
0.0
 11
-21.0
 21
-23.5
 31
0.0
  0
LINE
  8
0
  6
CONTINUOUS
 62
   110
  5
49
 10
23.0
 20
-10.5
 30
0.0
 11
23.0
 21
-24.693787
 31
0.0
  0
LINE
  8
0
  6
CONTINUOUS
 62
   110
  5
4A
 10
-21.0
 20
-10.5
 30
0.0
 11
-21.0
 21
-24.693787
 31
0.0
  0
INSERT
  8
0
  6
CONTINUOUS
 62
   110
  5
4B
  2
_OPEN
 10
23.0
 20
-23.5
 30
0.0
 41
2.19
 42
2.19
 43
2.19
  0
INSERT
  8
0
  6
CONTINUOUS
 62
   110
  5
4C
  2
_OPEN
 10
-21.0
 20
-23.5
 30
0.0
 41
2.19
 42
2.19
 50
180.0
 43
2.19
  0
TEXT
  8
0
  6
CONTINUOUS
 62
   110
  5
4D
 10
-1.766448
 20
-22.5
 30
0.0
 40
4.099999
  1
44
 41
0.98743
  7
MX_DIMTXSTY_2
 11
-1.766448
 21
-20.45
 31
0.0
 73
     2
  0
POINT
  8
DEFPOINTS
  6
CONTINUOUS
 62
     0
  5
4E
 10
23.0
 20
-10.5
 30
0.0
  0
POINT
  8
DEFPOINTS
  6
CONTINUOUS
 62
     0
  5
4F
 10
-21.0
 20
-10.5
 30
0.0
  0
POINT
  8
DEFPOINTS
  6
CONTINUOUS
 62
     0
  5
50
 10
-21.0
 20
-23.5
 30
0.0
  0
ENDBLK
  8
0
  6
BYBLOCK
 62
     0
  5
51
  0
ENDSEC
  0
SECTION
  2
ENTITIES
  0
DIMENSION
  8
LY_1
  6
CONTINUOUS
 62
   110
  5
38
  2
*D1
 10
78.0
 20
0.0
 30
0.0
 11
78.0
 21
17.999985
 31
0.0
 70
   128
  1
<>
 13
70.0
 23
35.999985
 33
0.0
 14
28.567764
 24
0.0
 34
0.0
 50
90.0
  3
MXDIMSTYLE
1001
ACAD
1000
DSTYLE
1002
{
1070
     6
1000
_OPEN
1070
     7
1000
_OPEN
1070
    41
1040
2.19
1070
    44
1040
1.193787
1070
   140
1040
4.099999
1070
   271
1070
     0
1070
   284
1070
     8
1070
   340
1005
32
1070
   343
1005
2A
1070
   344
1005
2A
1002
}
  0
DIMENSION
  8
LY_1
  6
CONTINUOUS
 62
   110
  5
45
  2
*D3
 10
70.0
 20
43.999985
 30
0.0
 11
35.0
 21
43.999985
 31
0.0
 70
   128
  1
<>
 13
0.0
 23
22.930466
 33
0.0
 14
70.0
 24
35.999985
 34
0.0
  3
MXDIMSTYLE
1001
ACAD
1000
DSTYLE
1002
{
1070
     6
1000
_OPEN
1070
     7
1000
_OPEN
1070
    41
1040
2.19
1070
    44
1040
1.193787
1070
   140
1040
4.099999
1070
   271
1070
     0
1070
   284
1070
     8
1070
   340
1005
32
1070
   343
1005
2A
1070
   344
1005
2A
1002
}
  0
DIMENSION
  8
LY_1
  6
CONTINUOUS
 62
   110
  5
52
  2
*D4
 10
-21.0
 20
-23.5
 30
0.0
 11
1.0
 21
-23.5
 31
0.0
 70
   128
  1
<>
 13
23.0
 23
-10.5
 33
0.0
 14
-21.0
 24
-10.5
 34
0.0
  3
MXDIMSTYLE
1001
ACAD
1000
DSTYLE
1002
{
1070
     6
1000
_OPEN
1070
     7
1000
_OPEN
1070
    41
1040
2.19
1070
    44
1040
1.193787
1070
   140
1040
4.099999
1070
   271
1070
     0
1070
   284
1070
     8
1070
   340
1005
32
1070
   343
1005
2A
1070
   344
1005
2A
1002
}
  0
TEXT
  8
LY_1
  6
CONTINUOUS
 62
   110
  5
53
 10
-27.266677
 20
-59.59074
 30
0.0
 40
4.181479
  1
ＫＩＴＺ
 41
0.697038
  7
MX_NOTE_STANDARD
 11
-27.266677
 21
-57.5
 31
0.0
 73
     2
  0
TEXT
  8
LY_1
  6
CONTINUOUS
 62
   110
  5
54
 10
-27.212702
 20
-51.59074
 30
0.0
 40
4.181479
  1
ＦＩＧ  ＴＫ３／８
 41
0.774487
  7
MX_NOTE_STANDARD
 11
-27.212702
 21
-49.5
 31
0.0
 73
     2
  0
TEXT
  8
LY_1
  6
CONTINUOUS
 62
   110
  5
55
 10
-27.156986
 20
-43.59074
 30
0.0
 40
4.181479
  1
     ＢＡＬＬ ＶＡＬＶＥ ３／ ８
 41
0.854434
  7
MX_NOTE_STANDARD
 11
-27.156986
 21
-41.5
 31
0.0
 73
     2
  0
TEXT
  8
LY_1
  6
CONTINUOUS
 62
   110
  5
56
 10
-27.226196
 20
-35.59074
 30
0.0
 40
4.181479
  1
ＮＡＭＥ ＴＹＰＥ ６００ ＦＯＲＧＥＤ ＢＲＡＳＳ
 41
0.755124
  7
MX_NOTE_STANDARD
 11
-27.226196
 21
-33.5
 31
0.0
 73
     2
  0
CIRCLE
  8
LY_1
  6
CONTINUOUS
 62
     3
  5
57
 10
0.0
 20
83.524628
 30
0.0
 40
6.099999
  0
ARC
  8
LY_1
  6
PHANTOM
 62
   110
  5
59
 10
3.5
 20
68.718506
 30
0.0
 40
6.367795
 50
236.657493
 51
313.173278
  0
ARC
  8
LY_1
  6
PHANTOM
 62
   110
  5
5A
 10
-3.5
 20
58.079193
 30
0.0
 40
6.367795
 50
56.657519
 51
133.17328
  0
ARC
  8
LY_1
  6
CONTINUOUS
 62
     3
  5
5B
 10
37.668732
 20
-5.25
 30
0.0
 40
23.268738
 50
169.475954
 51
190.524083
  0
ARC
  8
LY_1
  6
CONTINUOUS
 62
     3
  5
5C
 10
37.668732
 20
5.25
 30
0.0
 40
23.268738
 50
169.475954
 51
190.524083
  0
ARC
  8
LY_1
  6
CONTINUOUS
 62
     3
  5
5D
 10
-35.668732
 20
-5.25
 30
0.0
 40
23.268738
 50
349.475935
 51
10.524065
  0
ARC
  8
LY_1
  6
CONTINUOUS
 62
     3
  5
5E
 10
-35.668732
 20
5.25
 30
0.0
 40
23.268738
 50
349.475935
 51
10.524065
  0
ARC
  8
LY_1
  6
CONTINUOUS
 62
     3
  5
5F
 10
21.535461
 20
30.999985
 30
0.0
 40
5.0
 50
90.000091
 51
164.999994
  0
ARC
  8
LY_1
  6
CONTINUOUS
 62
     3
  5
60
 10
22.302795
 20
29.999985
 30
0.0
 40
2.0
 50
89.999982
 51
164.999994
  0
ARC
  8
LY_1
  6
CONTINUOUS
 62
   110
  5
61
 10
0.0
 20
83.524628
 30
0.0
 40
3.0
 50
221.810301
 51
318.189683
  0
ARC
  8
LY_1
  6
CONTINUOUS
 62
     3
  5
62
 10
0.0
 20
83.524628
 30
0.0
 40
2.5
 50
233.13011
 51
306.869898
  0
ARC
  8
LY_1
  6
CONTINUOUS
 62
     3
  5
63
 10
0.0
 20
83.524628
 30
0.0
 40
3.0
 50
138.189699
 51
221.810339
  0
ARC
  8
LY_1
  6
CONTINUOUS
 62
   110
  5
64
 10
0.0
 20
83.524628
 30
0.0
 40
2.5
 50
126.86989
 51
233.130093
  0
CIRCLE
  8
LY_1
  6
CONTINUOUS
 62
     3
  5
65
 10
0.0
 20
83.524628
 30
0.0
 40
5.0
  0
ARC
  8
LY_1
  6
CONTINUOUS
 62
     3
  5
66
 10
66.0
 20
81.019638
 30
0.0
 40
4.0
 50
274.051686
 51
359.999993
  0
ARC
  8
LY_1
  6
CONTINUOUS
 62
     3
  5
67
 10
66.0
 20
86.029617
 30
0.0
 40
4.0
 50
0.000007
 51
85.948314
  0
ARC
  8
LY_1
  6
CONTINUOUS
 62
     3
  5
68
 10
37.240967
 20
84.82962
 30
0.0
 40
0.495
 50
89.999982
 51
10.546505
  0
ARC
  8
LY_1
  6
CONTINUOUS
 62
     3
  5
69
 10
37.062759
 20
82.219635
 30
0.0
 40
0.495
 50
128.11894
 51
270.000055
  0
ARC
  8
LY_1
  6
CONTINUOUS
 62
     3
  5
6A
 10
40.389175
 20
82.219635
 30
0.0
 40
0.495
 50
270.000018
 51
89.999927
  0
ARC
  8
LY_1
  6
CONTINUOUS
 62
     3
  5
6B
 10
40.389175
 20
84.82962
 30
0.0
 40
0.495
 50
308.118873
 51
89.999927
  0
ARC
  8
LY_1
  6
CONTINUOUS
 62
     3
  5
6C
 10
35.545959
 20
84.82962
 30
0.0
 40
0.495
 50
270.000018
 51
89.999982
  0
ARC
  8
LY_1
  6
CONTINUOUS
 62
     3
  5
6D
 10
32.237808
 20
84.82962
 30
0.0
 40
0.495
 50
89.999982
 51
10.546505
  0
ARC
  8
LY_1
  6
CONTINUOUS
 62
     3
  5
6E
 10
33.972824
 20
82.219635
 30
0.0
 40
0.495
 50
180.000036
 51
0.000019
  0
ARC
  8
LY_1
  6
CONTINUOUS
 62
     3
  5
6F
 10
30.542801
 20
82.219635
 30
0.0
 40
0.495
 50
180.000036
 51
0.000019
  0
ARC
  8
LY_1
  6
CONTINUOUS
 62
     3
  5
70
 10
30.542801
 20
84.82962
 30
0.0
 40
0.495
 50
359.999964
 51
179.999964
  0
ARC
  8
LY_1
  6
CONTINUOUS
 62
     3
  5
71
 10
28.847809
 20
82.219635
 30
0.0
 40
0.495
 50
235.167474
 51
359.999964
  0
ARC
  8
LY_1
  6
CONTINUOUS
 62
     3
  5
72
 10
28.847809
 20
82.219635
 30
0.0
 40
0.495
 50
359.999964
 51
55.167346
  0
ARC
  8
LY_1
  6
CONTINUOUS
 62
     3
  5
73
 10
28.847809
 20
84.82962
 30
0.0
 40
0.495
 50
214.83646
 51
124.832471
  0
ARC
  8
LY_1
  6
CONTINUOUS
 62
     3
  5
74
 10
25.610809
 20
82.219635
 30
0.0
 40
0.495
 50
180.000036
 51
0.000019
  0
ARC
  8
LY_1
  6
CONTINUOUS
 62
     3
  5
75
 10
25.610809
 20
84.82962
 30
0.0
 40
0.495
 50
359.999964
 51
179.999964
  0
ARC
  8
LY_1
  6
CONTINUOUS
 62
     3
  5
76
 10
0.0
 20
83.524628
 30
0.0
 40
7.0
 50
180.000036
 51
270.000018
  0
ARC
  8
LY_1
  6
CONTINUOUS
 62
     3
  5
77
 10
0.0
 20
83.524628
 30
0.0
 40
7.0
 50
89.999982
 51
126.86989
  0
ARC
  8
LY_1
  6
CONTINUOUS
 62
     3
  5
78
 10
-6.0
 20
91.524628
 30
0.0
 40
3.0
 50
270.000018
 51
306.869898
  0
ARC
  8
LY_1
  6
CONTINUOUS
 62
     3
  5
79
 10
-10.0
 20
86.524628
 30
0.0
 40
2.0
 50
89.999982
 51
179.999964
  0
ARC
  8
LY_1
  6
CONTINUOUS
 62
     3
  5
7A
 10
0.0
 20
83.524628
 30
0.0
 40
8.0
 50
180.000036
 51
208.955066
  0
ARC
  8
LY_1
  6
CONTINUOUS
 62
     3
  5
7B
 10
0.0
 20
83.524628
 30
0.0
 40
13.0
 50
202.619874
 51
220.832218
  0
ARC
  8
LY_1
  6
PHANTOM
 62
   110
  5
7C
 10
3.0
 20
93.524628
 30
0.0
 40
2.0
 50
360.0
 51
89.999982
  0
ARC
  8
LY_1
  6
PHANTOM
 62
   110
  5
7D
 10
8.0
 20
89.524628
 30
0.0
 40
3.0
 50
179.999964
 51
216.869872
  0
ARC
  8
LY_1
  6
PHANTOM
 62
   110
  5
7E
 10
0.0
 20
83.524628
 30
0.0
 40
7.0
 50
360.0
 51
36.869897
  0
ARC
  8
LY_1
  6
CONTINUOUS
 62
   110
  5
7F
 10
0.0
 20
83.524628
 30
0.0
 40
2.5
 50
306.869898
 51
0.0
  0
ARC
  8
LY_1
  6
CONTINUOUS
 62
     3
  5
80
 10
0.0
 20
83.524628
 30
0.0
 40
3.0
 50
318.189683
 51
0.0
  0
ARC
  8
LY_1
  6
CONTINUOUS
 62
     3
  5
81
 10
0.0
 20
83.524628
 30
0.0
 40
2.5
 50
53.130102
 51
126.86989
  0
ARC
  8
LY_1
  6
CONTINUOUS
 62
   110
  5
82
 10
0.0
 20
83.524628
 30
0.0
 40
3.0
 50
41.810317
 51
138.189699
  0
ARC
  8
LY_1
  6
CONTINUOUS
 62
   110
  5
83
 10
0.0
 20
83.524628
 30
0.0
 40
2.5
 50
0.0
 51
53.130102
  0
ARC
  8
LY_1
  6
CONTINUOUS
 62
     3
  5
84
 10
0.0
 20
83.524628
 30
0.0
 40
3.0
 50
0.0
 51
41.810317
  0
ARC
  8
LY_1
  6
CONTINUOUS
 62
     3
  5
85
 10
11.465346
 20
16.599991
 30
0.0
 40
4.0
 50
270.000018
 51
345.0
  0
ARC
  8
LY_1
  6
CONTINUOUS
 62
     3
  5
86
 10
11.465346
 20
16.599991
 30
0.0
 40
2.0
 50
270.000018
 51
345.0
  0
CIRCLE
  8
LY_1
  6
CONTINUOUS
 62
     3
  5
87
 10
103.214325
 20
0.0
 30
0.0
 40
7.474999
  0
CIRCLE
  8
LY_1
  6
CONTINUOUS
 62
   110
  5
88
 10
103.214325
 20
0.0
 30
0.0
 40
8.3
  0
LINE
  8
LY_1
  6
CONTINUOUS
 62
     3
  5
89
 10
15.000005
 20
95.47463
 30
0.0
 11
14.162846
 21
94.024631
 31
0.0
  0
LINE
  8
LY_1
  6
CONTINUOUS
 62
     3
  5
8A
 10
-12.999993
 20
95.474617
 30
0.0
 11
-12.162829
 21
94.02462
 31
0.0
  0
LINE
  8
LY_1
  6
CONTINUOUS
 62
     3
  5
8B
 10
15.0
 20
71.574623
 30
0.0
 11
14.162841
 21
73.024623
 31
0.0
  0
LINE
  8
LY_1
  6
CONTINUOUS
 62
     3
  5
8C
 10
-12.999994
 20
71.574632
 30
0.0
 11
-12.16283
 21
73.024629
 31
0.0
  0
LINE
  8
LY_1
  6
CONTINUOUS
 62
     3
  5
8D
 10
14.999994
 20
0.0
 30
0.0
 11
23.0
 21
0.0
 31
0.0
  0
LINE
  8
LY_1
  6
CONTINUOUS
 62
     3
  5
8E
 10
-13.0
 20
0.0
 30
0.0
 11
-21.0
 21
0.0
 31
0.0
  0
LINE
  8
LY_1
  6
CONTINUOUS
 62
     3
  5
8F
 10
17.698837
 20
90.450287
 30
0.0
 11
17.698837
 21
76.534836
 31
0.0
  0
LINE
  8
LY_1
  6
CONTINUOUS
 62
     3
  5
90
 10
13.0
 20
90.093048
 30
0.0
 11
13.0
 21
77.100388
 31
0.0
  0
LINE
  8
LY_1
  6
CONTINUOUS
 62
     3
  5
91
 10
96.964325
 20
12.6
 30
0.0
 11
96.964325
 21
11.9
 31
0.0
  0
LINE
  8
LY_1
  6
CONTINUOUS
 62
     3
  5
92
 10
97.714325
 20
11.9
 30
0.0
 11
97.714325
 21
10.5
 31
0.0
  0
LINE
  8
LY_1
  6
CONTINUOUS
 62
     3
  5
93
 10
96.214325
 20
35.999985
 30
0.0
 11
96.214325
 21
12.6
 31
0.0
  0
LINE
  8
LY_1
  6
CONTINUOUS
 62
     3
  5
94
 10
110.214325
 20
35.999985
 30
0.0
 11
110.214325
 21
12.6
 31
0.0
  0
LINE
  8
LY_1
  6
CONTINUOUS
 62
     3
  5
95
 10
45.070648
 20
75.527136
 30
0.0
 11
66.282622
 21
77.029649
 31
0.0
  0
LINE
  8
LY_1
  6
CONTINUOUS
 62
     3
  5
96
 10
45.070656
 20
91.522122
 30
0.0
 11
66.28263
 21
90.01961
 31
0.0
  0
LINE
  8
LY_1
  6
CONTINUOUS
 62
     3
  5
97
 10
45.999996
 20
75.524199
 30
0.0
 11
46.029144
 21
75.525049
 31
0.0
  0
LINE
  8
LY_1
  6
CONTINUOUS
 62
     3
  5
98
 10
13.586987
 20
75.524628
 30
0.0
 11
45.035217
 21
75.524628
 31
0.0
  0
LINE
  8
LY_1
  6
CONTINUOUS
 62
     3
  5
99
 10
13.586987
 20
91.524628
 30
0.0
 11
45.035324
 21
91.524628
 31
0.0
  0
LINE
  8
LY_1
  6
CONTINUOUS
 62
     3
  5
9A
 10
-12.0
 20
83.524628
 30
0.0
 11
-7.0
 21
83.524628
 31
0.0
  0
LINE
  8
LY_1
  6
CONTINUOUS
 62
     3
  5
9B
 10
13.586987
 20
91.524628
 30
0.0
 11
13.586987
 21
75.524628
 31
0.0
  0
LINE
  8
LY_1
  6
CONTINUOUS
 62
     3
  5
9C
 10
-9.836158
 20
15.5
 30
0.0
 11
-9.836158
 21
6.277559
 31
0.0
  0
LINE
  8
LY_1
  6
CONTINUOUS
 62
     3
  5
9D
 10
-7.0
 20
10.5
 30
0.0
 11
23.0
 21
10.5
 31
0.0
  0
LINE
  8
LY_1
  6
CONTINUOUS
 62
     3
  5
9E
 10
-12.0
 20
15.5
 30
0.0
 11
-7.0
 21
15.5
 31
0.0
  0
LINE
  8
LY_1
  6
CONTINUOUS
 62
     3
  5
9F
 10
-12.0
 20
15.5
 30
0.0
 11
-12.0
 21
6.277559
 31
0.0
  0
LINE
  8
LY_1
  6
CONTINUOUS
 62
     3
  5
A0
 10
-7.0
 20
15.5
 30
0.0
 11
-7.0
 21
5.387489
 31
0.0
  0
LINE
  8
LY_1
  6
CONTINUOUS
 62
     3
  5
A1
 10
-12.0
 20
6.277559
 30
0.0
 11
-7.0
 21
6.277559
 31
0.0
  0
LINE
  8
LY_1
  6
CONTINUOUS
 62
     3
  5
A2
 10
37.7276
 20
84.920227
 30
0.0
 11
39.702744
 21
84.920227
 31
0.0
  0
LINE
  8
LY_1
  6
CONTINUOUS
 62
     3
  5
A3
 10
37.062759
 20
81.72464
 30
0.0
 11
40.389175
 21
81.72464
 31
0.0
  0
LINE
  8
LY_1
  6
CONTINUOUS
 62
     3
  5
A4
 10
40.389175
 20
82.71463
 30
0.0
 11
38.495514
 21
82.71463
 31
0.0
  0
LINE
  8
LY_1
  6
CONTINUOUS
 62
     3
  5
A5
 10
40.694629
 20
84.440173
 30
0.0
 11
38.495427
 21
82.714609
 31
0.0
  0
LINE
  8
LY_1
  6
CONTINUOUS
 62
     3
  5
A6
 10
39.702653
 20
84.920176
 30
0.0
 11
36.757139
 21
82.60903
 31
0.0
  0
LINE
  8
LY_1
  6
CONTINUOUS
 62
     3
  5
A7
 10
37.240967
 20
85.324631
 30
0.0
 11
40.389175
 21
85.324631
 31
0.0
  0
LINE
  8
LY_1
  6
CONTINUOUS
 62
     3
  5
A8
 10
32.724442
 20
84.920227
 30
0.0
 11
33.477814
 21
84.920227
 31
0.0
  0
LINE
  8
LY_1
  6
CONTINUOUS
 62
     3
  5
A9
 10
34.467804
 20
84.334625
 30
0.0
 11
35.545959
 21
84.334625
 31
0.0
  0
LINE
  8
LY_1
  6
CONTINUOUS
 62
     3
  5
AA
 10
34.467804
 20
84.334625
 30
0.0
 11
34.467804
 21
82.219635
 31
0.0
  0
LINE
  8
LY_1
  6
CONTINUOUS
 62
     3
  5
AB
 10
33.477814
 20
84.920227
 30
0.0
 11
33.477814
 21
82.219635
 31
0.0
  0
LINE
  8
LY_1
  6
CONTINUOUS
 62
     3
  5
AC
 10
30.047806
 20
82.219635
 30
0.0
 11
30.047806
 21
84.82962
 31
0.0
  0
LINE
  8
LY_1
  6
CONTINUOUS
 62
     3
  5
AD
 10
31.037811
 20
84.82962
 30
0.0
 11
31.037811
 21
82.219635
 31
0.0
  0
LINE
  8
LY_1
  6
CONTINUOUS
 62
     3
  5
AE
 10
27.40576
 20
83.826106
 30
0.0
 11
28.44151
 21
84.546844
 31
0.0
  0
LINE
  8
LY_1
  6
CONTINUOUS
 62
     3
  5
AF
 10
27.405769
 20
83.826094
 30
0.0
 11
29.130545
 21
82.625889
 31
0.0
  0
LINE
  8
LY_1
  6
CONTINUOUS
 62
     3
  5
B0
 10
26.10584
 20
83.524588
 30
0.0
 11
28.565083
 21
85.23588
 31
0.0
  0
LINE
  8
LY_1
  6
CONTINUOUS
 62
     3
  5
B1
 10
26.105827
 20
83.524581
 30
0.0
 11
28.56507
 21
81.813289
 31
0.0
  0
LINE
  8
LY_1
  6
CONTINUOUS
 62
     3
  5
B2
 10
26.10582
 20
84.82962
 30
0.0
 11
26.10582
 21
82.219635
 31
0.0
  0
LINE
  8
LY_1
  6
CONTINUOUS
 62
     3
  5
B3
 10
25.115814
 20
84.82962
 30
0.0
 11
25.115814
 21
82.219635
 31
0.0
  0
LINE
  8
LY_1
  6
CONTINUOUS
 62
     3
  5
B4
 10
32.237808
 20
85.324631
 30
0.0
 11
35.545959
 21
85.324631
 31
0.0
  0
LINE
  8
LY_1
  6
CONTINUOUS
 62
     3
  5
B5
 10
-6.25
 20
12.6
 30
0.0
 11
-6.25
 21
11.9
 31
0.0
  0
LINE
  8
LY_1
  6
CONTINUOUS
 62
     3
  5
B6
 10
6.25
 20
12.6
 30
0.0
 11
6.25
 21
11.9
 31
0.0
  0
LINE
  8
LY_1
  6
CONTINUOUS
 62
     3
  5
B7
 10
-5.5
 20
11.9
 30
0.0
 11
-5.5
 21
10.5
 31
0.0
  0
LINE
  8
LY_1
  6
CONTINUOUS
 62
     3
  5
B8
 10
-6.25
 20
11.9
 30
0.0
 11
6.25
 21
11.9
 31
0.0
  0
LINE
  8
LY_1
  6
CONTINUOUS
 62
     3
  5
B9
 10
5.5
 20
11.9
 30
0.0
 11
5.5
 21
10.5
 31
0.0
  0
LINE
  8
LY_1
  6
CENTER
 62
   110
  5
BB
 10
0.0
 20
22.930466
 30
0.0
 11
0.0
 21
-15.5
 31
0.0
  0
LINE
  8
LY_1
  6
CONTINUOUS
 62
     3
  5
BC
 10
-7.0
 20
12.6
 30
0.0
 11
11.465346
 21
12.6
 31
0.0
  0
LINE
  8
LY_1
  6
CONTINUOUS
 62
     3
  5
BD
 10
0.0
 20
76.524628
 30
0.0
 11
13.586987
 21
76.524628
 31
0.0
  0
LINE
  8
LY_1
  6
CONTINUOUS
 62
     3
  5
BE
 10
0.0
 20
90.524628
 30
0.0
 11
13.586987
 21
90.524628
 31
0.0
  0
LINE
  8
LY_1
  6
CONTINUOUS
 62
     3
  5
BF
 10
-10.0
 20
88.524628
 30
0.0
 11
-6.0
 21
88.524628
 31
0.0
  0
LINE
  8
LY_1
  6
CONTINUOUS
 62
     3
  5
C0
 10
-12.0
 20
86.524628
 30
0.0
 11
-12.0
 21
78.524628
 31
0.0
  0
LINE
  8
LY_1
  6
CENTER
 62
   110
  5
C1
 10
86.302429
 20
0.0
 30
0.0
 11
117.893097
 21
0.0
 31
0.0
  0
LINE
  8
LY_1
  6
CENTER
 62
   110
  5
C2
 10
103.214325
 20
37.802338
 30
0.0
 11
103.214325
 21
-12.200533
 31
0.0
  0
LINE
  8
LY_1
  6
CONTINUOUS
 62
     3
  5
C3
 10
23.0
 20
75.524628
 30
0.0
 11
23.0
 21
71.574631
 31
0.0
  0
LINE
  8
LY_1
  6
CONTINUOUS
 62
     3
  5
C4
 10
15.0
 20
71.574631
 30
0.0
 11
23.0
 21
71.574631
 31
0.0
  0
LINE
  8
LY_1
  6
CONTINUOUS
 62
     3
  5
C5
 10
-12.162836
 20
73.024628
 30
0.0
 11
14.162836
 21
73.024628
 31
0.0
  0
LINE
  8
LY_1
  6
CONTINUOUS
 62
     3
  5
C6
 10
-21.0
 20
71.574631
 30
0.0
 11
-13.0
 21
71.574631
 31
0.0
  0
LINE
  8
LY_1
  6
CONTINUOUS
 62
     3
  5
C7
 10
15.0
 20
95.474625
 30
0.0
 11
23.0
 21
95.474625
 31
0.0
  0
LINE
  8
LY_1
  6
CONTINUOUS
 62
     3
  5
C8
 10
-12.162831
 20
94.024628
 30
0.0
 11
14.162845
 21
94.024628
 31
0.0
  0
LINE
  8
LY_1
  6
CONTINUOUS
 62
     3
  5
C9
 10
-7.0
 20
79.651642
 30
0.0
 11
-7.0
 21
75.024628
 31
0.0
  0
LINE
  8
LY_1
  6
CONTINUOUS
 62
     3
  5
CA
 10
-9.836158
 20
75.024628
 30
0.0
 11
-7.0
 21
75.024628
 31
0.0
  0
LINE
  8
LY_1
  6
CONTINUOUS
 62
     3
  5
CB
 10
-21.0
 20
77.462448
 30
0.0
 11
-11.499999
 21
77.462448
 31
0.0
  0
LINE
  8
LY_1
  6
CONTINUOUS
 62
     3
  5
CC
 10
-21.0
 20
89.586807
 30
0.0
 11
-3.499997
 21
89.586807
 31
0.0
  0
LINE
  8
LY_1
  6
CONTINUOUS
 62
     3
  5
CD
 10
97.152145
 20
10.5
 30
0.0
 11
109.276505
 21
10.5
 31
0.0
  0
LINE
  8
LY_1
  6
CONTINUOUS
 62
     3
  5
CE
 10
91.08997
 20
-0.000004
 30
0.0
 11
97.152149
 21
10.499999
 31
0.0
  0
LINE
  8
LY_1
  6
CONTINUOUS
 62
     3
  5
CF
 10
-21.0
 20
95.474625
 30
0.0
 11
-21.0
 21
71.574631
 31
0.0
  0
LINE
  8
LY_1
  6
CONTINUOUS
 62
     3
  5
D0
 10
23.0
 20
95.474625
 30
0.0
 11
23.0
 21
91.524628
 31
0.0
  0
LINE
  8
LY_1
  6
CONTINUOUS
 62
     3
  5
D1
 10
-21.0
 20
95.474625
 30
0.0
 11
-13.0
 21
95.474625
 31
0.0
  0
LINE
  8
LY_1
  6
CONTINUOUS
 62
     3
  5
D2
 10
96.214325
 20
19.619095
 30
0.0
 11
110.214325
 21
19.619095
 31
0.0
  0
LINE
  8
LY_1
  6
CONTINUOUS
 62
     3
  5
D3
 10
96.214325
 20
31.999985
 30
0.0
 11
110.214325
 21
31.999985
 31
0.0
  0
LINE
  8
LY_1
  6
CONTINUOUS
 62
     3
  5
D4
 10
96.214325
 20
35.999985
 30
0.0
 11
110.214325
 21
35.999985
 31
0.0
  0
LINE
  8
LY_1
  6
CONTINUOUS
 62
     3
  5
D5
 10
70.0
 20
85.958786
 30
0.0
 11
70.0
 21
80.167572
 31
0.0
  0
LINE
  8
LY_1
  6
PHANTOM
 62
   110
  5
D6
 10
7.0
 20
83.524628
 30
0.0
 11
7.0
 21
63.398849
 31
0.0
  0
LINE
  8
LY_1
  6
PHANTOM
 62
   110
  5
D7
 10
-7.0
 20
83.524628
 30
0.0
 11
-7.0
 21
63.398849
 31
0.0
  0
LINE
  8
LY_1
  6
PHANTOM
 62
   110
  5
D8
 10
5.0
 20
93.524628
 30
0.0
 11
5.0
 21
89.524628
 31
0.0
  0
LINE
  8
LY_1
  6
PHANTOM
 62
   110
  5
D9
 10
3.0
 20
95.524628
 30
0.0
 11
0.0
 21
95.524628
 31
0.0
  0
LINE
  8
LY_1
  6
CONTINUOUS
 62
     3
  5
DA
 10
-2.236068
 20
81.524628
 30
0.0
 11
2.236068
 21
81.524628
 31
0.0
  0
LINE
  8
LY_1
  6
CENTER
 62
   110
  5
DB
 10
-23.529587
 20
83.524628
 30
0.0
 11
73.529999
 21
83.524628
 31
0.0
  0
LINE
  8
LY_1
  6
CONTINUOUS
 62
     3
  5
DC
 10
-2.236068
 20
85.524628
 30
0.0
 11
2.236068
 21
85.524628
 31
0.0
  0
LINE
  8
LY_1
  6
CONTINUOUS
 62
     3
  5
DD
 10
-3.0
 20
20.599991
 30
0.0
 11
-3.0
 21
19.699997
 31
0.0
  0
LINE
  8
LY_1
  6
CONTINUOUS
 62
     3
  5
DE
 10
-2.886751
 20
19.699997
 30
0.0
 11
-2.886751
 21
16.099991
 31
0.0
  0
LINE
  8
LY_1
  6
CONTINUOUS
 62
     3
  5
DF
 10
-5.773502
 20
19.699997
 30
0.0
 11
-5.773502
 21
16.099991
 31
0.0
  0
LINE
  8
LY_1
  6
CONTINUOUS
 62
     3
  5
E0
 10
-6.099999
 20
16.099991
 30
0.0
 11
-6.099999
 21
14.6
 31
0.0
  0
LINE
  8
LY_1
  6
CONTINUOUS
 62
     3
  5
E1
 10
6.099999
 20
16.099991
 30
0.0
 11
6.099999
 21
14.6
 31
0.0
  0
LINE
  8
LY_1
  6
CONTINUOUS
 62
     3
  5
E2
 10
-5.773502
 20
19.699997
 30
0.0
 11
5.773502
 21
19.699997
 31
0.0
  0
LINE
  8
LY_1
  6
CONTINUOUS
 62
     3
  5
E3
 10
-6.099999
 20
16.099991
 30
0.0
 11
6.099999
 21
16.099991
 31
0.0
  0
LINE
  8
LY_1
  6
CONTINUOUS
 62
     3
  5
E4
 10
2.886751
 20
19.699997
 30
0.0
 11
2.886751
 21
16.099991
 31
0.0
  0
LINE
  8
LY_1
  6
CONTINUOUS
 62
     3
  5
E5
 10
5.773502
 20
19.699997
 30
0.0
 11
5.773502
 21
16.099991
 31
0.0
  0
LINE
  8
LY_1
  6
CONTINUOUS
 62
     3
  5
E6
 10
2.886751
 20
78.524628
 30
0.0
 11
-2.886751
 21
78.524628
 31
0.0
  0
LINE
  8
LY_1
  6
CONTINUOUS
 62
     3
  5
E7
 10
-2.886749
 20
78.524622
 30
0.0
 11
-5.773506
 21
83.524632
 31
0.0
  0
LINE
  8
LY_1
  6
CONTINUOUS
 62
     3
  5
E8
 10
-5.773505
 20
83.524622
 30
0.0
 11
-2.886748
 21
88.524632
 31
0.0
  0
LINE
  8
LY_1
  6
CONTINUOUS
 62
     3
  5
E9
 10
-2.886751
 20
88.524628
 30
0.0
 11
2.886751
 21
88.524628
 31
0.0
  0
LINE
  8
LY_1
  6
CONTINUOUS
 62
     3
  5
EA
 10
2.886748
 20
88.524632
 30
0.0
 11
5.773505
 21
83.524622
 31
0.0
  0
LINE
  8
LY_1
  6
CONTINUOUS
 62
     3
  5
EB
 10
5.773506
 20
83.524632
 30
0.0
 11
2.886749
 21
78.524622
 31
0.0
  0
LINE
  8
LY_1
  6
CONTINUOUS
 62
     3
  5
EC
 10
3.0
 20
20.599991
 30
0.0
 11
3.0
 21
19.699997
 31
0.0
  0
LINE
  8
LY_1
  6
CONTINUOUS
 62
     3
  5
ED
 10
-3.0
 20
20.599991
 30
0.0
 11
3.0
 21
20.599991
 31
0.0
  0
LINE
  8
LY_1
  6
CONTINUOUS
 62
     3
  5
EE
 10
22.302795
 20
31.999985
 30
0.0
 11
70.0
 21
31.999985
 31
0.0
  0
LINE
  8
LY_1
  6
CONTINUOUS
 62
     3
  5
EF
 10
70.0
 20
35.999985
 30
0.0
 11
70.0
 21
31.999985
 31
0.0
  0
LINE
  8
LY_1
  6
CONTINUOUS
 62
     3
  5
F0
 10
16.484765
 20
19.877915
 30
0.0
 11
15.329048
 21
15.564721
 31
0.0
  0
LINE
  8
LY_1
  6
CONTINUOUS
 62
     3
  5
F1
 10
20.370943
 20
30.517627
 30
0.0
 11
17.450691
 21
19.619096
 31
0.0
  0
LINE
  8
LY_1
  6
CONTINUOUS
 62
     3
  5
F2
 10
16.705837
 20
32.294076
 30
0.0
 11
13.586988
 21
20.654372
 31
0.0
  0
LINE
  8
LY_1
  6
CONTINUOUS
 62
     3
  5
F3
 10
13.586988
 20
20.654372
 30
0.0
 11
17.450691
 21
19.619096
 31
0.0
  0
LINE
  8
LY_1
  6
CONTINUOUS
 62
     3
  5
F4
 10
14.552913
 20
20.395553
 30
0.0
 11
13.397197
 21
16.082359
 31
0.0
  0
LINE
  8
LY_1
  6
CONTINUOUS
 62
     3
  5
F5
 10
21.535461
 20
35.999985
 30
0.0
 11
70.0
 21
35.999985
 31
0.0
  0
LINE
  8
LY_1
  6
CONTINUOUS
 62
     3
  5
F6
 10
-7.0
 20
14.6
 30
0.0
 11
11.465346
 21
14.6
 31
0.0
  0
LINE
  8
LY_1
  6
CONTINUOUS
 62
     3
  5
F7
 10
109.464325
 20
12.6
 30
0.0
 11
109.464325
 21
11.9
 31
0.0
  0
LINE
  8
LY_1
  6
CONTINUOUS
 62
     3
  5
F8
 10
96.214325
 20
12.6
 30
0.0
 11
110.214325
 21
12.6
 31
0.0
  0
LINE
  8
LY_1
  6
CONTINUOUS
 62
     3
  5
F9
 10
96.964325
 20
11.9
 30
0.0
 11
109.464325
 21
11.9
 31
0.0
  0
LINE
  8
LY_1
  6
CONTINUOUS
 62
     3
  5
FA
 10
108.714325
 20
11.9
 30
0.0
 11
108.714325
 21
10.5
 31
0.0
  0
LINE
  8
LY_1
  6
CONTINUOUS
 62
     3
  5
FB
 10
94.714325
 20
15.5
 30
0.0
 11
96.214325
 21
15.5
 31
0.0
  0
LINE
  8
LY_1
  6
CONTINUOUS
 62
     3
  5
FC
 10
94.714325
 20
15.5
 30
0.0
 11
94.714325
 21
6.277568
 31
0.0
  0
LINE
  8
LY_1
  6
CONTINUOUS
 62
     3
  5
FD
 10
109.276505
 20
-10.5
 30
0.0
 11
97.152145
 21
-10.5
 31
0.0
  0
LINE
  8
LY_1
  6
CONTINUOUS
 62
     3
  5
FE
 10
97.152149
 20
-10.499999
 30
0.0
 11
91.08997
 21
0.000004
 31
0.0
  0
LINE
  8
LY_1
  6
CONTINUOUS
 62
     3
  5
FF
 10
109.276503
 20
10.500004
 30
0.0
 11
115.338683
 21
0.000001
 31
0.0
  0
LINE
  8
LY_1
  6
CONTINUOUS
 62
     3
  5
100
 10
115.338683
 20
-0.000001
 30
0.0
 11
109.276503
 21
-10.500004
 31
0.0
  0
LINE
  8
LY_1
  6
CONTINUOUS
 62
     3
  5
101
 10
-21.0
 20
10.5
 30
0.0
 11
-12.0
 21
10.5
 31
0.0
  0
LINE
  8
LY_1
  6
CONTINUOUS
 62
     3
  5
102
 10
-21.0
 20
-10.5
 30
0.0
 11
23.0
 21
-10.5
 31
0.0
  0
LINE
  8
LY_1
  6
CONTINUOUS
 62
     3
  5
103
 10
-21.0
 20
10.5
 30
0.0
 11
-21.0
 21
-10.5
 31
0.0
  0
LINE
  8
LY_1
  6
CONTINUOUS
 62
     3
  5
104
 10
23.0
 20
10.5
 30
0.0
 11
23.0
 21
-10.5
 31
0.0
  0
LINE
  8
LY_1
  6
CENTER
 62
   110
  5
105
 10
0.0
 20
98.394028
 30
0.0
 11
0.0
 21
61.425674
 31
0.0
  0
LINE
  8
LY_1
  6
CENTER
 62
   110
  5
106
 10
-26.0
 20
0.0
 30
0.0
 11
28.0
 21
0.0
 31
0.0
  0
ENDSEC
  0
EOF
