  0
SECTION
  2
HEADER
  9
$ACADVER
  1
AC1009
  9
$DWGCODEPAGE
  3
dos932
  9
$INSBASE
 10
0.0
 20
0.0
 30
0.0
  9
$EXTMIN
 10
-36.751292
 20
-64.12539
 30
0.0
  9
$EXTMAX
 10
146.762283
 20
123.583496
 30
0.0
  9
$LIMMIN
 10
-36.751292
 20
-64.12539
  9
$LIMMAX
 10
146.762283
 20
123.583496
  9
$ORTHOMODE
 70
     0
  9
$REGENMODE
 70
     1
  9
$FILLMODE
 70
     1
  9
$QTEXTMODE
 70
     0
  9
$MIRRTEXT
 70
     1
  9
$DRAGMODE
 70
     2
  9
$LTSCALE
 40
1.0
  9
$OSMODE
 70
     0
  9
$ATTMODE
 70
     1
  9
$TEXTSIZE
 40
3.3
  9
$TRACEWID
 40
0.05
  9
$TEXTSTYLE
  7
MX_NOTE_STANDARD
  9
$CLAYER
  8
LY_1
  9
$CELTYPE
  6
CONTINUOUS
  9
$CECOLOR
 62
   256
  9
$DIMSCALE
 40
1.0
  9
$DIMASZ
 40
2.5
  9
$DIMEXO
 40
0.0
  9
$DIMDLI
 40
3.75
  9
$DIMRND
 40
0.0
  9
$DIMDLE
 40
0.0
  9
$DIMEXE
 40
1.1938
  9
$DIMTP
 40
0.0
  9
$DIMTM
 40
0.0
  9
$DIMTXT
 40
3.3
  9
$DIMCEN
 40
2.5
  9
$DIMTSZ
 40
0.0
  9
$DIMTOL
 70
     0
  9
$DIMLIM
 70
     0
  9
$DIMTIH
 70
     0
  9
$DIMTOH
 70
     0
  9
$DIMSE1
 70
     0
  9
$DIMSE2
 70
     0
  9
$DIMTAD
 70
     1
  9
$DIMZIN
 70
     8
  9
$DIMBLK
  1

  9
$DIMASO
 70
     1
  9
$DIMSHO
 70
     1
  9
$DIMPOST
  1

  9
$DIMAPOST
  1

  9
$DIMALT
 70
     0
  9
$DIMALTD
 70
     4
  9
$DIMALTF
 40
0.03937
  9
$DIMLFAC
 40
1.0
  9
$DIMTOFL
 70
     1
  9
$DIMTVP
 40
0.0
  9
$DIMTIX
 70
     0
  9
$DIMSOXD
 70
     0
  9
$DIMSAH
 70
     1
  9
$DIMBLK1
  1
_OPEN30
  9
$DIMBLK2
  1
_OPEN30
  9
$DIMSTYLE
  2
MXDIMSTYLE
  9
$DIMCLRD
 70
     0
  9
$DIMCLRE
 70
     0
  9
$DIMCLRT
 70
     0
  9
$DIMTFAC
 40
1.0
  9
$DIMGAP
 40
1.0
  9
$LUNITS
 70
     2
  9
$LUPREC
 70
     4
  9
$AXISMODE
 70
     0
  9
$AXISUNIT
 10
0.0
 20
0.0
  9
$SKETCHINC
 40
0.1
  9
$FILLETRAD
 40
0.0
  9
$AUNITS
 70
     0
  9
$AUPREC
 70
     0
  9
$MENU
  1
acad
  9
$ELEVATION
 40
0.0
  9
$PELEVATION
 40
0.0
  9
$THICKNESS
 40
0.0
  9
$LIMCHECK
 70
     0
  9
$BLIPMODE
 70
     1
  9
$CHAMFERA
 40
0.0
  9
$CHAMFERB
 40
0.0
  9
$SKPOLY
 70
     0
  9
$TDCREATE
 40
2454901.551782407
  9
$TDUPDATE
 40
2454901.551782407
  9
$TDINDWG
 40
0.0000000000
  9
$TDUSRTIMER
 40
0.0000000000
  9
$USRTIMER
 70
     1
  9
$ANGBASE
 50
0.0
  9
$ANGDIR
 70
     0
  9
$PDMODE
 70
     0
  9
$PDSIZE
 40
0.0
  9
$PLINEWID
 40
0.0
  9
$COORDS
 70
     1
  9
$SPLFRAME
 70
     0
  9
$SPLINETYPE
 70
     6
  9
$SPLINESEGS
 70
     8
  9
$ATTDIA
 70
     0
  9
$ATTREQ
 70
     1
  9
$HANDLING
 70
     1
  9
$HANDSEED
  5
124
  9
$SURFTAB1
 70
     6
  9
$SURFTAB2
 70
     6
  9
$SURFTYPE
 70
     6
  9
$SURFU
 70
     6
  9
$SURFV
 70
     6
  9
$UCSNAME
  2

  9
$UCSORG
 10
0.0
 20
0.0
 30
0.0
  9
$UCSXDIR
 10
1.0
 20
0.0
 30
0.0
  9
$UCSYDIR
 10
0.0
 20
1.0
 30
0.0
  9
$PUCSNAME
  2

  9
$PUCSORG
 10
0.0
 20
0.0
 30
0.0
  9
$PUCSXDIR
 10
1.0
 20
0.0
 30
0.0
  9
$PUCSYDIR
 10
0.0
 20
1.0
 30
0.0
  9
$USERI1
 70
     0
  9
$USERI2
 70
     0
  9
$USERI3
 70
     0
  9
$USERI4
 70
     0
  9
$USERI5
 70
     0
  9
$USERR1
 40
0.0
  9
$USERR2
 40
0.0
  9
$USERR3
 40
0.0
  9
$USERR4
 40
0.0
  9
$USERR5
 40
0.0
  9
$WORLDVIEW
 70
     1
  9
$SHADEDGE
 70
     3
  9
$SHADEDIF
 70
    70
  9
$TILEMODE
 70
     1
  9
$MAXACTVP
 70
    16
  9
$PINSBASE
 10
0.0
 20
0.0
 30
0.0
  9
$PLIMCHECK
 70
     0
  9
$PEXTMIN
 10
1.000000E+20
 20
1.000000E+20
 30
1.000000E+20
  9
$PEXTMAX
 10
-1.000000E+20
 20
-1.000000E+20
 30
-1.000000E+20
  9
$PLIMMIN
 10
0.0
 20
0.0
  9
$PLIMMAX
 10
12.0
 20
9.0
  9
$UNITMODE
 70
     0
  9
$VISRETAIN
 70
     0
  9
$PLINEGEN
 70
     1
  9
$PSLTSCALE
 70
     0
  9
$TREEDEPTH
 70
  3020
  0
ENDSEC
  0
SECTION
  2
TABLES
  0
TABLE
  2
VPORT
 70
     1
  0
VPORT
  2
*ACTIVE
 70
     0
 10
0.0
 20
0.0
 11
1.0
 21
1.0
 12
55.005496
 22
29.729053
 13
0.0
 23
0.0
 14
1.0
 24
1.0
 15
0.0
 25
0.0
 16
0.0
 26
0.0
 36
1.0
 17
0.0
 27
0.0
 37
0.0
 40
189.585975
 41
1.732051
 42
50.0
 43
0.0
 44
0.0
 50
0.0
 51
0.0
 71
     0
 72
   100
 73
     1
 74
     1
 75
     0
 76
     0
 77
     0
 78
     0
  0
ENDTAB
  0
TABLE
  2
LTYPE
 70
     3
  0
LTYPE
  2
CONTINUOUS
 70
    64
  3
Solid line
 72
    65
 73
     0
 40
0.0
  0
LTYPE
  2
PHANTOM
 70
    64
  3
Phantom ______  __  __  ______  __  __  ______
 72
    65
 73
     6
 40
63.5
 49
31.75
 49
-6.35
 49
6.35
 49
-6.35
 49
6.35
 49
-6.35
  0
LTYPE
  2
CENTER
 70
    64
  3
Center ____ _ ____ _ ____ _ ____ _ ____ _ ____
 72
    65
 73
     4
 40
50.8
 49
31.75
 49
-6.35
 49
6.35
 49
-6.35
  0
ENDTAB
  0
TABLE
  2
LAYER
 70
     3
  0
LAYER
  2
0
 70
     0
 62
     7
  6
CONTINUOUS
  0
LAYER
  2
LY_1
 70
     0
 62
     7
  6
CONTINUOUS
  0
LAYER
  2
DEFPOINTS
 70
     0
 62
     7
  6
CONTINUOUS
  0
ENDTAB
  0
TABLE
  2
STYLE
 70
     2
  0
STYLE
  2
MX_NOTE_STANDARD
 70
     0
 40
0.0
 41
1.0
 50
0.0
 71
     0
 42
3.3
  3
txt.shx
  4
extfont.shx
  0
STYLE
  2
MX_DIMTXSTY_2
 70
     0
 40
0.0
 41
0.85
 50
0.0
 71
     0
 42
3.3
  3
txt.shx
  4
extfont.shx
  0
ENDTAB
  0
TABLE
  2
VIEW
 70
     0
  0
ENDTAB
  0
TABLE
  2
UCS
 70
     0
  0
ENDTAB
  0
TABLE
  2
APPID
 70
     1
  0
APPID
  2
ACAD
 70
     0
  0
ENDTAB
  0
TABLE
  2
DIMSTYLE
 70
     1
  0
DIMSTYLE
  2
MXDIMSTYLE
 70
     0
  3

  4

  5

  6
_OPEN30
  7
_OPEN30
 40
1.0
 41
2.5
 42
0.0
 43
3.75
 44
1.1938
 45
0.0
 46
0.0
 47
0.0
 48
0.0
 71
     0
 72
     0
 73
     0
 74
     0
 75
     0
 76
     0
 77
     1
 78
     8
140
3.3
141
2.5
142
0.0
143
0.03937
144
1.0
145
0.0
146
1.0
147
1.0
170
     0
171
     4
172
     1
173
     1
174
     0
175
     0
176
     0
177
     0
178
     0
  0
ENDTAB
  0
ENDSEC
  0
SECTION
  2
BLOCKS
  0
BLOCK
  8
0
  6
BYBLOCK
 62
     0
  5
20
  2
_OPEN30
 70
     2
 10
0.0
 20
0.0
 30
0.0
  3
_OPEN30
  0
LINE
  8
0
  6
BYBLOCK
 62
     0
  5
21
 10
-1.0
 20
0.267949
 30
0.0
 11
0.0
 21
0.0
 31
0.0
  0
LINE
  8
0
  6
BYBLOCK
 62
     0
  5
22
 10
0.0
 20
0.0
 30
0.0
 11
-1.0
 21
-0.267949
 31
0.0
  0
LINE
  8
0
  6
BYBLOCK
 62
     0
  5
23
 10
0.0
 20
0.0
 30
0.0
 11
-1.0
 21
0.0
 31
0.0
  0
ENDBLK
  8
0
  6
BYBLOCK
 62
     0
  5
24
  0
BLOCK
  8
0
  6
BYBLOCK
 62
     0
  5
26
  2
*D1
 70
     1
 10
0.0
 20
0.0
 30
0.0
  3
*D1
  0
LINE
  8
0
  6
CONTINUOUS
 62
   110
  5
27
 10
93.0
 20
44.0
 30
0.0
 11
93.0
 21
0.0
 31
0.0
  0
LINE
  8
0
  6
CONTINUOUS
 62
   110
  5
28
 10
85.0
 20
44.0
 30
0.0
 11
94.193787
 21
44.0
 31
0.0
  0
LINE
  8
0
  6
CONTINUOUS
 62
   110
  5
29
 10
37.0
 20
0.0
 30
0.0
 11
94.193787
 21
0.0
 31
0.0
  0
INSERT
  8
0
  6
CONTINUOUS
 62
   110
  5
30
  2
_OPEN
 10
93.0
 20
44.0
 30
0.0
 41
2.19
 42
2.19
 50
90.0
 43
2.19
  0
INSERT
  8
0
  6
CONTINUOUS
 62
   110
  5
31
  2
_OPEN
 10
93.0
 20
0.0
 30
0.0
 41
2.19
 42
2.19
 50
270.0
 43
2.19
  0
TEXT
  8
0
  6
CONTINUOUS
 62
   110
  5
33
 10
92.0
 20
19.233552
 30
0.0
 40
4.099999
  1
44
 50
90.0
 41
0.98743
  7
MX_DIMTXSTY_2
 11
89.95
 21
19.233552
 31
0.0
 73
     2
  0
POINT
  8
DEFPOINTS
  6
CONTINUOUS
 62
     0
  5
34
 10
85.0
 20
44.0
 30
0.0
  0
POINT
  8
DEFPOINTS
  6
CONTINUOUS
 62
     0
  5
35
 10
37.0
 20
0.0
 30
0.0
  0
POINT
  8
DEFPOINTS
  6
CONTINUOUS
 62
     0
  5
36
 10
93.0
 20
0.0
 30
0.0
  0
ENDBLK
  8
0
  6
BYBLOCK
 62
     0
  5
37
  0
BLOCK
  8
0
  6
BYBLOCK
 62
     0
  5
2B
  2
_OPEN
 70
     2
 10
0.0
 20
0.0
 30
0.0
  3
_OPEN
  0
LINE
  8
0
  6
BYBLOCK
 62
     0
  5
2C
 10
-1.0
 20
0.166667
 30
0.0
 11
0.0
 21
0.0
 31
0.0
  0
LINE
  8
0
  6
BYBLOCK
 62
     0
  5
2D
 10
0.0
 20
0.0
 30
0.0
 11
-1.0
 21
-0.166667
 31
0.0
  0
LINE
  8
0
  6
BYBLOCK
 62
     0
  5
2E
 10
0.0
 20
0.0
 30
0.0
 11
-1.0
 21
0.0
 31
0.0
  0
ENDBLK
  8
0
  6
BYBLOCK
 62
     0
  5
2F
  0
BLOCK
  8
0
  6
BYBLOCK
 62
     0
  5
3A
  2
*D3
 70
     1
 10
0.0
 20
0.0
 30
0.0
  3
*D3
  0
LINE
  8
0
  6
CONTINUOUS
 62
   110
  5
3B
 10
29.0
 20
-27.0
 30
0.0
 11
-30.0
 21
-27.0
 31
0.0
  0
LINE
  8
0
  6
CONTINUOUS
 62
   110
  5
3C
 10
29.0
 20
-16.0
 30
0.0
 11
29.0
 21
-28.193787
 31
0.0
  0
LINE
  8
0
  6
CONTINUOUS
 62
   110
  5
3D
 10
-30.0
 20
-16.0
 30
0.0
 11
-30.0
 21
-28.193787
 31
0.0
  0
INSERT
  8
0
  6
CONTINUOUS
 62
   110
  5
3E
  2
_OPEN
 10
29.0
 20
-27.0
 30
0.0
 41
2.19
 42
2.19
 43
2.19
  0
INSERT
  8
0
  6
CONTINUOUS
 62
   110
  5
3F
  2
_OPEN
 10
-30.0
 20
-27.0
 30
0.0
 41
2.19
 42
2.19
 50
180.0
 43
2.19
  0
TEXT
  8
0
  6
CONTINUOUS
 62
   110
  5
40
 10
-3.266448
 20
-26.0
 30
0.0
 40
4.099999
  1
59
 41
0.98743
  7
MX_DIMTXSTY_2
 11
-3.266448
 21
-23.95
 31
0.0
 73
     2
  0
POINT
  8
DEFPOINTS
  6
CONTINUOUS
 62
     0
  5
41
 10
29.0
 20
-16.0
 30
0.0
  0
POINT
  8
DEFPOINTS
  6
CONTINUOUS
 62
     0
  5
42
 10
-30.0
 20
-16.0
 30
0.0
  0
POINT
  8
DEFPOINTS
  6
CONTINUOUS
 62
     0
  5
43
 10
-30.0
 20
-27.0
 30
0.0
  0
ENDBLK
  8
0
  6
BYBLOCK
 62
     0
  5
44
  0
BLOCK
  8
0
  6
BYBLOCK
 62
     0
  5
47
  2
*D4
 70
     1
 10
0.0
 20
0.0
 30
0.0
  3
*D4
  0
LINE
  8
0
  6
CONTINUOUS
 62
   110
  5
48
 10
0.0
 20
51.643738
 30
0.0
 11
85.0
 21
51.643738
 31
0.0
  0
LINE
  8
0
  6
CONTINUOUS
 62
   110
  5
49
 10
0.0
 20
30.413345
 30
0.0
 11
0.0
 21
52.83754
 31
0.0
  0
LINE
  8
0
  6
CONTINUOUS
 62
   110
  5
4A
 10
85.0
 20
44.0
 30
0.0
 11
85.0
 21
52.83754
 31
0.0
  0
INSERT
  8
0
  6
CONTINUOUS
 62
   110
  5
4B
  2
_OPEN
 10
0.0
 20
51.643738
 30
0.0
 41
2.19
 42
2.19
 50
180.0
 43
2.19
  0
INSERT
  8
0
  6
CONTINUOUS
 62
   110
  5
4C
  2
_OPEN
 10
85.0
 20
51.643738
 30
0.0
 41
2.19
 42
2.19
 43
2.19
  0
TEXT
  8
0
  6
CONTINUOUS
 62
   110
  5
4D
 10
39.733552
 20
52.643738
 30
0.0
 40
4.099999
  1
85
 41
0.98743
  7
MX_DIMTXSTY_2
 11
39.733552
 21
54.693738
 31
0.0
 73
     2
  0
POINT
  8
DEFPOINTS
  6
CONTINUOUS
 62
     0
  5
4E
 10
0.0
 20
30.413345
 30
0.0
  0
POINT
  8
DEFPOINTS
  6
CONTINUOUS
 62
     0
  5
4F
 10
85.0
 20
44.0
 30
0.0
  0
POINT
  8
DEFPOINTS
  6
CONTINUOUS
 62
     0
  5
50
 10
85.0
 20
51.643738
 30
0.0
  0
ENDBLK
  8
0
  6
BYBLOCK
 62
     0
  5
51
  0
ENDSEC
  0
SECTION
  2
ENTITIES
  0
DIMENSION
  8
LY_1
  6
CONTINUOUS
 62
   110
  5
38
  2
*D1
 10
93.0
 20
0.0
 30
0.0
 11
93.0
 21
22.0
 31
0.0
 70
   128
  1
<>
 13
85.0
 23
44.0
 33
0.0
 14
37.0
 24
0.0
 34
0.0
 50
90.0
  3
MXDIMSTYLE
1001
ACAD
1000
DSTYLE
1002
{
1070
     6
1000
_OPEN
1070
     7
1000
_OPEN
1070
    41
1040
2.19
1070
    44
1040
1.193787
1070
   140
1040
4.099999
1070
   271
1070
     0
1070
   284
1070
     8
1070
   340
1005
32
1070
   343
1005
2A
1070
   344
1005
2A
1002
}
  0
DIMENSION
  8
LY_1
  6
CONTINUOUS
 62
   110
  5
45
  2
*D3
 10
-30.0
 20
-27.0
 30
0.0
 11
-0.5
 21
-27.0
 31
0.0
 70
   128
  1
<>
 13
29.0
 23
-16.0
 33
0.0
 14
-30.0
 24
-16.0
 34
0.0
  3
MXDIMSTYLE
1001
ACAD
1000
DSTYLE
1002
{
1070
     6
1000
_OPEN
1070
     7
1000
_OPEN
1070
    41
1040
2.19
1070
    44
1040
1.193787
1070
   140
1040
4.099999
1070
   271
1070
     0
1070
   284
1070
     8
1070
   340
1005
32
1070
   343
1005
2A
1070
   344
1005
2A
1002
}
  0
DIMENSION
  8
LY_1
  6
CONTINUOUS
 62
   110
  5
52
  2
*D4
 10
85.0
 20
51.643738
 30
0.0
 11
42.5
 21
51.643738
 31
0.0
 70
   128
  1
<>
 13
0.0
 23
30.413345
 33
0.0
 14
85.0
 24
44.0
 34
0.0
  3
MXDIMSTYLE
1001
ACAD
1000
DSTYLE
1002
{
1070
     6
1000
_OPEN
1070
     7
1000
_OPEN
1070
    41
1040
2.19
1070
   140
1040
4.099999
1070
   271
1070
     0
1070
   284
1070
     8
1070
   340
1005
32
1070
   343
1005
2A
1070
   344
1005
2A
1002
}
  0
TEXT
  8
LY_1
  6
CONTINUOUS
 62
   110
  5
53
 10
-36.115369
 20
-63.09074
 30
0.0
 40
4.181479
  1
KITZ
 41
0.912486
  7
MX_NOTE_STANDARD
 11
-36.115369
 21
-61.0
 31
0.0
 73
     2
  0
TEXT
  8
LY_1
  6
CONTINUOUS
 62
   110
  5
54
 10
-36.073944
 20
-55.09074
 30
0.0
 40
4.181479
  1
FIG   TK3/4
 41
0.971926
  7
MX_NOTE_STANDARD
 11
-36.073944
 21
-53.0
 31
0.0
 73
     2
  0
TEXT
  8
LY_1
  6
CONTINUOUS
 62
   110
  5
55
 10
-36.083815
 20
-46.245372
 30
0.0
 40
4.181479
  1
      BALL VALVE 3/4
 41
0.957762
  7
MX_NOTE_STANDARD
 11
-36.083815
 21
-44.154633
 31
0.0
 73
     2
  0
TEXT
  8
LY_1
  6
CONTINUOUS
 62
   110
  5
56
 10
-36.11322
 20
-39.09074
 30
0.0
 40
4.181479
  1
NAME  TYPE 600 FORGED BRASS
 41
0.915569
  7
MX_NOTE_STANDARD
 11
-36.11322
 21
-37.0
 31
0.0
 73
     2
  0
ARC
  8
LY_1
  6
PHANTOM
 62
   110
  5
58
 10
4.0
 20
84.666931
 30
0.0
 40
8.49498
 50
241.909417
 51
304.997105
  0
ARC
  8
LY_1
  6
PHANTOM
 62
   110
  5
59
 10
-4.0
 20
69.678314
 30
0.0
 40
8.49498
 50
61.909436
 51
124.997106
  0
ARC
  8
LY_1
  6
CONTINUOUS
 62
     3
  5
5A
 10
47.16687
 20
101.73999
 30
0.0
 40
0.66
 50
89.999982
 51
10.546505
  0
ARC
  8
LY_1
  6
CONTINUOUS
 62
     3
  5
5B
 10
46.92926
 20
98.259995
 30
0.0
 40
0.66
 50
128.11894
 51
270.000055
  0
ARC
  8
LY_1
  6
CONTINUOUS
 62
     3
  5
5C
 10
51.364456
 20
98.259995
 30
0.0
 40
0.66
 50
270.000018
 51
89.999927
  0
ARC
  8
LY_1
  6
CONTINUOUS
 62
     3
  5
5D
 10
51.364456
 20
101.73999
 30
0.0
 40
0.66
 50
308.118873
 51
89.999927
  0
ARC
  8
LY_1
  6
CONTINUOUS
 62
     3
  5
5E
 10
44.906845
 20
101.73999
 30
0.0
 40
0.66
 50
270.000018
 51
89.999982
  0
ARC
  8
LY_1
  6
CONTINUOUS
 62
     3
  5
5F
 10
40.495987
 20
101.73999
 30
0.0
 40
0.66
 50
89.999982
 51
10.546505
  0
ARC
  8
LY_1
  6
CONTINUOUS
 62
     3
  5
60
 10
42.809326
 20
98.259995
 30
0.0
 40
0.66
 50
180.000036
 51
0.000019
  0
ARC
  8
LY_1
  6
CONTINUOUS
 62
     3
  5
61
 10
38.235977
 20
98.259995
 30
0.0
 40
0.66
 50
180.000036
 51
0.000019
  0
ARC
  8
LY_1
  6
CONTINUOUS
 62
     3
  5
62
 10
38.235977
 20
101.73999
 30
0.0
 40
0.66
 50
359.999964
 51
179.999964
  0
ARC
  8
LY_1
  6
CONTINUOUS
 62
     3
  5
63
 10
35.975998
 20
98.259995
 30
0.0
 40
0.66
 50
235.167474
 51
359.999964
  0
ARC
  8
LY_1
  6
CONTINUOUS
 62
     3
  5
64
 10
35.975998
 20
98.259995
 30
0.0
 40
0.66
 50
359.999964
 51
55.167346
  0
ARC
  8
LY_1
  6
CONTINUOUS
 62
     3
  5
65
 10
35.975998
 20
101.73999
 30
0.0
 40
0.66
 50
214.83646
 51
124.832471
  0
ARC
  8
LY_1
  6
CONTINUOUS
 62
     3
  5
66
 10
31.659988
 20
98.259995
 30
0.0
 40
0.66
 50
180.000036
 51
0.000019
  0
ARC
  8
LY_1
  6
CONTINUOUS
 62
     3
  5
67
 10
31.659988
 20
101.73999
 30
0.0
 40
0.66
 50
359.999964
 51
179.999964
  0
ARC
  8
LY_1
  6
CONTINUOUS
 62
     3
  5
68
 10
51.5
 20
-8.0
 30
0.0
 40
32.5
 50
167.561916
 51
192.438066
  0
ARC
  8
LY_1
  6
CONTINUOUS
 62
     3
  5
69
 10
51.5
 20
8.0
 30
0.0
 40
32.5
 50
167.561916
 51
192.438066
  0
ARC
  8
LY_1
  6
CONTINUOUS
 62
     3
  5
6A
 10
-52.5
 20
-8.0
 30
0.0
 40
32.5
 50
347.561908
 51
12.438092
  0
ARC
  8
LY_1
  6
CONTINUOUS
 62
     3
  5
6B
 10
-52.5
 20
8.0
 30
0.0
 40
32.5
 50
347.561908
 51
12.438092
  0
ARC
  8
LY_1
  6
CONTINUOUS
 62
     3
  5
6C
 10
23.419693
 20
39.299988
 30
0.0
 40
1.3
 50
90.000037
 51
164.999994
  0
ARC
  8
LY_1
  6
CONTINUOUS
 62
     3
  5
6D
 10
23.419708
 20
39.300003
 30
0.0
 40
4.7
 50
89.999982
 51
164.999994
  0
ARC
  8
LY_1
  6
PHANTOM
 62
   110
  5
6E
 10
3.0
 20
110.499985
 30
0.0
 40
3.0
 50
359.999982
 51
90.000037
  0
ARC
  8
LY_1
  6
PHANTOM
 62
   110
  5
6F
 10
9.0
 20
106.324554
 30
0.0
 40
3.0
 50
180.000036
 51
215.096826
  0
ARC
  8
LY_1
  6
PHANTOM
 62
   110
  5
70
 10
0.0
 20
100.0
 30
0.0
 40
8.0
 50
359.999982
 51
35.096828
  0
ARC
  8
LY_1
  6
PHANTOM
 62
   110
  5
71
 10
0.0
 20
100.0
 30
0.0
 40
8.0
 50
89.999982
 51
180.000019
  0
ARC
  8
LY_1
  6
CONTINUOUS
 62
     3
  5
72
 10
0.0
 20
100.0
 30
0.0
 40
3.5
 50
225.584718
 51
314.415307
  0
ARC
  8
LY_1
  6
CONTINUOUS
 62
     3
  5
73
 10
0.0
 20
100.0
 30
0.0
 40
3.5
 50
45.584693
 51
134.415282
  0
ARC
  8
LY_1
  6
CONTINUOUS
 62
   110
  5
74
 10
0.0
 20
100.0
 30
0.0
 40
4.0
 50
218.682184
 51
321.317811
  0
ARC
  8
LY_1
  6
CONTINUOUS
 62
   110
  5
75
 10
0.0
 20
100.0
 30
0.0
 40
4.0
 50
38.682189
 51
141.317816
  0
ARC
  8
LY_1
  6
CONTINUOUS
 62
   110
  5
76
 10
0.0
 20
100.0
 30
0.0
 40
3.5
 50
314.415307
 51
0.0
  0
ARC
  8
LY_1
  6
CONTINUOUS
 62
   110
  5
77
 10
0.0
 20
100.0
 30
0.0
 40
3.5
 50
134.415282
 51
225.584647
  0
ARC
  8
LY_1
  6
CONTINUOUS
 62
   110
  5
78
 10
0.0
 20
100.0
 30
0.0
 40
3.5
 50
0.0
 51
45.584693
  0
CIRCLE
  8
LY_1
  6
CONTINUOUS
 62
     3
  5
79
 10
0.0
 20
100.0
 30
0.0
 40
6.25
  0
ARC
  8
LY_1
  6
CONTINUOUS
 62
     3
  5
7A
 10
-10.499985
 20
103.0
 30
0.0
 40
3.0
 50
89.999982
 51
180.000019
  0
ARC
  8
LY_1
  6
CONTINUOUS
 62
     3
  5
7B
 10
-6.324554
 20
109.0
 30
0.0
 40
3.0
 50
270.000018
 51
305.096802
  0
ARC
  8
LY_1
  6
CONTINUOUS
 62
     3
  5
7C
 10
0.0
 20
100.0
 30
0.0
 40
8.0
 50
89.999982
 51
125.096827
  0
ARC
  8
LY_1
  6
CONTINUOUS
 62
     3
  5
7D
 10
0.0
 20
100.0
 30
0.0
 40
8.0
 50
179.999981
 51
270.000018
  0
ARC
  8
LY_1
  6
CONTINUOUS
 62
     3
  5
7E
 10
81.300003
 20
97.034958
 30
0.0
 40
3.7
 50
273.999995
 51
359.999974
  0
ARC
  8
LY_1
  6
CONTINUOUS
 62
     3
  5
7F
 10
81.300003
 20
102.964554
 30
0.0
 40
3.7
 50
359.999965
 51
86.000005
  0
ARC
  8
LY_1
  6
CONTINUOUS
 62
     3
  5
80
 10
0.0
 20
100.0
 30
0.0
 40
4.05
 50
321.881937
 51
38.118063
  0
ARC
  8
LY_1
  6
CONTINUOUS
 62
     3
  5
81
 10
0.0
 20
100.0
 30
0.0
 40
4.05
 50
141.881935
 51
218.118048
  0
ARC
  8
LY_1
  6
CONTINUOUS
 62
     3
  5
82
 10
-8.499985
 20
91.5
 30
0.0
 40
0.5
 50
270.000018
 51
0.0
  0
ARC
  8
LY_1
  6
CONTINUOUS
 62
     3
  5
83
 10
0.0
 20
100.0
 30
0.0
 40
9.0
 50
180.000036
 51
207.266096
  0
ARC
  8
LY_1
  6
CONTINUOUS
 62
     3
  5
84
 10
1.535904
 20
-16.0
 30
0.0
 40
2.0
 50
30.000001
 51
89.999982
  0
ARC
  8
LY_1
  6
CONTINUOUS
 62
     3
  5
85
 10
-7.535889
 20
-16.0
 30
0.0
 40
2.0
 50
89.999982
 51
149.99997
  0
ARC
  8
LY_1
  6
CONTINUOUS
 62
     3
  5
86
 10
12.465347
 20
21.600006
 30
0.0
 40
4.0
 50
270.000018
 51
345.000003
  0
ARC
  8
LY_1
  6
CONTINUOUS
 62
     3
  5
87
 10
12.465347
 20
21.600006
 30
0.0
 40
2.0
 50
270.000018
 51
345.000006
  0
CIRCLE
  8
LY_1
  6
CONTINUOUS
 62
     3
  5
88
 10
125.0
 20
0.0
 30
0.0
 40
12.058492
  0
CIRCLE
  8
LY_1
  6
CONTINUOUS
 62
   110
  5
89
 10
125.0
 20
0.0
 30
0.0
 40
13.22049
  0
ARC
  8
LY_1
  6
CONTINUOUS
 62
     3
  5
8A
 10
0.0
 20
100.0
 30
0.0
 40
14.5
 50
201.40339
 51
218.36652
  0
ARC
  8
LY_1
  6
CONTINUOUS
 62
     3
  5
8B
 10
15.325684
 20
83.0
 30
0.0
 40
1.0
 50
30.000028
 51
90.000037
  0
ARC
  8
LY_1
  6
CONTINUOUS
 62
     3
  5
8C
 10
15.325684
 20
117.0
 30
0.0
 40
1.0
 50
269.999963
 51
329.999972
  0
ARC
  8
LY_1
  6
CONTINUOUS
 62
     3
  5
8D
 10
1.291901
 20
115.5
 30
0.0
 40
2.0
 50
270.000018
 51
337.97569
  0
ARC
  8
LY_1
  6
CONTINUOUS
 62
     3
  5
8E
 10
1.291901
 20
84.5
 30
0.0
 40
2.0
 50
22.02431
 51
89.999982
  0
ARC
  8
LY_1
  6
CONTINUOUS
 62
     3
  5
8F
 10
5.0
 20
86.0
 30
0.0
 40
2.0
 50
202.024336
 51
270.000018
  0
ARC
  8
LY_1
  6
CONTINUOUS
 62
     3
  5
90
 10
5.0
 20
114.0
 30
0.0
 40
2.0
 50
89.999982
 51
157.975664
  0
ARC
  8
LY_1
  6
CONTINUOUS
 62
     3
  5
91
 10
-7.291901
 20
84.5
 30
0.0
 40
2.0
 50
89.999982
 51
157.975664
  0
ARC
  8
LY_1
  6
CONTINUOUS
 62
     3
  5
92
 10
-11.0
 20
86.0
 30
0.0
 40
2.0
 50
270.000018
 51
337.975686
  0
ARC
  8
LY_1
  6
CONTINUOUS
 62
     3
  5
93
 10
-7.291901
 20
115.5
 30
0.0
 40
2.0
 50
202.024336
 51
270.000018
  0
ARC
  8
LY_1
  6
CONTINUOUS
 62
     3
  5
94
 10
-11.0
 20
114.0
 30
0.0
 40
2.0
 50
22.024314
 51
89.999982
  0
ARC
  8
LY_1
  6
CONTINUOUS
 62
     3
  5
95
 10
-16.325684
 20
83.0
 30
0.0
 40
1.0
 50
89.999927
 51
149.99997
  0
ARC
  8
LY_1
  6
CONTINUOUS
 62
     3
  5
96
 10
-16.325684
 20
117.0
 30
0.0
 40
1.0
 50
210.00003
 51
270.000073
  0
ARC
  8
LY_1
  6
CONTINUOUS
 62
     3
  5
97
 10
5.0
 20
-14.0
 30
0.0
 40
2.0
 50
210.00003
 51
270.000018
  0
ARC
  8
LY_1
  6
CONTINUOUS
 62
     3
  5
98
 10
-11.0
 20
-14.0
 30
0.0
 40
2.0
 50
270.000018
 51
329.999999
  0
LINE
  8
LY_1
  6
CONTINUOUS
 62
     3
  5
99
 10
47.815704
 20
101.860794
 30
0.0
 11
50.449234
 21
101.860794
 31
0.0
  0
LINE
  8
LY_1
  6
CONTINUOUS
 62
     3
  5
9A
 10
46.92926
 20
97.600006
 30
0.0
 11
51.364456
 21
97.600006
 31
0.0
  0
LINE
  8
LY_1
  6
CONTINUOUS
 62
     3
  5
9B
 10
51.364456
 20
98.919998
 30
0.0
 11
48.8396
 21
98.919998
 31
0.0
  0
LINE
  8
LY_1
  6
CONTINUOUS
 62
     3
  5
9C
 10
51.77173
 20
101.220723
 30
0.0
 11
48.839456
 21
98.919968
 31
0.0
  0
LINE
  8
LY_1
  6
CONTINUOUS
 62
     3
  5
9D
 10
50.449106
 20
101.860729
 30
0.0
 11
46.52175
 21
98.779199
 31
0.0
  0
LINE
  8
LY_1
  6
CONTINUOUS
 62
     3
  5
9E
 10
47.16687
 20
102.400009
 30
0.0
 11
51.364456
 21
102.400009
 31
0.0
  0
LINE
  8
LY_1
  6
CONTINUOUS
 62
     3
  5
9F
 10
41.144836
 20
101.860794
 30
0.0
 11
42.149323
 21
101.860794
 31
0.0
  0
LINE
  8
LY_1
  6
CONTINUOUS
 62
     3
  5
A0
 10
43.469315
 20
101.080002
 30
0.0
 11
44.906845
 21
101.080002
 31
0.0
  0
LINE
  8
LY_1
  6
CONTINUOUS
 62
     3
  5
A1
 10
43.469315
 20
101.080002
 30
0.0
 11
43.469315
 21
98.259995
 31
0.0
  0
LINE
  8
LY_1
  6
CONTINUOUS
 62
     3
  5
A2
 10
42.149323
 20
101.860794
 30
0.0
 11
42.149323
 21
98.259995
 31
0.0
  0
LINE
  8
LY_1
  6
CONTINUOUS
 62
     3
  5
A3
 10
37.575989
 20
98.259995
 30
0.0
 11
37.575989
 21
101.73999
 31
0.0
  0
LINE
  8
LY_1
  6
CONTINUOUS
 62
     3
  5
A4
 10
38.895981
 20
101.73999
 30
0.0
 11
38.895981
 21
98.259995
 31
0.0
  0
LINE
  8
LY_1
  6
CONTINUOUS
 62
     3
  5
A5
 10
34.05326
 20
100.401973
 30
0.0
 11
35.434256
 21
101.362955
 31
0.0
  0
LINE
  8
LY_1
  6
CONTINUOUS
 62
     3
  5
A6
 10
34.05325
 20
100.401974
 30
0.0
 11
36.352952
 21
98.801701
 31
0.0
  0
LINE
  8
LY_1
  6
CONTINUOUS
 62
     3
  5
A7
 10
32.320007
 20
99.999943
 30
0.0
 11
35.59901
 21
102.281675
 31
0.0
  0
LINE
  8
LY_1
  6
CONTINUOUS
 62
     3
  5
A8
 10
32.319996
 20
99.99995
 30
0.0
 11
35.598998
 21
97.718219
 31
0.0
  0
LINE
  8
LY_1
  6
CONTINUOUS
 62
     3
  5
A9
 10
32.319992
 20
101.73999
 30
0.0
 11
32.319992
 21
98.259995
 31
0.0
  0
LINE
  8
LY_1
  6
CONTINUOUS
 62
     3
  5
AA
 10
31.0
 20
101.73999
 30
0.0
 11
31.0
 21
98.259995
 31
0.0
  0
LINE
  8
LY_1
  6
CONTINUOUS
 62
     3
  5
AB
 10
40.495987
 20
102.400009
 30
0.0
 11
44.906845
 21
102.400009
 31
0.0
  0
LINE
  8
LY_1
  6
CONTINUOUS
 62
     3
  5
AC
 10
-21.0
 20
0.0
 30
0.0
 11
-30.0
 21
0.0
 31
0.0
  0
LINE
  8
LY_1
  6
CONTINUOUS
 62
     3
  5
AD
 10
20.0
 20
0.0
 30
0.0
 11
29.0
 21
0.0
 31
0.0
  0
LINE
  8
LY_1
  6
CONTINUOUS
 62
     3
  5
AE
 10
19.813278
 20
107.260818
 30
0.0
 11
19.813278
 21
92.15477
 31
0.0
  0
LINE
  8
LY_1
  6
CONTINUOUS
 62
     3
  5
AF
 10
12.465347
 20
107.037582
 30
0.0
 11
12.465347
 21
93.4198
 31
0.0
  0
LINE
  8
LY_1
  6
PHANTOM
 62
   110
  5
B0
 10
-8.0
 20
77.172623
 30
0.0
 11
-8.0
 21
100.0
 31
0.0
  0
LINE
  8
LY_1
  6
PHANTOM
 62
   110
  5
B1
 10
6.0
 20
110.499985
 30
0.0
 11
6.0
 21
106.324554
 31
0.0
  0
LINE
  8
LY_1
  6
PHANTOM
 62
   110
  5
B2
 10
3.0
 20
113.499985
 30
0.0
 11
0.0
 21
113.499985
 31
0.0
  0
LINE
  8
LY_1
  6
PHANTOM
 62
   110
  5
B3
 10
8.0
 20
100.0
 30
0.0
 11
8.0
 21
77.172623
 31
0.0
  0
LINE
  8
LY_1
  6
CONTINUOUS
 62
     3
  5
B4
 10
-3.122498
 20
28.600006
 30
0.0
 11
-3.122498
 21
25.600006
 31
0.0
  0
LINE
  8
LY_1
  6
CONTINUOUS
 62
     3
  5
B5
 10
3.122498
 20
28.600006
 30
0.0
 11
3.122498
 21
25.600006
 31
0.0
  0
LINE
  8
LY_1
  6
CONTINUOUS
 62
     3
  5
B6
 10
117.0
 20
44.0
 30
0.0
 11
117.0
 21
17.0
 31
0.0
  0
LINE
  8
LY_1
  6
CONTINUOUS
 62
     3
  5
B7
 10
133.0
 20
44.0
 30
0.0
 11
133.0
 21
17.0
 31
0.0
  0
LINE
  8
LY_1
  6
CONTINUOUS
 62
     3
  5
B8
 10
118.5
 20
17.0
 30
0.0
 11
118.5
 21
16.0
 31
0.0
  0
LINE
  8
LY_1
  6
CONTINUOUS
 62
     3
  5
B9
 10
131.5
 20
17.0
 30
0.0
 11
131.5
 21
16.0
 31
0.0
  0
LINE
  8
LY_1
  6
CONTINUOUS
 62
     3
  5
BA
 10
117.0
 20
17.600006
 30
0.0
 11
133.0
 21
17.600006
 31
0.0
  0
LINE
  8
LY_1
  6
CONTINUOUS
 62
     3
  5
BB
 10
117.0
 20
19.600006
 30
0.0
 11
133.0
 21
19.600006
 31
0.0
  0
LINE
  8
LY_1
  6
CONTINUOUS
 62
     3
  5
BC
 10
117.0
 20
17.0
 30
0.0
 11
133.0
 21
17.0
 31
0.0
  0
LINE
  8
LY_1
  6
CONTINUOUS
 62
     3
  5
BD
 10
117.0
 20
40.599991
 30
0.0
 11
133.0
 21
40.599991
 31
0.0
  0
LINE
  8
LY_1
  6
CONTINUOUS
 62
     3
  5
BE
 10
117.0
 20
44.0
 30
0.0
 11
133.0
 21
44.0
 31
0.0
  0
LINE
  8
LY_1
  6
CONTINUOUS
 62
     3
  5
BF
 10
1.535904
 20
11.46788
 30
0.0
 11
1.535904
 21
-13.431366
 31
0.0
  0
LINE
  8
LY_1
  6
CONTINUOUS
 62
     3
  5
C0
 10
-9.0
 20
12.51712
 30
0.0
 11
-9.0
 21
-14.0
 31
0.0
  0
LINE
  8
LY_1
  6
CONTINUOUS
 62
     3
  5
C1
 10
-8.0
 20
16.0
 30
0.0
 11
0.0
 21
16.0
 31
0.0
  0
LINE
  8
LY_1
  6
CONTINUOUS
 62
     3
  5
C2
 10
-12.710876
 20
15.47287
 30
0.0
 11
-8.647858
 21
15.47287
 31
0.0
  0
LINE
  8
LY_1
  6
CONTINUOUS
 62
     3
  5
C3
 10
-6.5
 20
17.0
 30
0.0
 11
-6.5
 21
16.0
 31
0.0
  0
LINE
  8
LY_1
  6
CONTINUOUS
 62
     3
  5
C4
 10
-8.0
 20
21.0
 30
0.0
 11
-8.0
 21
15.47287
 31
0.0
  0
LINE
  8
LY_1
  6
CONTINUOUS
 62
     3
  5
C5
 10
6.5
 20
17.0
 30
0.0
 11
6.5
 21
16.0
 31
0.0
  0
LINE
  8
LY_1
  6
CONTINUOUS
 62
     3
  5
C6
 10
-11.36882
 20
21.0
 30
0.0
 11
-11.36882
 21
15.47287
 31
0.0
  0
LINE
  8
LY_1
  6
CONTINUOUS
 62
     3
  5
C7
 10
-3.752747
 20
25.600006
 30
0.0
 11
-3.752747
 21
21.600006
 31
0.0
  0
LINE
  8
LY_1
  6
CONTINUOUS
 62
     3
  5
C8
 10
3.752762
 20
25.600006
 30
0.0
 11
3.752762
 21
21.600006
 31
0.0
  0
LINE
  8
LY_1
  6
CONTINUOUS
 62
     3
  5
C9
 10
4.0
 20
28.600006
 30
0.0
 11
4.0
 21
25.600006
 31
0.0
  0
LINE
  8
LY_1
  6
CONTINUOUS
 62
     3
  5
CA
 10
-7.699997
 20
21.600006
 30
0.0
 11
-7.699997
 21
19.600006
 31
0.0
  0
LINE
  8
LY_1
  6
CONTINUOUS
 62
     3
  5
CB
 10
-7.5
 20
25.600006
 30
0.0
 11
-7.5
 21
21.600006
 31
0.0
  0
LINE
  8
LY_1
  6
CONTINUOUS
 62
     3
  5
CC
 10
-7.5
 20
25.600006
 30
0.0
 11
7.5
 21
25.600006
 31
0.0
  0
LINE
  8
LY_1
  6
CONTINUOUS
 62
     3
  5
CD
 10
7.699997
 20
21.600006
 30
0.0
 11
7.699997
 21
19.600006
 31
0.0
  0
LINE
  8
LY_1
  6
CONTINUOUS
 62
     3
  5
CE
 10
-7.699997
 20
21.600006
 30
0.0
 11
7.699997
 21
21.600006
 31
0.0
  0
LINE
  8
LY_1
  6
CONTINUOUS
 62
     3
  5
CF
 10
14.100296
 20
108.699997
 30
0.0
 11
14.100296
 21
91.299988
 31
0.0
  0
LINE
  8
LY_1
  6
CONTINUOUS
 62
     3
  5
D0
 10
29.0
 20
91.300003
 30
0.0
 11
29.0
 21
82.100006
 31
0.0
  0
LINE
  8
LY_1
  6
CONTINUOUS
 62
     3
  5
D1
 10
-7.505527
 20
100.000013
 30
0.0
 11
-3.75275
 21
93.500013
 31
0.0
  0
LINE
  8
LY_1
  6
CONTINUOUS
 62
     3
  5
D2
 10
-3.752784
 20
106.499985
 30
0.0
 11
-7.505546
 21
100.00001
 31
0.0
  0
LINE
  8
LY_1
  6
CONTINUOUS
 62
     3
  5
D3
 10
3.752777
 20
106.5
 30
0.0
 11
-3.752762
 21
106.5
 31
0.0
  0
LINE
  8
LY_1
  6
CONTINUOUS
 62
     3
  5
D4
 10
7.505546
 20
100.00001
 30
0.0
 11
3.752776
 21
106.499998
 31
0.0
  0
LINE
  8
LY_1
  6
CONTINUOUS
 62
     3
  5
D5
 10
3.752743
 20
93.499999
 30
0.0
 11
7.50552
 21
100.0
 31
0.0
  0
LINE
  8
LY_1
  6
CONTINUOUS
 62
     3
  5
D6
 10
-3.752747
 20
93.5
 30
0.0
 11
3.752762
 21
93.5
 31
0.0
  0
LINE
  8
LY_1
  6
CONTINUOUS
 62
     3
  5
D7
 10
-3.122498
 20
102.5
 30
0.0
 11
3.122498
 21
102.5
 31
0.0
  0
LINE
  8
LY_1
  6
CONTINUOUS
 62
     3
  5
D8
 10
-3.122498
 20
97.5
 30
0.0
 11
3.122498
 21
97.5
 31
0.0
  0
LINE
  8
LY_1
  6
CONTINUOUS
 62
     3
  5
D9
 10
81.558067
 20
106.655993
 30
0.0
 11
54.348611
 21
108.698516
 31
0.0
  0
LINE
  8
LY_1
  6
CONTINUOUS
 62
     3
  5
DA
 10
14.100296
 20
92.0
 30
0.0
 11
0.0
 21
92.0
 31
0.0
  0
LINE
  8
LY_1
  6
CONTINUOUS
 62
     3
  5
DB
 10
-10.499985
 20
106.0
 30
0.0
 11
-6.324554
 21
106.0
 31
0.0
  0
LINE
  8
LY_1
  6
CONTINUOUS
 62
     3
  5
DC
 10
-13.499985
 20
103.0
 30
0.0
 11
-13.499985
 21
100.0
 31
0.0
  0
LINE
  8
LY_1
  6
CONTINUOUS
 62
     3
  5
DD
 10
-13.499985
 20
100.0
 30
0.0
 11
-7.999985
 21
100.0
 31
0.0
  0
LINE
  8
LY_1
  6
CONTINUOUS
 62
     3
  5
DE
 10
81.558122
 20
93.34406
 30
0.0
 11
54.348666
 21
91.301537
 31
0.0
  0
LINE
  8
LY_1
  6
CONTINUOUS
 62
     3
  5
DF
 10
85.0
 20
100.0
 30
0.0
 11
85.0
 21
97.034958
 31
0.0
  0
LINE
  8
LY_1
  6
CONTINUOUS
 62
     3
  5
E0
 10
85.0
 20
102.964554
 30
0.0
 11
85.0
 21
100.0
 31
0.0
  0
LINE
  8
LY_1
  6
CONTINUOUS
 62
     3
  5
E1
 10
14.100296
 20
108.699997
 30
0.0
 11
54.328903
 21
108.699997
 31
0.0
  0
LINE
  8
LY_1
  6
CONTINUOUS
 62
     3
  5
E2
 10
54.32811
 20
91.299988
 30
0.0
 11
14.100296
 21
91.299988
 31
0.0
  0
LINE
  8
LY_1
  6
CONTINUOUS
 62
     3
  5
E3
 10
0.0
 20
108.0
 30
0.0
 11
14.100296
 21
108.0
 31
0.0
  0
LINE
  8
LY_1
  6
CONTINUOUS
 62
     3
  5
E4
 10
-4.924133
 20
93.695007
 30
0.0
 11
-7.999985
 21
93.695007
 31
0.0
  0
LINE
  8
LY_1
  6
CONTINUOUS
 62
     3
  5
E5
 10
-7.999985
 20
95.876892
 30
0.0
 11
-7.999985
 21
91.5
 31
0.0
  0
LINE
  8
LY_1
  6
CONTINUOUS
 62
     3
  5
E6
 10
-7.535889
 20
-14.0
 30
0.0
 11
1.535904
 21
-14.0
 31
0.0
  0
LINE
  8
LY_1
  6
CONTINUOUS
 62
     3
  5
E7
 10
-13.5
 20
21.0
 30
0.0
 11
-13.5
 21
15.47287
 31
0.0
  0
LINE
  8
LY_1
  6
CONTINUOUS
 62
     3
  5
E8
 10
-13.5
 20
21.0
 30
0.0
 11
-8.0
 21
21.0
 31
0.0
  0
LINE
  8
LY_1
  6
CONTINUOUS
 62
     3
  5
E9
 10
-4.0
 20
28.600006
 30
0.0
 11
-4.0
 21
25.600006
 31
0.0
  0
LINE
  8
LY_1
  6
CONTINUOUS
 62
     3
  5
EA
 10
7.5
 20
25.600006
 30
0.0
 11
7.5
 21
21.600006
 31
0.0
  0
LINE
  8
LY_1
  6
CONTINUOUS
 62
     3
  5
EB
 10
-8.0
 20
17.600006
 30
0.0
 11
12.465347
 21
17.600006
 31
0.0
  0
LINE
  8
LY_1
  6
CONTINUOUS
 62
     3
  5
EC
 10
-8.0
 20
19.600006
 30
0.0
 11
12.465347
 21
19.600006
 31
0.0
  0
LINE
  8
LY_1
  6
CONTINUOUS
 62
     3
  5
ED
 10
18.879861
 20
40.516449
 30
0.0
 11
14.100302
 21
22.678909
 31
0.0
  0
LINE
  8
LY_1
  6
CONTINUOUS
 62
     3
  5
EE
 10
17.384436
 20
21.798914
 30
0.0
 11
14.100294
 21
22.678897
 31
0.0
  0
LINE
  8
LY_1
  6
CONTINUOUS
 62
     3
  5
EF
 10
17.384436
 20
21.798914
 30
0.0
 11
22.163991
 21
39.636455
 31
0.0
  0
LINE
  8
LY_1
  6
CONTINUOUS
 62
     3
  5
F0
 10
16.329035
 20
20.564684
 30
0.0
 11
16.708291
 21
21.980086
 31
0.0
  0
LINE
  8
LY_1
  6
CONTINUOUS
 62
     3
  5
F1
 10
23.419708
 20
44.0
 30
0.0
 11
85.0
 21
44.0
 31
0.0
  0
LINE
  8
LY_1
  6
CONTINUOUS
 62
     3
  5
F2
 10
14.397183
 20
21.082322
 30
0.0
 11
14.776439
 21
22.497724
 31
0.0
  0
LINE
  8
LY_1
  6
CONTINUOUS
 62
     3
  5
F3
 10
85.0
 20
44.0
 30
0.0
 11
85.0
 21
40.599991
 31
0.0
  0
LINE
  8
LY_1
  6
CONTINUOUS
 62
     3
  5
F4
 10
23.419693
 20
40.599991
 30
0.0
 11
85.0
 21
40.599991
 31
0.0
  0
LINE
  8
LY_1
  6
CONTINUOUS
 62
     3
  5
F5
 10
8.0
 20
17.600006
 30
0.0
 11
8.0
 21
17.0
 31
0.0
  0
LINE
  8
LY_1
  6
CONTINUOUS
 62
     3
  5
F6
 10
-8.0
 20
17.0
 30
0.0
 11
8.0
 21
17.0
 31
0.0
  0
LINE
  8
LY_1
  6
CONTINUOUS
 62
     3
  5
F7
 10
-4.0
 20
28.600006
 30
0.0
 11
4.0
 21
28.600006
 31
0.0
  0
LINE
  8
LY_1
  6
CONTINUOUS
 62
     3
  5
F8
 10
0.0
 20
16.0
 30
0.0
 11
29.0
 21
16.0
 31
0.0
  0
LINE
  8
LY_1
  6
CONTINUOUS
 62
     3
  5
F9
 10
116.0
 20
21.0
 30
0.0
 11
116.0
 21
16.0
 31
0.0
  0
LINE
  8
LY_1
  6
CONTINUOUS
 62
     3
  5
FA
 10
116.0
 20
21.0
 30
0.0
 11
117.0
 21
21.0
 31
0.0
  0
LINE
  8
LY_1
  6
CONTINUOUS
 62
     3
  5
FB
 10
134.237625
 20
16.0
 30
0.0
 11
125.0
 21
16.0
 31
0.0
  0
LINE
  8
LY_1
  6
CONTINUOUS
 62
     3
  5
FC
 10
143.475214
 20
0.000016
 30
0.0
 11
134.237619
 21
15.999999
 31
0.0
  0
LINE
  8
LY_1
  6
CONTINUOUS
 62
     3
  5
FD
 10
134.237606
 20
-15.999992
 30
0.0
 11
143.475216
 21
0.000018
 31
0.0
  0
LINE
  8
LY_1
  6
CONTINUOUS
 62
     3
  5
FE
 10
125.0
 20
16.0
 30
0.0
 11
115.762375
 21
16.0
 31
0.0
  0
LINE
  8
LY_1
  6
CONTINUOUS
 62
     3
  5
FF
 10
115.762362
 20
16.000007
 30
0.0
 11
106.524767
 21
0.000024
 31
0.0
  0
LINE
  8
LY_1
  6
CONTINUOUS
 62
     3
  5
100
 10
115.76239
 20
-16.0
 30
0.0
 11
134.23761
 21
-16.0
 31
0.0
  0
LINE
  8
LY_1
  6
CONTINUOUS
 62
     3
  5
101
 10
106.524765
 20
0.00001
 30
0.0
 11
115.762375
 21
-15.999999
 31
0.0
  0
LINE
  8
LY_1
  6
CONTINUOUS
 62
     3
  5
102
 10
29.0
 20
90.154999
 30
0.0
 11
-30.0
 21
90.154999
 31
0.0
  0
LINE
  8
LY_1
  6
CONTINUOUS
 62
     3
  5
103
 10
-30.0
 20
109.844986
 30
0.0
 11
29.0
 21
109.844986
 31
0.0
  0
LINE
  8
LY_1
  6
CONTINUOUS
 62
     3
  5
104
 10
-11.36882
 20
91.0
 30
0.0
 11
-8.5
 21
91.0
 31
0.0
  0
LINE
  8
LY_1
  6
CONTINUOUS
 62
     3
  5
105
 10
-13.5
 20
100.0
 30
0.0
 11
-13.5
 21
94.708481
 31
0.0
  0
LINE
  8
LY_1
  6
CONTINUOUS
 62
     3
  5
106
 10
17.000014
 20
82.09991
 30
0.0
 11
16.191717
 21
83.49992
 31
0.0
  0
LINE
  8
LY_1
  6
CONTINUOUS
 62
     3
  5
107
 10
16.191702
 20
116.499926
 30
0.0
 11
16.99999
 21
117.899922
 31
0.0
  0
LINE
  8
LY_1
  6
CONTINUOUS
 62
     3
  5
108
 10
5.0
 20
116.0
 30
0.0
 11
15.325684
 21
116.0
 31
0.0
  0
LINE
  8
LY_1
  6
CONTINUOUS
 62
     3
  5
109
 10
17.0
 20
82.099991
 30
0.0
 11
29.0
 21
82.099991
 31
0.0
  0
LINE
  8
LY_1
  6
CONTINUOUS
 62
     3
  5
10A
 10
17.0
 20
117.899994
 30
0.0
 11
29.0
 21
117.899994
 31
0.0
  0
LINE
  8
LY_1
  6
CONTINUOUS
 62
     3
  5
10B
 10
29.0
 20
108.699997
 30
0.0
 11
29.0
 21
117.899994
 31
0.0
  0
LINE
  8
LY_1
  6
CONTINUOUS
 62
     3
  5
10C
 10
5.0
 20
84.0
 30
0.0
 11
15.325684
 21
84.0
 31
0.0
  0
LINE
  8
LY_1
  6
CONTINUOUS
 62
     3
  5
10D
 10
1.291901
 20
86.5
 30
0.0
 11
-7.291901
 21
86.5
 31
0.0
  0
LINE
  8
LY_1
  6
CONTINUOUS
 62
     3
  5
10E
 10
-7.291901
 20
113.5
 30
0.0
 11
1.291901
 21
113.5
 31
0.0
  0
LINE
  8
LY_1
  6
CONTINUOUS
 62
     3
  5
10F
 10
-17.191746
 20
83.499936
 30
0.0
 11
-18.000042
 21
82.099926
 31
0.0
  0
LINE
  8
LY_1
  6
CONTINUOUS
 62
     3
  5
110
 10
-18.0
 20
117.899934
 30
0.0
 11
-17.191712
 21
116.499938
 31
0.0
  0
LINE
  8
LY_1
  6
CONTINUOUS
 62
     3
  5
111
 10
-16.325684
 20
84.0
 30
0.0
 11
-11.0
 21
84.0
 31
0.0
  0
LINE
  8
LY_1
  6
CONTINUOUS
 62
     3
  5
112
 10
-16.325684
 20
116.0
 30
0.0
 11
-11.0
 21
116.0
 31
0.0
  0
LINE
  8
LY_1
  6
CONTINUOUS
 62
     3
  5
113
 10
-30.0
 20
82.099991
 30
0.0
 11
-18.0
 21
82.099991
 31
0.0
  0
LINE
  8
LY_1
  6
CONTINUOUS
 62
     3
  5
114
 10
-30.0
 20
117.899994
 30
0.0
 11
-18.0
 21
117.899994
 31
0.0
  0
LINE
  8
LY_1
  6
CONTINUOUS
 62
     3
  5
115
 10
-30.0
 20
117.899994
 30
0.0
 11
-30.0
 21
82.099991
 31
0.0
  0
LINE
  8
LY_1
  6
CONTINUOUS
 62
     3
  5
116
 10
5.0
 20
-16.0
 30
0.0
 11
29.0
 21
-16.0
 31
0.0
  0
LINE
  8
LY_1
  6
CONTINUOUS
 62
     3
  5
117
 10
-30.0
 20
-16.0
 30
0.0
 11
-11.0
 21
-16.0
 31
0.0
  0
LINE
  8
LY_1
  6
CONTINUOUS
 62
     3
  5
118
 10
-30.0
 20
16.0
 30
0.0
 11
-13.5
 21
16.0
 31
0.0
  0
LINE
  8
LY_1
  6
CONTINUOUS
 62
     3
  5
119
 10
-30.0
 20
16.0
 30
0.0
 11
-30.0
 21
-16.0
 31
0.0
  0
LINE
  8
LY_1
  6
CONTINUOUS
 62
     3
  5
11A
 10
29.0
 20
16.0
 30
0.0
 11
29.0
 21
-16.0
 31
0.0
  0
LINE
  8
LY_1
  6
CENTER
 62
   110
  5
11C
 10
0.0
 20
123.583496
 30
0.0
 11
0.0
 21
76.155655
 31
0.0
  0
LINE
  8
LY_1
  6
CENTER
 62
   110
  5
11D
 10
-35.0
 20
100.0
 30
0.0
 11
89.829132
 21
100.0
 31
0.0
  0
LINE
  8
LY_1
  6
CENTER
 62
   110
  5
11E
 10
125.0
 20
44.344193
 30
0.0
 11
125.0
 21
-21.423981
 31
0.0
  0
LINE
  8
LY_1
  6
CENTER
 62
   110
  5
11F
 10
103.188141
 20
0.0
 30
0.0
 11
146.762283
 21
0.0
 31
0.0
  0
LINE
  8
LY_1
  6
CENTER
 62
   110
  5
120
 10
0.0
 20
30.413345
 30
0.0
 11
0.0
 21
-17.7995
 31
0.0
  0
LINE
  8
LY_1
  6
CENTER
 62
   110
  5
121
 10
-35.0
 20
0.0
 30
0.0
 11
37.0
 21
0.0
 31
0.0
  0
ENDSEC
  0
EOF
