  0
SECTION
  2
HEADER
  9
$ACADVER
  1
AC1009
  9
$DWGCODEPAGE
  3
dos932
  9
$INSBASE
 10
0.0
 20
0.0
 30
0.0
  9
$EXTMIN
 10
-57.749965
 20
-80.62539
 30
0.0
  9
$EXTMAX
 10
231.177765
 20
177.5
 30
0.0
  9
$LIMMIN
 10
-57.749965
 20
-80.62539
  9
$LIMMAX
 10
231.177765
 20
177.5
  9
$ORTHOMODE
 70
     0
  9
$REGENMODE
 70
     1
  9
$FILLMODE
 70
     1
  9
$QTEXTMODE
 70
     0
  9
$MIRRTEXT
 70
     1
  9
$DRAGMODE
 70
     2
  9
$LTSCALE
 40
1.0
  9
$OSMODE
 70
     0
  9
$ATTMODE
 70
     1
  9
$TEXTSIZE
 40
3.3
  9
$TRACEWID
 40
0.05
  9
$TEXTSTYLE
  7
MX_NOTE_STANDARD
  9
$CLAYER
  8
LY_1
  9
$CELTYPE
  6
CONTINUOUS
  9
$CECOLOR
 62
   256
  9
$DIMSCALE
 40
1.0
  9
$DIMASZ
 40
2.5
  9
$DIMEXO
 40
0.0
  9
$DIMDLI
 40
3.75
  9
$DIMRND
 40
0.0
  9
$DIMDLE
 40
0.0
  9
$DIMEXE
 40
1.1938
  9
$DIMTP
 40
0.0
  9
$DIMTM
 40
0.0
  9
$DIMTXT
 40
3.3
  9
$DIMCEN
 40
2.5
  9
$DIMTSZ
 40
0.0
  9
$DIMTOL
 70
     0
  9
$DIMLIM
 70
     0
  9
$DIMTIH
 70
     0
  9
$DIMTOH
 70
     0
  9
$DIMSE1
 70
     0
  9
$DIMSE2
 70
     0
  9
$DIMTAD
 70
     1
  9
$DIMZIN
 70
     8
  9
$DIMBLK
  1

  9
$DIMASO
 70
     1
  9
$DIMSHO
 70
     1
  9
$DIMPOST
  1

  9
$DIMAPOST
  1

  9
$DIMALT
 70
     0
  9
$DIMALTD
 70
     4
  9
$DIMALTF
 40
0.03937
  9
$DIMLFAC
 40
1.0
  9
$DIMTOFL
 70
     1
  9
$DIMTVP
 40
0.0
  9
$DIMTIX
 70
     0
  9
$DIMSOXD
 70
     0
  9
$DIMSAH
 70
     1
  9
$DIMBLK1
  1
_OPEN30
  9
$DIMBLK2
  1
_OPEN30
  9
$DIMSTYLE
  2
MXDIMSTYLE
  9
$DIMCLRD
 70
     0
  9
$DIMCLRE
 70
     0
  9
$DIMCLRT
 70
     0
  9
$DIMTFAC
 40
1.0
  9
$DIMGAP
 40
1.0
  9
$LUNITS
 70
     2
  9
$LUPREC
 70
     4
  9
$AXISMODE
 70
     0
  9
$AXISUNIT
 10
0.0
 20
0.0
  9
$SKETCHINC
 40
0.1
  9
$FILLETRAD
 40
0.0
  9
$AUNITS
 70
     0
  9
$AUPREC
 70
     0
  9
$MENU
  1
acad
  9
$ELEVATION
 40
0.0
  9
$PELEVATION
 40
0.0
  9
$THICKNESS
 40
0.0
  9
$LIMCHECK
 70
     0
  9
$BLIPMODE
 70
     1
  9
$CHAMFERA
 40
0.0
  9
$CHAMFERB
 40
0.0
  9
$SKPOLY
 70
     0
  9
$TDCREATE
 40
2454901.551793981
  9
$TDUPDATE
 40
2454901.551793981
  9
$TDINDWG
 40
0.0000000000
  9
$TDUSRTIMER
 40
0.0000000000
  9
$USRTIMER
 70
     1
  9
$ANGBASE
 50
0.0
  9
$ANGDIR
 70
     0
  9
$PDMODE
 70
     0
  9
$PDSIZE
 40
0.0
  9
$PLINEWID
 40
0.0
  9
$COORDS
 70
     1
  9
$SPLFRAME
 70
     0
  9
$SPLINETYPE
 70
     6
  9
$SPLINESEGS
 70
     8
  9
$ATTDIA
 70
     0
  9
$ATTREQ
 70
     1
  9
$HANDLING
 70
     1
  9
$HANDSEED
  5
11D
  9
$SURFTAB1
 70
     6
  9
$SURFTAB2
 70
     6
  9
$SURFTYPE
 70
     6
  9
$SURFU
 70
     6
  9
$SURFV
 70
     6
  9
$UCSNAME
  2

  9
$UCSORG
 10
0.0
 20
0.0
 30
0.0
  9
$UCSXDIR
 10
1.0
 20
0.0
 30
0.0
  9
$UCSYDIR
 10
0.0
 20
1.0
 30
0.0
  9
$PUCSNAME
  2

  9
$PUCSORG
 10
0.0
 20
0.0
 30
0.0
  9
$PUCSXDIR
 10
1.0
 20
0.0
 30
0.0
  9
$PUCSYDIR
 10
0.0
 20
1.0
 30
0.0
  9
$USERI1
 70
     0
  9
$USERI2
 70
     0
  9
$USERI3
 70
     0
  9
$USERI4
 70
     0
  9
$USERI5
 70
     0
  9
$USERR1
 40
0.0
  9
$USERR2
 40
0.0
  9
$USERR3
 40
0.0
  9
$USERR4
 40
0.0
  9
$USERR5
 40
0.0
  9
$WORLDVIEW
 70
     1
  9
$SHADEDGE
 70
     3
  9
$SHADEDIF
 70
    70
  9
$TILEMODE
 70
     1
  9
$MAXACTVP
 70
    16
  9
$PINSBASE
 10
0.0
 20
0.0
 30
0.0
  9
$PLIMCHECK
 70
     0
  9
$PEXTMIN
 10
1.000000E+20
 20
1.000000E+20
 30
1.000000E+20
  9
$PEXTMAX
 10
-1.000000E+20
 20
-1.000000E+20
 30
-1.000000E+20
  9
$PLIMMIN
 10
0.0
 20
0.0
  9
$PLIMMAX
 10
12.0
 20
9.0
  9
$UNITMODE
 70
     0
  9
$VISRETAIN
 70
     0
  9
$PLINEGEN
 70
     1
  9
$PSLTSCALE
 70
     0
  9
$TREEDEPTH
 70
  3020
  0
ENDSEC
  0
SECTION
  2
TABLES
  0
TABLE
  2
VPORT
 70
     1
  0
VPORT
  2
*ACTIVE
 70
     0
 10
0.0
 20
0.0
 11
1.0
 21
1.0
 12
86.7139
 22
48.437305
 13
0.0
 23
0.0
 14
1.0
 24
1.0
 15
0.0
 25
0.0
 16
0.0
 26
0.0
 36
1.0
 17
0.0
 27
0.0
 37
0.0
 40
260.706644
 41
1.732051
 42
50.0
 43
0.0
 44
0.0
 50
0.0
 51
0.0
 71
     0
 72
   100
 73
     1
 74
     1
 75
     0
 76
     0
 77
     0
 78
     0
  0
ENDTAB
  0
TABLE
  2
LTYPE
 70
     3
  0
LTYPE
  2
CONTINUOUS
 70
    64
  3
Solid line
 72
    65
 73
     0
 40
0.0
  0
LTYPE
  2
PHANTOM
 70
    64
  3
Phantom ______  __  __  ______  __  __  ______
 72
    65
 73
     6
 40
63.5
 49
31.75
 49
-6.35
 49
6.35
 49
-6.35
 49
6.35
 49
-6.35
  0
LTYPE
  2
CENTER
 70
    64
  3
Center ____ _ ____ _ ____ _ ____ _ ____ _ ____
 72
    65
 73
     4
 40
50.8
 49
31.75
 49
-6.35
 49
6.35
 49
-6.35
  0
ENDTAB
  0
TABLE
  2
LAYER
 70
     3
  0
LAYER
  2
0
 70
     0
 62
     7
  6
CONTINUOUS
  0
LAYER
  2
LY_1
 70
     0
 62
     7
  6
CONTINUOUS
  0
LAYER
  2
DEFPOINTS
 70
     0
 62
     7
  6
CONTINUOUS
  0
ENDTAB
  0
TABLE
  2
STYLE
 70
     3
  0
STYLE
  2
MX_NOTE_STANDARD
 70
     0
 40
0.0
 41
1.0
 50
0.0
 71
     0
 42
3.3
  3
txt.shx
  4
extfont.shx
  0
STYLE
  2
MX_DIMTXSTY_2
 70
     0
 40
0.0
 41
0.85
 50
0.0
 71
     0
 42
3.3
  3
txt.shx
  4
extfont.shx
  0
STYLE
  2
MX_DIMTXSTY_3
 70
     0
 40
0.0
 41
1.05
 50
0.0
 71
     0
 42
3.3
  3
txt.shx
  4
extfont.shx
  0
ENDTAB
  0
TABLE
  2
VIEW
 70
     0
  0
ENDTAB
  0
TABLE
  2
UCS
 70
     0
  0
ENDTAB
  0
TABLE
  2
APPID
 70
     1
  0
APPID
  2
ACAD
 70
     0
  0
ENDTAB
  0
TABLE
  2
DIMSTYLE
 70
     1
  0
DIMSTYLE
  2
MXDIMSTYLE
 70
     0
  3

  4

  5

  6
_OPEN30
  7
_OPEN30
 40
1.0
 41
2.5
 42
0.0
 43
3.75
 44
1.1938
 45
0.0
 46
0.0
 47
0.0
 48
0.0
 71
     0
 72
     0
 73
     0
 74
     0
 75
     0
 76
     0
 77
     1
 78
     8
140
3.3
141
2.5
142
0.0
143
0.03937
144
1.0
145
0.0
146
1.0
147
1.0
170
     0
171
     4
172
     1
173
     1
174
     0
175
     0
176
     0
177
     0
178
     0
  0
ENDTAB
  0
ENDSEC
  0
SECTION
  2
BLOCKS
  0
BLOCK
  8
0
  6
BYBLOCK
 62
     0
  5
20
  2
_OPEN30
 70
     2
 10
0.0
 20
0.0
 30
0.0
  3
_OPEN30
  0
LINE
  8
0
  6
BYBLOCK
 62
     0
  5
21
 10
-1.0
 20
0.267949
 30
0.0
 11
0.0
 21
0.0
 31
0.0
  0
LINE
  8
0
  6
BYBLOCK
 62
     0
  5
22
 10
0.0
 20
0.0
 30
0.0
 11
-1.0
 21
-0.267949
 31
0.0
  0
LINE
  8
0
  6
BYBLOCK
 62
     0
  5
23
 10
0.0
 20
0.0
 30
0.0
 11
-1.0
 21
0.0
 31
0.0
  0
ENDBLK
  8
0
  6
BYBLOCK
 62
     0
  5
24
  0
BLOCK
  8
0
  6
BYBLOCK
 62
     0
  5
26
  2
*D1
 70
     1
 10
0.0
 20
0.0
 30
0.0
  3
*D1
  0
LINE
  8
0
  6
CONTINUOUS
 62
   110
  5
27
 10
133.0
 20
72.0
 30
0.0
 11
133.0
 21
0.0
 31
0.0
  0
LINE
  8
0
  6
CONTINUOUS
 62
   110
  5
28
 10
125.0
 20
72.0
 30
0.0
 11
134.193787
 21
72.0
 31
0.0
  0
LINE
  8
0
  6
CONTINUOUS
 62
   110
  5
29
 10
53.127136
 20
0.0
 30
0.0
 11
134.193787
 21
0.0
 31
0.0
  0
INSERT
  8
0
  6
CONTINUOUS
 62
   110
  5
30
  2
_OPEN
 10
133.0
 20
72.0
 30
0.0
 41
2.19
 42
2.19
 50
90.0
 43
2.19
  0
INSERT
  8
0
  6
CONTINUOUS
 62
   110
  5
31
  2
_OPEN
 10
133.0
 20
0.0
 30
0.0
 41
2.19
 42
2.19
 50
270.0
 43
2.19
  0
TEXT
  8
0
  6
CONTINUOUS
 62
   110
  5
33
 10
132.0
 20
33.233552
 30
0.0
 40
4.099999
  1
72
 50
90.0
 41
0.98743
  7
MX_DIMTXSTY_2
 11
129.95
 21
33.233552
 31
0.0
 73
     2
  0
POINT
  8
DEFPOINTS
  6
CONTINUOUS
 62
     0
  5
34
 10
125.0
 20
72.0
 30
0.0
  0
POINT
  8
DEFPOINTS
  6
CONTINUOUS
 62
     0
  5
35
 10
53.127136
 20
0.0
 30
0.0
  0
POINT
  8
DEFPOINTS
  6
CONTINUOUS
 62
     0
  5
36
 10
133.0
 20
0.0
 30
0.0
  0
ENDBLK
  8
0
  6
BYBLOCK
 62
     0
  5
37
  0
BLOCK
  8
0
  6
BYBLOCK
 62
     0
  5
2B
  2
_OPEN
 70
     2
 10
0.0
 20
0.0
 30
0.0
  3
_OPEN
  0
LINE
  8
0
  6
BYBLOCK
 62
     0
  5
2C
 10
-1.0
 20
0.166667
 30
0.0
 11
0.0
 21
0.0
 31
0.0
  0
LINE
  8
0
  6
BYBLOCK
 62
     0
  5
2D
 10
0.0
 20
0.0
 30
0.0
 11
-1.0
 21
-0.166667
 31
0.0
  0
LINE
  8
0
  6
BYBLOCK
 62
     0
  5
2E
 10
0.0
 20
0.0
 30
0.0
 11
-1.0
 21
0.0
 31
0.0
  0
ENDBLK
  8
0
  6
BYBLOCK
 62
     0
  5
2F
  0
BLOCK
  8
0
  6
BYBLOCK
 62
     0
  5
3A
  2
*D3
 70
     1
 10
0.0
 20
0.0
 30
0.0
  3
*D3
  0
LINE
  8
0
  6
CONTINUOUS
 62
   110
  5
3B
 10
0.0
 20
80.0
 30
0.0
 11
125.0
 21
80.0
 31
0.0
  0
LINE
  8
0
  6
CONTINUOUS
 62
   110
  5
3C
 10
0.0
 20
57.535095
 30
0.0
 11
0.0
 21
81.193787
 31
0.0
  0
LINE
  8
0
  6
CONTINUOUS
 62
   110
  5
3D
 10
125.0
 20
72.0
 30
0.0
 11
125.0
 21
81.193787
 31
0.0
  0
INSERT
  8
0
  6
CONTINUOUS
 62
   110
  5
3E
  2
_OPEN
 10
0.0
 20
80.0
 30
0.0
 41
2.19
 42
2.19
 50
180.0
 43
2.19
  0
INSERT
  8
0
  6
CONTINUOUS
 62
   110
  5
3F
  2
_OPEN
 10
125.0
 20
80.0
 30
0.0
 41
2.19
 42
2.19
 43
2.19
  0
TEXT
  8
0
  6
CONTINUOUS
 62
   110
  5
40
 10
57.983436
 20
81.0
 30
0.0
 40
4.099999
  1
125
 41
0.94423
  7
MX_NOTE_STANDARD
 11
57.983436
 21
83.05
 31
0.0
 73
     2
  0
POINT
  8
DEFPOINTS
  6
CONTINUOUS
 62
     0
  5
41
 10
0.0
 20
57.535095
 30
0.0
  0
POINT
  8
DEFPOINTS
  6
CONTINUOUS
 62
     0
  5
42
 10
125.0
 20
72.0
 30
0.0
  0
POINT
  8
DEFPOINTS
  6
CONTINUOUS
 62
     0
  5
43
 10
125.0
 20
80.0
 30
0.0
  0
ENDBLK
  8
0
  6
BYBLOCK
 62
     0
  5
44
  0
BLOCK
  8
0
  6
BYBLOCK
 62
     0
  5
47
  2
*D4
 70
     1
 10
0.0
 20
0.0
 30
0.0
  3
*D4
  0
LINE
  8
0
  6
CONTINUOUS
 62
   110
  5
48
 10
49.0
 20
-43.5
 30
0.0
 11
-51.0
 21
-43.5
 31
0.0
  0
LINE
  8
0
  6
CONTINUOUS
 62
   110
  5
49
 10
49.0
 20
-33.5
 30
0.0
 11
49.0
 21
-44.693787
 31
0.0
  0
LINE
  8
0
  6
CONTINUOUS
 62
   110
  5
4A
 10
-51.0
 20
-33.5
 30
0.0
 11
-51.0
 21
-44.693787
 31
0.0
  0
INSERT
  8
0
  6
CONTINUOUS
 62
   110
  5
4B
  2
_OPEN
 10
49.0
 20
-43.5
 30
0.0
 41
2.19
 42
2.19
 43
2.19
  0
INSERT
  8
0
  6
CONTINUOUS
 62
   110
  5
4C
  2
_OPEN
 10
-51.0
 20
-43.5
 30
0.0
 41
2.19
 42
2.19
 50
180.0
 43
2.19
  0
TEXT
  8
0
  6
CONTINUOUS
 62
   110
  5
4E
 10
-5.459504
 20
-42.5
 30
0.0
 40
4.099999
  1
100
 41
1.027733
  7
MX_DIMTXSTY_3
 11
-5.459504
 21
-40.45
 31
0.0
 73
     2
  0
POINT
  8
DEFPOINTS
  6
CONTINUOUS
 62
     0
  5
4F
 10
49.0
 20
-33.5
 30
0.0
  0
POINT
  8
DEFPOINTS
  6
CONTINUOUS
 62
     0
  5
50
 10
-51.0
 20
-33.5
 30
0.0
  0
POINT
  8
DEFPOINTS
  6
CONTINUOUS
 62
     0
  5
51
 10
-51.0
 20
-43.5
 30
0.0
  0
ENDBLK
  8
0
  6
BYBLOCK
 62
     0
  5
52
  0
ENDSEC
  0
SECTION
  2
ENTITIES
  0
DIMENSION
  8
LY_1
  6
CONTINUOUS
 62
   110
  5
38
  2
*D1
 10
133.0
 20
0.0
 30
0.0
 11
133.0
 21
36.0
 31
0.0
 70
   128
  1
<>
 13
125.0
 23
72.0
 33
0.0
 14
53.127136
 24
0.0
 34
0.0
 50
90.0
  3
MXDIMSTYLE
1001
ACAD
1000
DSTYLE
1002
{
1070
     6
1000
_OPEN
1070
     7
1000
_OPEN
1070
    41
1040
2.19
1070
    44
1040
1.193787
1070
   140
1040
4.099999
1070
   271
1070
     0
1070
   284
1070
     8
1070
   340
1005
32
1070
   343
1005
2A
1070
   344
1005
2A
1002
}
  0
DIMENSION
  8
LY_1
  6
CONTINUOUS
 62
   110
  5
45
  2
*D3
 10
125.0
 20
80.0
 30
0.0
 11
62.5
 21
80.0
 31
0.0
 70
   128
  1
<>
 13
0.0
 23
57.535095
 33
0.0
 14
125.0
 24
72.0
 34
0.0
  3
MXDIMSTYLE
1001
ACAD
1000
DSTYLE
1002
{
1070
     6
1000
_OPEN
1070
     7
1000
_OPEN
1070
    41
1040
2.19
1070
    44
1040
1.193787
1070
   140
1040
4.099999
1070
   271
1070
     0
1070
   284
1070
     8
1070
   343
1005
2A
1070
   344
1005
2A
1002
}
  0
DIMENSION
  8
LY_1
  6
CONTINUOUS
 62
   110
  5
53
  2
*D4
 10
-51.0
 20
-43.5
 30
0.0
 11
-1.0
 21
-43.5
 31
0.0
 70
   128
  1
<>
 13
49.0
 23
-33.5
 33
0.0
 14
-51.0
 24
-33.5
 34
0.0
  3
MXDIMSTYLE
1001
ACAD
1000
DSTYLE
1002
{
1070
     6
1000
_OPEN
1070
     7
1000
_OPEN
1070
    41
1040
2.19
1070
    44
1040
1.193787
1070
   140
1040
4.099999
1070
   271
1070
     0
1070
   284
1070
     8
1070
   340
1005
4D
1070
   343
1005
2A
1070
   344
1005
2A
1002
}
  0
TEXT
  8
LY_1
  6
CONTINUOUS
 62
   110
  5
54
 10
-57.114041
 20
-79.59074
 30
0.0
 40
4.181479
  1
KITZ
 41
0.912486
  7
MX_NOTE_STANDARD
 11
-57.114041
 21
-77.5
 31
0.0
 73
     2
  0
TEXT
  8
LY_1
  6
CONTINUOUS
 62
   110
  5
55
 10
-57.047326
 20
-71.59074
 30
0.0
 40
4.181479
  1
FIG   TK2
 41
1.008216
  7
MX_NOTE_STANDARD
 11
-57.047326
 21
-69.5
 31
0.0
 73
     2
  0
TEXT
  8
LY_1
  6
CONTINUOUS
 62
   110
  5
56
 10
-57.071555
 20
-63.59074
 30
0.0
 40
4.181479
  1
      BALL VALVE 2
 41
0.973449
  7
MX_NOTE_STANDARD
 11
-57.071555
 21
-61.5
 31
0.0
 73
     2
  0
TEXT
  8
LY_1
  6
CONTINUOUS
 62
   110
  5
57
 10
-57.111893
 20
-55.59074
 30
0.0
 40
4.181479
  1
NAME  TYPE 600 FORGED BRASS
 41
0.915569
  7
MX_NOTE_STANDARD
 11
-57.111893
 21
-53.5
 31
0.0
 73
     2
  0
ARC
  8
LY_1
  6
CONTINUOUS
 62
     3
  5
58
 10
0.0
 20
140.0
 30
0.0
 40
11.0
 50
89.999982
 51
126.86989
  0
ARC
  8
LY_1
  6
PHANTOM
 62
   110
  5
5A
 10
5.5
 20
109.67131
 30
0.0
 40
16.897217
 50
251.004278
 51
298.520429
  0
ARC
  8
LY_1
  6
PHANTOM
 62
   110
  5
5B
 10
-5.5
 20
77.717209
 30
0.0
 40
16.897217
 50
71.004297
 51
118.520448
  0
ARC
  8
LY_1
  6
CONTINUOUS
 62
     3
  5
5C
 10
117.770737
 20
-16.75
 30
0.0
 40
94.270752
 50
170.382402
 51
189.617635
  0
ARC
  8
LY_1
  6
CONTINUOUS
 62
     3
  5
5D
 10
117.770737
 20
16.75
 30
0.0
 40
94.270752
 50
170.382402
 51
189.617635
  0
ARC
  8
LY_1
  6
CONTINUOUS
 62
     3
  5
5E
 10
-119.770752
 20
-16.75
 30
0.0
 40
94.270752
 50
350.38238
 51
9.61762
  0
ARC
  8
LY_1
  6
CONTINUOUS
 62
     3
  5
5F
 10
-119.770752
 20
16.75
 30
0.0
 40
94.270752
 50
350.382383
 51
9.617617
  0
ARC
  8
LY_1
  6
CONTINUOUS
 62
     3
  5
60
 10
33.339127
 20
65.300003
 30
0.0
 40
6.7
 50
89.999982
 51
164.999994
  0
ARC
  8
LY_1
  6
CONTINUOUS
 62
     3
  5
61
 10
33.487717
 20
65.300003
 30
0.0
 40
2.3
 50
89.999982
 51
164.629416
  0
ARC
  8
LY_1
  6
PHANTOM
 62
   110
  5
62
 10
12.0
 20
149.0
 30
0.0
 40
4.0
 50
180.000036
 51
216.869889
  0
ARC
  8
LY_1
  6
PHANTOM
 62
   110
  5
63
 10
4.0
 20
155.0
 30
0.0
 40
4.0
 50
359.999982
 51
90.000037
  0
ARC
  8
LY_1
  6
PHANTOM
 62
   110
  5
64
 10
0.0
 20
140.0
 30
0.0
 40
11.0
 50
359.999982
 51
36.86989
  0
ARC
  8
LY_1
  6
PHANTOM
 62
   110
  5
65
 10
0.0
 20
140.0
 30
0.0
 40
11.0
 50
89.999982
 51
180.000019
  0
ARC
  8
LY_1
  6
CONTINUOUS
 62
     3
  5
66
 10
69.576675
 20
142.537491
 30
0.0
 40
0.962499
 50
89.999982
 51
10.546505
  0
ARC
  8
LY_1
  6
CONTINUOUS
 62
     3
  5
67
 10
69.230164
 20
137.462494
 30
0.0
 40
0.962499
 50
128.11894
 51
270.000055
  0
ARC
  8
LY_1
  6
CONTINUOUS
 62
     3
  5
68
 10
75.698166
 20
137.462494
 30
0.0
 40
0.962499
 50
270.000018
 51
89.999927
  0
ARC
  8
LY_1
  6
CONTINUOUS
 62
     3
  5
69
 10
75.698166
 20
142.537491
 30
0.0
 40
0.962499
 50
308.118873
 51
89.999927
  0
ARC
  8
LY_1
  6
CONTINUOUS
 62
     3
  5
6A
 10
66.280823
 20
142.537491
 30
0.0
 40
0.962499
 50
270.000018
 51
89.999982
  0
ARC
  8
LY_1
  6
CONTINUOUS
 62
     3
  5
6B
 10
59.848312
 20
142.537491
 30
0.0
 40
0.962499
 50
89.999982
 51
10.546505
  0
ARC
  8
LY_1
  6
CONTINUOUS
 62
     3
  5
6C
 10
63.221939
 20
137.462494
 30
0.0
 40
0.962499
 50
180.000036
 51
0.000019
  0
ARC
  8
LY_1
  6
CONTINUOUS
 62
     3
  5
6D
 10
56.552475
 20
137.462494
 30
0.0
 40
0.962499
 50
180.000036
 51
0.000019
  0
ARC
  8
LY_1
  6
CONTINUOUS
 62
     3
  5
6E
 10
56.552475
 20
142.537491
 30
0.0
 40
0.962499
 50
359.999964
 51
179.999964
  0
ARC
  8
LY_1
  6
CONTINUOUS
 62
     3
  5
6F
 10
53.256653
 20
137.462494
 30
0.0
 40
0.962499
 50
235.167474
 51
359.999964
  0
ARC
  8
LY_1
  6
CONTINUOUS
 62
     3
  5
70
 10
53.256653
 20
137.462494
 30
0.0
 40
0.962499
 50
359.999964
 51
55.167346
  0
ARC
  8
LY_1
  6
CONTINUOUS
 62
     3
  5
71
 10
53.256653
 20
142.537491
 30
0.0
 40
0.962499
 50
214.83646
 51
124.832471
  0
ARC
  8
LY_1
  6
CONTINUOUS
 62
     3
  5
72
 10
46.962479
 20
137.462494
 30
0.0
 40
0.962499
 50
180.000036
 51
0.000019
  0
ARC
  8
LY_1
  6
CONTINUOUS
 62
     3
  5
73
 10
46.962479
 20
142.537491
 30
0.0
 40
0.962499
 50
359.999964
 51
179.999964
  0
ARC
  8
LY_1
  6
CONTINUOUS
 62
   110
  5
74
 10
0.0
 20
140.0
 30
0.0
 40
5.0
 50
306.869898
 51
359.999983
  0
ARC
  8
LY_1
  6
CONTINUOUS
 62
   110
  5
75
 10
0.0
 20
140.0
 30
0.0
 40
5.0
 50
126.86989
 51
233.130093
  0
ARC
  8
LY_1
  6
CONTINUOUS
 62
     3
  5
76
 10
0.0
 20
140.0
 30
0.0
 40
6.0
 50
318.189683
 51
359.999983
  0
ARC
  8
LY_1
  6
CONTINUOUS
 62
     3
  5
77
 10
0.0
 20
140.0
 30
0.0
 40
6.0
 50
138.189699
 51
221.810339
  0
ARC
  8
LY_1
  6
CONTINUOUS
 62
   110
  5
78
 10
0.0
 20
140.0
 30
0.0
 40
6.0
 50
221.810301
 51
318.189683
  0
ARC
  8
LY_1
  6
CONTINUOUS
 62
     3
  5
79
 10
0.0
 20
140.0
 30
0.0
 40
5.0
 50
233.13011
 51
306.869898
  0
ARC
  8
LY_1
  6
CONTINUOUS
 62
     3
  5
7A
 10
0.0
 20
140.0
 30
0.0
 40
5.0
 50
53.130102
 51
126.86989
  0
ARC
  8
LY_1
  6
CONTINUOUS
 62
   110
  5
7B
 10
0.0
 20
140.0
 30
0.0
 40
6.0
 50
41.810317
 51
138.189699
  0
ARC
  8
LY_1
  6
CONTINUOUS
 62
   110
  5
7C
 10
0.0
 20
140.0
 30
0.0
 40
5.0
 50
0.0
 51
53.130102
  0
CIRCLE
  8
LY_1
  6
CONTINUOUS
 62
     3
  5
7D
 10
0.0
 20
140.0
 30
0.0
 40
8.25
  0
CIRCLE
  8
LY_1
  6
CONTINUOUS
 62
     3
  5
7E
 10
0.0
 20
140.0
 30
0.0
 40
10.75
  0
ARC
  8
LY_1
  6
CONTINUOUS
 62
     3
  5
7F
 10
119.300003
 20
143.19072
 30
0.0
 40
5.7
 50
0.000078
 51
86.000005
  0
ARC
  8
LY_1
  6
CONTINUOUS
 62
     3
  5
80
 10
119.300003
 20
136.809265
 30
0.0
 40
5.7
 50
273.999995
 51
359.999934
  0
ARC
  8
LY_1
  6
CONTINUOUS
 62
     3
  5
81
 10
-9.0
 20
152.0
 30
0.0
 40
4.0
 50
270.000018
 51
306.869898
  0
ARC
  8
LY_1
  6
CONTINUOUS
 62
     3
  5
82
 10
-15.0
 20
144.0
 30
0.0
 40
4.0
 50
89.999982
 51
180.000019
  0
ARC
  8
LY_1
  6
CONTINUOUS
 62
     3
  5
83
 10
0.0
 20
140.0
 30
0.0
 40
11.0
 50
179.999981
 51
270.000018
  0
ARC
  8
LY_1
  6
CONTINUOUS
 62
     3
  5
84
 10
17.698029
 20
41.700012
 30
0.0
 40
6.0
 50
270.000018
 51
345.0
  0
ARC
  8
LY_1
  6
CONTINUOUS
 62
     3
  5
85
 10
17.698029
 20
41.700012
 30
0.0
 40
3.0
 50
270.000018
 51
345.0
  0
CIRCLE
  8
LY_1
  6
CONTINUOUS
 62
   110
  5
86
 10
190.0
 20
0.0
 30
0.0
 40
29.806961
  0
CIRCLE
  8
LY_1
  6
CONTINUOUS
 62
     3
  5
87
 10
190.0
 20
0.0
 30
0.0
 40
28.258163
  0
ARC
  8
LY_1
  6
CONTINUOUS
 62
     3
  5
88
 10
0.0
 20
140.0
 30
0.0
 40
12.0
 50
180.000036
 51
203.55643
  0
ARC
  8
LY_1
  6
CONTINUOUS
 62
     3
  5
89
 10
0.0
 20
140.0
 30
0.0
 40
21.0
 50
205.208789
 51
221.810301
  0
ARC
  8
LY_1
  6
CONTINUOUS
 62
     3
  5
8A
 10
-11.800003
 20
126.799988
 30
0.0
 40
0.8
 50
270.000018
 51
0.0
  0
ARC
  8
LY_1
  6
CONTINUOUS
 62
     3
  5
8B
 10
0.0
 20
140.0
 30
0.0
 40
6.0
 50
0.0
 51
41.810317
  0
ARC
  8
LY_1
  6
CONTINUOUS
 62
     3
  5
8C
 10
6.803818
 20
106.5
 30
0.0
 40
3.0
 50
29.999666
 51
89.999982
  0
ARC
  8
LY_1
  6
CONTINUOUS
 62
     3
  5
8D
 10
12.0
 20
109.499969
 30
0.0
 40
3.0
 50
209.999593
 51
270.000018
  0
ARC
  8
LY_1
  6
CONTINUOUS
 62
     3
  5
8E
 10
6.803833
 20
173.5
 30
0.0
 40
3.0
 50
270.000018
 51
329.999999
  0
ARC
  8
LY_1
  6
CONTINUOUS
 62
     3
  5
8F
 10
12.0
 20
170.5
 30
0.0
 40
3.0
 50
89.999982
 51
150.000079
  0
ARC
  8
LY_1
  6
CONTINUOUS
 62
     3
  5
90
 10
-18.303833
 20
173.5
 30
0.0
 40
3.0
 50
210.000085
 51
270.000291
  0
ARC
  8
LY_1
  6
CONTINUOUS
 62
     3
  5
91
 10
-23.5
 20
170.5
 30
0.0
 40
3.0
 50
29.999929
 51
89.999982
  0
ARC
  8
LY_1
  6
CONTINUOUS
 62
     3
  5
92
 10
-18.303833
 20
106.5
 30
0.0
 40
3.0
 50
89.999709
 51
149.999915
  0
ARC
  8
LY_1
  6
CONTINUOUS
 62
     3
  5
93
 10
-23.5
 20
109.5
 30
0.0
 40
3.0
 50
269.588786
 51
330.000071
  0
ARC
  8
LY_1
  6
CONTINUOUS
 62
     3
  5
94
 10
-18.303833
 20
-33.5
 30
0.0
 40
3.0
 50
89.999709
 51
149.999915
  0
ARC
  8
LY_1
  6
CONTINUOUS
 62
     3
  5
95
 10
-23.5
 20
-30.5
 30
0.0
 40
3.0
 50
270.000018
 51
330.000071
  0
ARC
  8
LY_1
  6
CONTINUOUS
 62
     3
  5
96
 10
6.803833
 20
-33.5
 30
0.0
 40
3.0
 50
30.000001
 51
89.999982
  0
ARC
  8
LY_1
  6
CONTINUOUS
 62
     3
  5
97
 10
12.0
 20
-30.5
 30
0.0
 40
3.0
 50
210.00003
 51
270.000018
  0
LINE
  8
LY_1
  6
CONTINUOUS
 62
     3
  5
98
 10
24.999989
 20
177.49999
 30
0.0
 11
22.690607
 21
173.500029
 31
0.0
  0
LINE
  8
LY_1
  6
CONTINUOUS
 62
     3
  5
99
 10
-27.000005
 20
177.499986
 30
0.0
 11
-24.690605
 21
173.499982
 31
0.0
  0
LINE
  8
LY_1
  6
CONTINUOUS
 62
     3
  5
9A
 10
24.999987
 20
102.500002
 30
0.0
 11
22.690605
 21
106.499963
 31
0.0
  0
LINE
  8
LY_1
  6
CONTINUOUS
 62
     3
  5
9B
 10
-27.000008
 20
102.499991
 30
0.0
 11
-24.690608
 21
106.499995
 31
0.0
  0
LINE
  8
LY_1
  6
CONTINUOUS
 62
     3
  5
9C
 10
-27.0
 20
0.0
 30
0.0
 11
-51.0
 21
0.0
 31
0.0
  0
LINE
  8
LY_1
  6
CONTINUOUS
 62
     3
  5
9D
 10
24.999985
 20
0.0
 30
0.0
 11
49.0
 21
0.0
 31
0.0
  0
LINE
  8
LY_1
  6
CONTINUOUS
 62
     3
  5
9E
 10
28.198029
 20
149.305969
 30
0.0
 11
28.198029
 21
129.772263
 31
0.0
  0
LINE
  8
LY_1
  6
CONTINUOUS
 62
     3
  5
9F
 10
17.698029
 20
149.566406
 30
0.0
 11
17.698029
 21
130.553619
 31
0.0
  0
LINE
  8
LY_1
  6
PHANTOM
 62
   110
  5
A0
 10
8.0
 20
155.0
 30
0.0
 11
8.0
 21
149.0
 31
0.0
  0
LINE
  8
LY_1
  6
PHANTOM
 62
   110
  5
A1
 10
4.0
 20
159.0
 30
0.0
 11
0.0
 21
159.0
 31
0.0
  0
LINE
  8
LY_1
  6
PHANTOM
 62
   110
  5
A2
 10
11.0
 20
140.0
 30
0.0
 11
11.0
 21
93.69426
 31
0.0
  0
LINE
  8
LY_1
  6
PHANTOM
 62
   110
  5
A3
 10
-11.0
 20
140.0
 30
0.0
 11
-11.0
 21
93.69426
 31
0.0
  0
LINE
  8
LY_1
  6
CONTINUOUS
 62
     3
  5
A4
 10
70.522903
 20
142.713669
 30
0.0
 11
74.363464
 21
142.713669
 31
0.0
  0
LINE
  8
LY_1
  6
CONTINUOUS
 62
     3
  5
A5
 10
69.230164
 20
136.5
 30
0.0
 11
75.698166
 21
136.5
 31
0.0
  0
LINE
  8
LY_1
  6
CONTINUOUS
 62
     3
  5
A6
 10
75.698166
 20
138.425003
 30
0.0
 11
72.016068
 21
138.425003
 31
0.0
  0
LINE
  8
LY_1
  6
CONTINUOUS
 62
     3
  5
A7
 10
76.292112
 20
141.780219
 30
0.0
 11
72.015891
 21
138.424959
 31
0.0
  0
LINE
  8
LY_1
  6
CONTINUOUS
 62
     3
  5
A8
 10
74.363274
 20
142.713587
 30
0.0
 11
68.635868
 21
138.21968
 31
0.0
  0
LINE
  8
LY_1
  6
CONTINUOUS
 62
     3
  5
A9
 10
69.576675
 20
143.5
 30
0.0
 11
75.698166
 21
143.5
 31
0.0
  0
LINE
  8
LY_1
  6
CONTINUOUS
 62
     3
  5
AA
 10
60.79454
 20
142.713669
 30
0.0
 11
62.25943
 21
142.713669
 31
0.0
  0
LINE
  8
LY_1
  6
CONTINUOUS
 62
     3
  5
AB
 10
64.184418
 20
141.574997
 30
0.0
 11
66.280823
 21
141.574997
 31
0.0
  0
LINE
  8
LY_1
  6
CONTINUOUS
 62
     3
  5
AC
 10
64.184418
 20
141.574997
 30
0.0
 11
64.184418
 21
137.462494
 31
0.0
  0
LINE
  8
LY_1
  6
CONTINUOUS
 62
     3
  5
AD
 10
62.25943
 20
142.713669
 30
0.0
 11
62.25943
 21
137.462494
 31
0.0
  0
LINE
  8
LY_1
  6
CONTINUOUS
 62
     3
  5
AE
 10
55.589966
 20
137.462494
 30
0.0
 11
55.589966
 21
142.537491
 31
0.0
  0
LINE
  8
LY_1
  6
CONTINUOUS
 62
     3
  5
AF
 10
57.514969
 20
142.537491
 30
0.0
 11
57.514969
 21
137.462494
 31
0.0
  0
LINE
  8
LY_1
  6
CONTINUOUS
 62
     3
  5
B0
 10
50.452654
 20
140.586209
 30
0.0
 11
52.466615
 21
141.987647
 31
0.0
  0
LINE
  8
LY_1
  6
CONTINUOUS
 62
     3
  5
B1
 10
50.452654
 20
140.586191
 30
0.0
 11
53.806392
 21
138.252454
 31
0.0
  0
LINE
  8
LY_1
  6
CONTINUOUS
 62
     3
  5
B2
 10
47.924998
 20
139.999923
 30
0.0
 11
52.706875
 21
143.327447
 31
0.0
  0
LINE
  8
LY_1
  6
CONTINUOUS
 62
     3
  5
B3
 10
47.925
 20
139.9999
 30
0.0
 11
52.706865
 21
136.672385
 31
0.0
  0
LINE
  8
LY_1
  6
CONTINUOUS
 62
     3
  5
B4
 10
47.924988
 20
142.537491
 30
0.0
 11
47.924988
 21
137.462494
 31
0.0
  0
LINE
  8
LY_1
  6
CONTINUOUS
 62
     3
  5
B5
 10
46.0
 20
142.537491
 30
0.0
 11
46.0
 21
137.462494
 31
0.0
  0
LINE
  8
LY_1
  6
CONTINUOUS
 62
     3
  5
B6
 10
59.848312
 20
143.5
 30
0.0
 11
66.280823
 21
143.5
 31
0.0
  0
LINE
  8
LY_1
  6
CONTINUOUS
 62
     3
  5
B7
 10
180.5
 20
34.499985
 30
0.0
 11
199.5
 21
34.499985
 31
0.0
  0
LINE
  8
LY_1
  6
CONTINUOUS
 62
     3
  5
B8
 10
180.5
 20
35.699982
 30
0.0
 11
180.5
 21
33.499985
 31
0.0
  0
LINE
  8
LY_1
  6
CONTINUOUS
 62
     3
  5
B9
 10
199.5
 20
35.699982
 30
0.0
 11
199.5
 21
33.499985
 31
0.0
  0
LINE
  8
LY_1
  6
CONTINUOUS
 62
     3
  5
BA
 10
201.0
 20
35.699982
 30
0.0
 11
201.0
 21
72.0
 31
0.0
  0
LINE
  8
LY_1
  6
CONTINUOUS
 62
     3
  5
BB
 10
179.0
 20
35.699982
 30
0.0
 11
201.0
 21
35.699982
 31
0.0
  0
LINE
  8
LY_1
  6
CONTINUOUS
 62
     3
  5
BC
 10
179.0
 20
72.0
 30
0.0
 11
201.0
 21
72.0
 31
0.0
  0
LINE
  8
LY_1
  6
CONTINUOUS
 62
     3
  5
BD
 10
179.0
 20
35.699982
 30
0.0
 11
179.0
 21
72.0
 31
0.0
  0
LINE
  8
LY_1
  6
CONTINUOUS
 62
     3
  5
BE
 10
179.0
 20
44.50383
 30
0.0
 11
201.0
 21
44.50383
 31
0.0
  0
LINE
  8
LY_1
  6
CONTINUOUS
 62
     3
  5
BF
 10
179.0
 20
67.600006
 30
0.0
 11
201.0
 21
67.600006
 31
0.0
  0
LINE
  8
LY_1
  6
CONTINUOUS
 62
     3
  5
C0
 10
9.0
 20
26.082428
 30
0.0
 11
9.0
 21
-26.007416
 31
0.0
  0
LINE
  8
LY_1
  6
CONTINUOUS
 62
     3
  5
C1
 10
-20.5
 20
28.31485
 30
0.0
 11
-20.5
 21
-26.602722
 31
0.0
  0
LINE
  8
LY_1
  6
CONTINUOUS
 62
     3
  5
C2
 10
-4.899994
 20
48.700012
 30
0.0
 11
-4.899994
 21
41.700012
 31
0.0
  0
LINE
  8
LY_1
  6
CONTINUOUS
 62
     3
  5
C3
 10
4.899994
 20
48.700012
 30
0.0
 11
4.899994
 21
41.700012
 31
0.0
  0
LINE
  8
LY_1
  6
CONTINUOUS
 62
     3
  5
C4
 10
9.800004
 20
140.000011
 30
0.0
 11
4.900003
 21
131.51296
 31
0.0
  0
LINE
  8
LY_1
  6
CONTINUOUS
 62
     3
  5
C5
 10
4.899993
 20
131.512955
 30
0.0
 11
-4.899995
 21
131.512955
 31
0.0
  0
LINE
  8
LY_1
  6
CONTINUOUS
 62
     3
  5
C6
 10
-4.900003
 20
131.51296
 30
0.0
 11
-9.799997
 21
139.999998
 31
0.0
  0
LINE
  8
LY_1
  6
CONTINUOUS
 62
     3
  5
C7
 10
-9.79999
 20
140.000005
 30
0.0
 11
-4.899989
 21
148.487057
 31
0.0
  0
LINE
  8
LY_1
  6
CONTINUOUS
 62
     3
  5
C8
 10
-4.899995
 20
148.487045
 30
0.0
 11
4.900008
 21
148.487045
 31
0.0
  0
LINE
  8
LY_1
  6
CONTINUOUS
 62
     3
  5
C9
 10
4.899997
 20
148.487044
 30
0.0
 11
9.79999
 21
140.000005
 31
0.0
  0
LINE
  8
LY_1
  6
CONTINUOUS
 62
     3
  5
CA
 10
-15.652481
 20
39.0
 30
0.0
 11
-15.652481
 21
33.499985
 31
0.0
  0
LINE
  8
LY_1
  6
CONTINUOUS
 62
     3
  5
CB
 10
-10.75
 20
41.700012
 30
0.0
 11
-10.75
 21
38.700012
 31
0.0
  0
LINE
  8
LY_1
  6
CONTINUOUS
 62
     3
  5
CC
 10
10.75
 20
41.700012
 30
0.0
 11
10.75
 21
38.700012
 31
0.0
  0
LINE
  8
LY_1
  6
CONTINUOUS
 62
     3
  5
CD
 10
-10.75
 20
41.700012
 30
0.0
 11
10.75
 21
41.700012
 31
0.0
  0
LINE
  8
LY_1
  6
CONTINUOUS
 62
     3
  5
CE
 10
-11.0
 20
35.699982
 30
0.0
 11
17.698029
 21
35.699982
 31
0.0
  0
LINE
  8
LY_1
  6
CONTINUOUS
 62
     3
  5
CF
 10
-9.5
 20
34.499985
 30
0.0
 11
9.5
 21
34.499985
 31
0.0
  0
LINE
  8
LY_1
  6
CONTINUOUS
 62
     3
  5
D0
 10
-6.0
 20
51.199982
 30
0.0
 11
6.0
 21
51.199982
 31
0.0
  0
LINE
  8
LY_1
  6
CONTINUOUS
 62
     3
  5
D1
 10
49.0
 20
151.699997
 30
0.0
 11
49.0
 21
177.5
 31
0.0
  0
LINE
  8
LY_1
  6
CONTINUOUS
 62
     3
  5
D2
 10
6.0
 20
51.199982
 30
0.0
 11
6.0
 21
48.700012
 31
0.0
  0
LINE
  8
LY_1
  6
CONTINUOUS
 62
     3
  5
D3
 10
21.13559
 20
151.699997
 30
0.0
 11
79.324692
 21
151.699997
 31
0.0
  0
LINE
  8
LY_1
  6
CONTINUOUS
 62
     3
  5
D4
 10
79.348844
 20
151.698296
 30
0.0
 11
119.697611
 21
148.876829
 31
0.0
  0
LINE
  8
LY_1
  6
CONTINUOUS
 62
     3
  5
D5
 10
125.0
 20
143.19072
 30
0.0
 11
125.0
 21
136.809265
 31
0.0
  0
LINE
  8
LY_1
  6
CONTINUOUS
 62
     3
  5
D6
 10
79.348836
 20
128.301697
 30
0.0
 11
119.697621
 21
131.123156
 31
0.0
  0
LINE
  8
LY_1
  6
CONTINUOUS
 62
     3
  5
D7
 10
21.13559
 20
128.300003
 30
0.0
 11
79.324615
 21
128.300003
 31
0.0
  0
LINE
  8
LY_1
  6
CONTINUOUS
 62
     3
  5
D8
 10
21.13559
 20
151.699997
 30
0.0
 11
21.13559
 21
128.300003
 31
0.0
  0
LINE
  8
LY_1
  6
CONTINUOUS
 62
     3
  5
D9
 10
-4.472137
 20
136.0
 30
0.0
 11
4.472137
 21
136.0
 31
0.0
  0
LINE
  8
LY_1
  6
CONTINUOUS
 62
     3
  5
DA
 10
-4.472137
 20
144.0
 30
0.0
 11
4.472137
 21
144.0
 31
0.0
  0
LINE
  8
LY_1
  6
CONTINUOUS
 62
     3
  5
DB
 10
-15.0
 20
148.0
 30
0.0
 11
-9.0
 21
148.0
 31
0.0
  0
LINE
  8
LY_1
  6
CONTINUOUS
 62
     3
  5
DC
 10
-19.0
 20
144.0
 30
0.0
 11
-19.0
 21
140.0
 31
0.0
  0
LINE
  8
LY_1
  6
CONTINUOUS
 62
     3
  5
DD
 10
0.0
 20
151.0
 30
0.0
 11
21.13559
 21
151.0
 31
0.0
  0
LINE
  8
LY_1
  6
CONTINUOUS
 62
     3
  5
DE
 10
0.0
 20
129.0
 30
0.0
 11
21.13559
 21
129.0
 31
0.0
  0
LINE
  8
LY_1
  6
CONTINUOUS
 62
     3
  5
DF
 10
-19.0
 20
140.0
 30
0.0
 11
-11.0
 21
140.0
 31
0.0
  0
LINE
  8
LY_1
  6
CENTER
 62
   110
  5
E1
 10
-56.0
 20
0.0
 30
0.0
 11
53.127136
 21
0.0
 31
0.0
  0
LINE
  8
LY_1
  6
CONTINUOUS
 62
     3
  5
E2
 10
9.800003
 20
48.700012
 30
0.0
 11
9.800003
 21
41.700012
 31
0.0
  0
LINE
  8
LY_1
  6
CONTINUOUS
 62
     3
  5
E3
 10
-9.800003
 20
48.700012
 30
0.0
 11
9.800003
 21
48.700012
 31
0.0
  0
LINE
  8
LY_1
  6
CONTINUOUS
 62
     3
  5
E4
 10
-9.800003
 20
48.700012
 30
0.0
 11
-9.800003
 21
41.700012
 31
0.0
  0
LINE
  8
LY_1
  6
CONTINUOUS
 62
     3
  5
E5
 10
-6.0
 20
51.199982
 30
0.0
 11
-6.0
 21
48.700012
 31
0.0
  0
LINE
  8
LY_1
  6
CONTINUOUS
 62
     3
  5
E6
 10
125.0
 20
72.0
 30
0.0
 11
125.0
 21
67.600006
 31
0.0
  0
LINE
  8
LY_1
  6
CONTINUOUS
 62
     3
  5
E7
 10
33.487717
 20
67.600006
 30
0.0
 11
125.0
 21
67.600006
 31
0.0
  0
LINE
  8
LY_1
  6
CONTINUOUS
 62
     3
  5
E8
 10
31.269989
 20
65.909643
 30
0.0
 11
25.385662
 21
44.503838
 31
0.0
  0
LINE
  8
LY_1
  6
CONTINUOUS
 62
     3
  5
E9
 10
33.339127
 20
72.0
 30
0.0
 11
125.0
 21
72.0
 31
0.0
  0
LINE
  8
LY_1
  6
CONTINUOUS
 62
     3
  5
EA
 10
26.867424
 20
67.034079
 30
0.0
 11
21.006813
 21
45.161982
 31
0.0
  0
LINE
  8
LY_1
  6
CONTINUOUS
 62
     3
  5
EB
 10
25.385666
 20
44.503828
 30
0.0
 11
21.135598
 21
45.142629
 31
0.0
  0
LINE
  8
LY_1
  6
CONTINUOUS
 62
     3
  5
EC
 10
24.713115
 20
44.604911
 30
0.0
 11
23.493582
 21
40.147089
 31
0.0
  0
LINE
  8
LY_1
  6
CONTINUOUS
 62
     3
  5
ED
 10
21.725763
 20
45.053919
 30
0.0
 11
20.59581
 21
40.923542
 31
0.0
  0
LINE
  8
LY_1
  6
CONTINUOUS
 62
     3
  5
EE
 10
-11.0
 20
38.700012
 30
0.0
 11
17.698029
 21
38.700012
 31
0.0
  0
LINE
  8
LY_1
  6
CONTINUOUS
 62
     3
  5
EF
 10
-19.0
 20
39.0
 30
0.0
 11
-19.0
 21
33.499985
 31
0.0
  0
LINE
  8
LY_1
  6
CONTINUOUS
 62
     3
  5
F0
 10
-11.0
 20
39.0
 30
0.0
 11
-11.0
 21
33.499985
 31
0.0
  0
LINE
  8
LY_1
  6
CONTINUOUS
 62
     3
  5
F1
 10
-19.0
 20
39.0
 30
0.0
 11
-11.0
 21
39.0
 31
0.0
  0
LINE
  8
LY_1
  6
CONTINUOUS
 62
     3
  5
F2
 10
-9.5
 20
35.699982
 30
0.0
 11
-9.5
 21
33.499985
 31
0.0
  0
LINE
  8
LY_1
  6
CONTINUOUS
 62
     3
  5
F3
 10
9.5
 20
35.699982
 30
0.0
 11
9.5
 21
33.499985
 31
0.0
  0
LINE
  8
LY_1
  6
CONTINUOUS
 62
     3
  5
F4
 10
4.472137
 20
51.199982
 30
0.0
 11
4.472137
 21
48.700012
 31
0.0
  0
LINE
  8
LY_1
  6
CONTINUOUS
 62
     3
  5
F5
 10
-4.472137
 20
51.199982
 30
0.0
 11
-4.472137
 21
48.700012
 31
0.0
  0
LINE
  8
LY_1
  6
CONTINUOUS
 62
     3
  5
F6
 10
-51.0
 20
33.499985
 30
0.0
 11
49.0
 21
33.499985
 31
0.0
  0
LINE
  8
LY_1
  6
CONTINUOUS
 62
     3
  5
F7
 10
176.0
 20
39.0
 30
0.0
 11
176.0
 21
33.499985
 31
0.0
  0
LINE
  8
LY_1
  6
CONTINUOUS
 62
     3
  5
F8
 10
176.0
 20
39.0
 30
0.0
 11
179.0
 21
39.0
 31
0.0
  0
LINE
  8
LY_1
  6
CONTINUOUS
 62
     3
  5
F9
 10
170.658726
 20
33.499998
 30
0.0
 11
151.317488
 21
-0.000014
 31
0.0
  0
LINE
  8
LY_1
  6
CONTINUOUS
 62
     3
  5
FA
 10
228.682423
 20
-0.000011
 30
0.0
 11
209.341208
 21
-33.499983
 31
0.0
  0
LINE
  8
LY_1
  6
CONTINUOUS
 62
     3
  5
FB
 10
209.341167
 20
33.499997
 30
0.0
 11
228.682407
 21
-0.000012
 31
0.0
  0
LINE
  8
LY_1
  6
CONTINUOUS
 62
     3
  5
FC
 10
151.317473
 20
-0.000016
 30
0.0
 11
170.65869
 21
-33.499986
 31
0.0
  0
LINE
  8
LY_1
  6
CONTINUOUS
 62
     3
  5
FD
 10
170.658707
 20
-33.5
 30
0.0
 11
209.341202
 21
-33.5
 31
0.0
  0
LINE
  8
LY_1
  6
CONTINUOUS
 62
     3
  5
FE
 10
170.658722
 20
33.499985
 30
0.0
 11
209.341187
 21
33.499985
 31
0.0
  0
LINE
  8
LY_1
  6
CONTINUOUS
 62
     3
  5
FF
 10
49.0
 20
123.150009
 30
0.0
 11
-51.0
 21
123.150009
 31
0.0
  0
LINE
  8
LY_1
  6
CONTINUOUS
 62
     3
  5
100
 10
-51.0
 20
156.849991
 30
0.0
 11
49.0
 21
156.849991
 31
0.0
  0
LINE
  8
LY_1
  6
CONTINUOUS
 62
     3
  5
101
 10
-15.652481
 20
126.0
 30
0.0
 11
-11.800003
 21
126.0
 31
0.0
  0
LINE
  8
LY_1
  6
CONTINUOUS
 62
     3
  5
102
 10
-11.0
 20
126.799988
 30
0.0
 11
-11.0
 21
135.204163
 31
0.0
  0
LINE
  8
LY_1
  6
CONTINUOUS
 62
     3
  5
103
 10
-19.0
 20
131.055725
 30
0.0
 11
-19.0
 21
140.0
 31
0.0
  0
LINE
  8
LY_1
  6
CONTINUOUS
 62
     3
  5
104
 10
12.0
 20
106.499969
 30
0.0
 11
22.690598
 21
106.499969
 31
0.0
  0
LINE
  8
LY_1
  6
CONTINUOUS
 62
     3
  5
105
 10
12.0
 20
173.5
 30
0.0
 11
22.690582
 21
173.5
 31
0.0
  0
LINE
  8
LY_1
  6
CONTINUOUS
 62
     3
  5
106
 10
24.999985
 20
177.5
 30
0.0
 11
49.0
 21
177.5
 31
0.0
  0
LINE
  8
LY_1
  6
CONTINUOUS
 62
     3
  5
107
 10
24.999985
 20
102.5
 30
0.0
 11
49.0
 21
102.5
 31
0.0
  0
LINE
  8
LY_1
  6
CONTINUOUS
 62
     3
  5
108
 10
49.0
 20
102.5
 30
0.0
 11
49.0
 21
128.300003
 31
0.0
  0
LINE
  8
LY_1
  6
CONTINUOUS
 62
     3
  5
109
 10
-18.303833
 20
170.5
 30
0.0
 11
6.803833
 21
170.5
 31
0.0
  0
LINE
  8
LY_1
  6
CONTINUOUS
 62
     3
  5
10A
 10
-18.303833
 20
109.5
 30
0.0
 11
6.803818
 21
109.5
 31
0.0
  0
LINE
  8
LY_1
  6
CONTINUOUS
 62
     3
  5
10B
 10
-23.5
 20
106.5
 30
0.0
 11
-24.690613
 21
106.5
 31
0.0
  0
LINE
  8
LY_1
  6
CONTINUOUS
 62
     3
  5
10C
 10
-24.690598
 20
173.5
 30
0.0
 11
-23.301727
 21
173.5
 31
0.0
  0
LINE
  8
LY_1
  6
CONTINUOUS
 62
     3
  5
10D
 10
-51.0
 20
177.5
 30
0.0
 11
-27.0
 21
177.5
 31
0.0
  0
LINE
  8
LY_1
  6
CONTINUOUS
 62
     3
  5
10E
 10
-51.0
 20
102.5
 30
0.0
 11
-27.0
 21
102.5
 31
0.0
  0
LINE
  8
LY_1
  6
CONTINUOUS
 62
     3
  5
10F
 10
-51.0
 20
177.5
 30
0.0
 11
-51.0
 21
102.5
 31
0.0
  0
LINE
  8
LY_1
  6
CONTINUOUS
 62
     3
  5
110
 10
0.0
 20
-30.5
 30
0.0
 11
6.803833
 21
-30.5
 31
0.0
  0
LINE
  8
LY_1
  6
CONTINUOUS
 62
     3
  5
111
 10
12.0
 20
-33.5
 30
0.0
 11
49.0
 21
-33.5
 31
0.0
  0
LINE
  8
LY_1
  6
CONTINUOUS
 62
     3
  5
112
 10
-18.303833
 20
-30.5
 30
0.0
 11
0.0
 21
-30.5
 31
0.0
  0
LINE
  8
LY_1
  6
CONTINUOUS
 62
     3
  5
113
 10
49.0
 20
33.499985
 30
0.0
 11
49.0
 21
-33.5
 31
0.0
  0
LINE
  8
LY_1
  6
CONTINUOUS
 62
     3
  5
114
 10
-51.0
 20
33.499985
 30
0.0
 11
-51.0
 21
-33.5
 31
0.0
  0
LINE
  8
LY_1
  6
CONTINUOUS
 62
     3
  5
115
 10
-51.0
 20
-33.5
 30
0.0
 11
-23.5
 21
-33.5
 31
0.0
  0
LINE
  8
LY_1
  6
CENTER
 62
   110
  5
116
 10
0.0
 20
57.535095
 30
0.0
 11
0.0
 21
-35.5
 31
0.0
  0
LINE
  8
LY_1
  6
CENTER
 62
   110
  5
117
 10
0.0
 20
92.169693
 30
0.0
 11
0.0
 21
173.110977
 31
0.0
  0
LINE
  8
LY_1
  6
CENTER
 62
   110
  5
118
 10
-55.447617
 20
140.0
 30
0.0
 11
127.878128
 21
140.0
 31
0.0
  0
LINE
  8
LY_1
  6
CENTER
 62
   110
  5
119
 10
190.0
 20
75.679352
 30
0.0
 11
190.0
 21
-36.377426
 31
0.0
  0
LINE
  8
LY_1
  6
CENTER
 62
   110
  5
11A
 10
147.429413
 20
0.0
 30
0.0
 11
231.177765
 21
0.0
 31
0.0
  0
ENDSEC
  0
EOF
