  0
SECTION
  2
HEADER
  9
$ACADVER
  1
AC1009
  9
$DWGCODEPAGE
  3
dos932
  9
$INSBASE
 10
0.0
 20
0.0
 30
0.0
  9
$EXTMIN
 10
-42.74528
 20
-66.62539
 30
0.0
  9
$EXTMAX
 10
174.17952
 20
133.583496
 30
0.0
  9
$LIMMIN
 10
-42.74528
 20
-66.62539
  9
$LIMMAX
 10
174.17952
 20
133.583496
  9
$ORTHOMODE
 70
     0
  9
$REGENMODE
 70
     1
  9
$FILLMODE
 70
     1
  9
$QTEXTMODE
 70
     0
  9
$MIRRTEXT
 70
     1
  9
$DRAGMODE
 70
     2
  9
$LTSCALE
 40
1.0
  9
$OSMODE
 70
     0
  9
$ATTMODE
 70
     1
  9
$TEXTSIZE
 40
3.3
  9
$TRACEWID
 40
0.05
  9
$TEXTSTYLE
  7
MX_NOTE_STANDARD
  9
$CLAYER
  8
LY_1
  9
$CELTYPE
  6
CONTINUOUS
  9
$CECOLOR
 62
   256
  9
$DIMSCALE
 40
1.0
  9
$DIMASZ
 40
2.5
  9
$DIMEXO
 40
0.0
  9
$DIMDLI
 40
3.75
  9
$DIMRND
 40
0.0
  9
$DIMDLE
 40
0.0
  9
$DIMEXE
 40
1.1938
  9
$DIMTP
 40
0.0
  9
$DIMTM
 40
0.0
  9
$DIMTXT
 40
3.3
  9
$DIMCEN
 40
2.5
  9
$DIMTSZ
 40
0.0
  9
$DIMTOL
 70
     0
  9
$DIMLIM
 70
     0
  9
$DIMTIH
 70
     0
  9
$DIMTOH
 70
     0
  9
$DIMSE1
 70
     0
  9
$DIMSE2
 70
     0
  9
$DIMTAD
 70
     1
  9
$DIMZIN
 70
     8
  9
$DIMBLK
  1

  9
$DIMASO
 70
     1
  9
$DIMSHO
 70
     1
  9
$DIMPOST
  1

  9
$DIMAPOST
  1

  9
$DIMALT
 70
     0
  9
$DIMALTD
 70
     4
  9
$DIMALTF
 40
0.03937
  9
$DIMLFAC
 40
1.0
  9
$DIMTOFL
 70
     1
  9
$DIMTVP
 40
0.0
  9
$DIMTIX
 70
     0
  9
$DIMSOXD
 70
     0
  9
$DIMSAH
 70
     1
  9
$DIMBLK1
  1
_OPEN30
  9
$DIMBLK2
  1
_OPEN30
  9
$DIMSTYLE
  2
MXDIMSTYLE
  9
$DIMCLRD
 70
     0
  9
$DIMCLRE
 70
     0
  9
$DIMCLRT
 70
     0
  9
$DIMTFAC
 40
1.0
  9
$DIMGAP
 40
1.0
  9
$LUNITS
 70
     2
  9
$LUPREC
 70
     4
  9
$AXISMODE
 70
     0
  9
$AXISUNIT
 10
0.0
 20
0.0
  9
$SKETCHINC
 40
0.1
  9
$FILLETRAD
 40
0.0
  9
$AUNITS
 70
     0
  9
$AUPREC
 70
     0
  9
$MENU
  1
acad
  9
$ELEVATION
 40
0.0
  9
$PELEVATION
 40
0.0
  9
$THICKNESS
 40
0.0
  9
$LIMCHECK
 70
     0
  9
$BLIPMODE
 70
     1
  9
$CHAMFERA
 40
0.0
  9
$CHAMFERB
 40
0.0
  9
$SKPOLY
 70
     0
  9
$TDCREATE
 40
2454901.551793981
  9
$TDUPDATE
 40
2454901.551793981
  9
$TDINDWG
 40
0.0000000000
  9
$TDUSRTIMER
 40
0.0000000000
  9
$USRTIMER
 70
     1
  9
$ANGBASE
 50
0.0
  9
$ANGDIR
 70
     0
  9
$PDMODE
 70
     0
  9
$PDSIZE
 40
0.0
  9
$PLINEWID
 40
0.0
  9
$COORDS
 70
     1
  9
$SPLFRAME
 70
     0
  9
$SPLINETYPE
 70
     6
  9
$SPLINESEGS
 70
     8
  9
$ATTDIA
 70
     0
  9
$ATTREQ
 70
     1
  9
$HANDLING
 70
     1
  9
$HANDSEED
  5
122
  9
$SURFTAB1
 70
     6
  9
$SURFTAB2
 70
     6
  9
$SURFTYPE
 70
     6
  9
$SURFU
 70
     6
  9
$SURFV
 70
     6
  9
$UCSNAME
  2

  9
$UCSORG
 10
0.0
 20
0.0
 30
0.0
  9
$UCSXDIR
 10
1.0
 20
0.0
 30
0.0
  9
$UCSYDIR
 10
0.0
 20
1.0
 30
0.0
  9
$PUCSNAME
  2

  9
$PUCSORG
 10
0.0
 20
0.0
 30
0.0
  9
$PUCSXDIR
 10
1.0
 20
0.0
 30
0.0
  9
$PUCSYDIR
 10
0.0
 20
1.0
 30
0.0
  9
$USERI1
 70
     0
  9
$USERI2
 70
     0
  9
$USERI3
 70
     0
  9
$USERI4
 70
     0
  9
$USERI5
 70
     0
  9
$USERR1
 40
0.0
  9
$USERR2
 40
0.0
  9
$USERR3
 40
0.0
  9
$USERR4
 40
0.0
  9
$USERR5
 40
0.0
  9
$WORLDVIEW
 70
     1
  9
$SHADEDGE
 70
     3
  9
$SHADEDIF
 70
    70
  9
$TILEMODE
 70
     1
  9
$MAXACTVP
 70
    16
  9
$PINSBASE
 10
0.0
 20
0.0
 30
0.0
  9
$PLIMCHECK
 70
     0
  9
$PEXTMIN
 10
1.000000E+20
 20
1.000000E+20
 30
1.000000E+20
  9
$PEXTMAX
 10
-1.000000E+20
 20
-1.000000E+20
 30
-1.000000E+20
  9
$PLIMMIN
 10
0.0
 20
0.0
  9
$PLIMMAX
 10
12.0
 20
9.0
  9
$UNITMODE
 70
     0
  9
$VISRETAIN
 70
     0
  9
$PLINEGEN
 70
     1
  9
$PSLTSCALE
 70
     0
  9
$TREEDEPTH
 70
  3020
  0
ENDSEC
  0
SECTION
  2
TABLES
  0
TABLE
  2
VPORT
 70
     1
  0
VPORT
  2
*ACTIVE
 70
     0
 10
0.0
 20
0.0
 11
1.0
 21
1.0
 12
65.71712
 22
33.479053
 13
0.0
 23
0.0
 14
1.0
 24
1.0
 15
0.0
 25
0.0
 16
0.0
 26
0.0
 36
1.0
 17
0.0
 27
0.0
 37
0.0
 40
202.210975
 41
1.732051
 42
50.0
 43
0.0
 44
0.0
 50
0.0
 51
0.0
 71
     0
 72
   100
 73
     1
 74
     1
 75
     0
 76
     0
 77
     0
 78
     0
  0
ENDTAB
  0
TABLE
  2
LTYPE
 70
     3
  0
LTYPE
  2
CONTINUOUS
 70
    64
  3
Solid line
 72
    65
 73
     0
 40
0.0
  0
LTYPE
  2
PHANTOM
 70
    64
  3
Phantom ______  __  __  ______  __  __  ______
 72
    65
 73
     6
 40
63.5
 49
31.75
 49
-6.35
 49
6.35
 49
-6.35
 49
6.35
 49
-6.35
  0
LTYPE
  2
CENTER
 70
    64
  3
Center ____ _ ____ _ ____ _ ____ _ ____ _ ____
 72
    65
 73
     4
 40
50.8
 49
31.75
 49
-6.35
 49
6.35
 49
-6.35
  0
ENDTAB
  0
TABLE
  2
LAYER
 70
     3
  0
LAYER
  2
0
 70
     0
 62
     7
  6
CONTINUOUS
  0
LAYER
  2
LY_1
 70
     0
 62
     7
  6
CONTINUOUS
  0
LAYER
  2
DEFPOINTS
 70
     0
 62
     7
  6
CONTINUOUS
  0
ENDTAB
  0
TABLE
  2
STYLE
 70
     3
  0
STYLE
  2
MX_NOTE_STANDARD
 70
     0
 40
0.0
 41
1.0
 50
0.0
 71
     0
 42
3.3
  3
txt.shx
  4
extfont.shx
  0
STYLE
  2
MX_DIMTXSTY_2
 70
     0
 40
0.0
 41
0.85
 50
0.0
 71
     0
 42
3.3
  3
txt.shx
  4
extfont.shx
  0
STYLE
  2
MX_DIMTXSTY_3
 70
     0
 40
0.0
 41
1.05
 50
0.0
 71
     0
 42
3.3
  3
txt.shx
  4
extfont.shx
  0
ENDTAB
  0
TABLE
  2
VIEW
 70
     0
  0
ENDTAB
  0
TABLE
  2
UCS
 70
     0
  0
ENDTAB
  0
TABLE
  2
APPID
 70
     1
  0
APPID
  2
ACAD
 70
     0
  0
ENDTAB
  0
TABLE
  2
DIMSTYLE
 70
     1
  0
DIMSTYLE
  2
MXDIMSTYLE
 70
     0
  3

  4

  5

  6
_OPEN30
  7
_OPEN30
 40
1.0
 41
2.5
 42
0.0
 43
3.75
 44
1.1938
 45
0.0
 46
0.0
 47
0.0
 48
0.0
 71
     0
 72
     0
 73
     0
 74
     0
 75
     0
 76
     0
 77
     1
 78
     8
140
3.3
141
2.5
142
0.0
143
0.03937
144
1.0
145
0.0
146
1.0
147
1.0
170
     0
171
     4
172
     1
173
     1
174
     0
175
     0
176
     0
177
     0
178
     0
  0
ENDTAB
  0
ENDSEC
  0
SECTION
  2
BLOCKS
  0
BLOCK
  8
0
  6
BYBLOCK
 62
     0
  5
20
  2
_OPEN30
 70
     2
 10
0.0
 20
0.0
 30
0.0
  3
_OPEN30
  0
LINE
  8
0
  6
BYBLOCK
 62
     0
  5
21
 10
-1.0
 20
0.267949
 30
0.0
 11
0.0
 21
0.0
 31
0.0
  0
LINE
  8
0
  6
BYBLOCK
 62
     0
  5
22
 10
0.0
 20
0.0
 30
0.0
 11
-1.0
 21
-0.267949
 31
0.0
  0
LINE
  8
0
  6
BYBLOCK
 62
     0
  5
23
 10
0.0
 20
0.0
 30
0.0
 11
-1.0
 21
0.0
 31
0.0
  0
ENDBLK
  8
0
  6
BYBLOCK
 62
     0
  5
24
  0
BLOCK
  8
0
  6
BYBLOCK
 62
     0
  5
26
  2
*D1
 70
     1
 10
0.0
 20
0.0
 30
0.0
  3
*D1
  0
LINE
  8
0
  6
CONTINUOUS
 62
   110
  5
27
 10
108.0
 20
48.0
 30
0.0
 11
108.0
 21
0.0
 31
0.0
  0
LINE
  8
0
  6
CONTINUOUS
 62
   110
  5
28
 10
100.0
 20
48.0
 30
0.0
 11
109.193787
 21
48.0
 31
0.0
  0
LINE
  8
0
  6
CONTINUOUS
 62
   110
  5
29
 10
40.0
 20
0.0
 30
0.0
 11
109.193787
 21
0.0
 31
0.0
  0
INSERT
  8
0
  6
CONTINUOUS
 62
   110
  5
30
  2
_OPEN
 10
108.0
 20
48.0
 30
0.0
 41
2.19
 42
2.19
 50
90.0
 43
2.19
  0
INSERT
  8
0
  6
CONTINUOUS
 62
   110
  5
31
  2
_OPEN
 10
108.0
 20
0.0
 30
0.0
 41
2.19
 42
2.19
 50
270.0
 43
2.19
  0
TEXT
  8
0
  6
CONTINUOUS
 62
   110
  5
33
 10
107.0
 20
21.233552
 30
0.0
 40
4.099999
  1
48
 50
90.0
 41
0.98743
  7
MX_DIMTXSTY_2
 11
104.95
 21
21.233552
 31
0.0
 73
     2
  0
POINT
  8
DEFPOINTS
  6
CONTINUOUS
 62
     0
  5
34
 10
100.0
 20
48.0
 30
0.0
  0
POINT
  8
DEFPOINTS
  6
CONTINUOUS
 62
     0
  5
35
 10
40.0
 20
0.0
 30
0.0
  0
POINT
  8
DEFPOINTS
  6
CONTINUOUS
 62
     0
  5
36
 10
108.0
 20
0.0
 30
0.0
  0
ENDBLK
  8
0
  6
BYBLOCK
 62
     0
  5
37
  0
BLOCK
  8
0
  6
BYBLOCK
 62
     0
  5
2B
  2
_OPEN
 70
     2
 10
0.0
 20
0.0
 30
0.0
  3
_OPEN
  0
LINE
  8
0
  6
BYBLOCK
 62
     0
  5
2C
 10
-1.0
 20
0.166667
 30
0.0
 11
0.0
 21
0.0
 31
0.0
  0
LINE
  8
0
  6
BYBLOCK
 62
     0
  5
2D
 10
0.0
 20
0.0
 30
0.0
 11
-1.0
 21
-0.166667
 31
0.0
  0
LINE
  8
0
  6
BYBLOCK
 62
     0
  5
2E
 10
0.0
 20
0.0
 30
0.0
 11
-1.0
 21
0.0
 31
0.0
  0
ENDBLK
  8
0
  6
BYBLOCK
 62
     0
  5
2F
  0
BLOCK
  8
0
  6
BYBLOCK
 62
     0
  5
3A
  2
*D3
 70
     1
 10
0.0
 20
0.0
 30
0.0
  3
*D3
  0
LINE
  8
0
  6
CONTINUOUS
 62
   110
  5
3B
 10
35.0
 20
-29.5
 30
0.0
 11
-36.0
 21
-29.5
 31
0.0
  0
LINE
  8
0
  6
CONTINUOUS
 62
   110
  5
3C
 10
35.0
 20
-19.0
 30
0.0
 11
35.0
 21
-30.693802
 31
0.0
  0
LINE
  8
0
  6
CONTINUOUS
 62
   110
  5
3D
 10
-36.0
 20
-19.0
 30
0.0
 11
-36.0
 21
-30.693802
 31
0.0
  0
INSERT
  8
0
  6
CONTINUOUS
 62
   110
  5
3E
  2
_OPEN
 10
35.0
 20
-29.5
 30
0.0
 41
2.19
 42
2.19
 43
2.19
  0
INSERT
  8
0
  6
CONTINUOUS
 62
   110
  5
3F
  2
_OPEN
 10
-36.0
 20
-29.5
 30
0.0
 41
2.19
 42
2.19
 50
180.0
 43
2.19
  0
TEXT
  8
0
  6
CONTINUOUS
 62
   110
  5
40
 10
-3.252954
 20
-28.5
 30
0.0
 40
4.099999
  1
71
 41
1.007178
  7
MX_NOTE_STANDARD
 11
-3.252954
 21
-26.45
 31
0.0
 73
     2
  0
POINT
  8
DEFPOINTS
  6
CONTINUOUS
 62
     0
  5
41
 10
35.0
 20
-19.0
 30
0.0
  0
POINT
  8
DEFPOINTS
  6
CONTINUOUS
 62
     0
  5
42
 10
-36.0
 20
-19.0
 30
0.0
  0
POINT
  8
DEFPOINTS
  6
CONTINUOUS
 62
     0
  5
43
 10
-36.0
 20
-29.5
 30
0.0
  0
ENDBLK
  8
0
  6
BYBLOCK
 62
     0
  5
44
  0
BLOCK
  8
0
  6
BYBLOCK
 62
     0
  5
47
  2
*D4
 70
     1
 10
0.0
 20
0.0
 30
0.0
  3
*D4
  0
LINE
  8
0
  6
CONTINUOUS
 62
   110
  5
48
 10
0.0
 20
56.0
 30
0.0
 11
100.0
 21
56.0
 31
0.0
  0
LINE
  8
0
  6
CONTINUOUS
 62
   110
  5
49
 10
0.0
 20
35.0
 30
0.0
 11
0.0
 21
57.193787
 31
0.0
  0
LINE
  8
0
  6
CONTINUOUS
 62
   110
  5
4A
 10
100.0
 20
48.0
 30
0.0
 11
100.0
 21
57.193787
 31
0.0
  0
INSERT
  8
0
  6
CONTINUOUS
 62
   110
  5
4B
  2
_OPEN
 10
0.0
 20
56.0
 30
0.0
 41
2.19
 42
2.19
 50
180.0
 43
2.19
  0
INSERT
  8
0
  6
CONTINUOUS
 62
   110
  5
4C
  2
_OPEN
 10
100.0
 20
56.0
 30
0.0
 41
2.19
 42
2.19
 43
2.19
  0
TEXT
  8
0
  6
CONTINUOUS
 62
   110
  5
4E
 10
45.540496
 20
57.0
 30
0.0
 40
4.099999
  1
100
 41
1.027733
  7
MX_DIMTXSTY_3
 11
45.540496
 21
59.05
 31
0.0
 73
     2
  0
POINT
  8
DEFPOINTS
  6
CONTINUOUS
 62
     0
  5
4F
 10
0.0
 20
35.0
 30
0.0
  0
POINT
  8
DEFPOINTS
  6
CONTINUOUS
 62
     0
  5
50
 10
100.0
 20
48.0
 30
0.0
  0
POINT
  8
DEFPOINTS
  6
CONTINUOUS
 62
     0
  5
51
 10
100.0
 20
56.0
 30
0.0
  0
ENDBLK
  8
0
  6
BYBLOCK
 62
     0
  5
52
  0
ENDSEC
  0
SECTION
  2
ENTITIES
  0
DIMENSION
  8
LY_1
  6
CONTINUOUS
 62
   110
  5
38
  2
*D1
 10
108.0
 20
0.0
 30
0.0
 11
108.0
 21
24.0
 31
0.0
 70
   128
  1
<>
 13
100.0
 23
48.0
 33
0.0
 14
40.0
 24
0.0
 34
0.0
 50
90.0
  3
MXDIMSTYLE
1001
ACAD
1000
DSTYLE
1002
{
1070
     6
1000
_OPEN
1070
     7
1000
_OPEN
1070
    41
1040
2.19
1070
    44
1040
1.193787
1070
   140
1040
4.099999
1070
   271
1070
     0
1070
   284
1070
     8
1070
   340
1005
32
1070
   343
1005
2A
1070
   344
1005
2A
1002
}
  0
DIMENSION
  8
LY_1
  6
CONTINUOUS
 62
   110
  5
45
  2
*D3
 10
-36.0
 20
-29.5
 30
0.0
 11
-0.5
 21
-29.5
 31
0.0
 70
   128
  1
<>
 13
35.0
 23
-19.0
 33
0.0
 14
-36.0
 24
-19.0
 34
0.0
  3
MXDIMSTYLE
1001
ACAD
1000
DSTYLE
1002
{
1070
     6
1000
_OPEN
1070
     7
1000
_OPEN
1070
    41
1040
2.19
1070
   140
1040
4.099999
1070
   271
1070
     0
1070
   284
1070
     8
1070
   343
1005
2A
1070
   344
1005
2A
1002
}
  0
DIMENSION
  8
LY_1
  6
CONTINUOUS
 62
   110
  5
53
  2
*D4
 10
100.0
 20
56.0
 30
0.0
 11
50.0
 21
56.0
 31
0.0
 70
   128
  1
<>
 13
0.0
 23
35.0
 33
0.0
 14
100.0
 24
48.0
 34
0.0
  3
MXDIMSTYLE
1001
ACAD
1000
DSTYLE
1002
{
1070
     6
1000
_OPEN
1070
     7
1000
_OPEN
1070
    41
1040
2.19
1070
    44
1040
1.193787
1070
   140
1040
4.099999
1070
   271
1070
     0
1070
   284
1070
     8
1070
   340
1005
4D
1070
   343
1005
2A
1070
   344
1005
2A
1002
}
  0
TEXT
  8
LY_1
  6
CONTINUOUS
 62
   110
  5
54
 10
-42.109357
 20
-65.59074
 30
0.0
 40
4.181479
  1
KITZ
 41
0.912486
  7
MX_NOTE_STANDARD
 11
-42.109357
 21
-63.5
 31
0.0
 73
     2
  0
TEXT
  8
LY_1
  6
CONTINUOUS
 62
   110
  5
55
 10
-42.009808
 20
-57.59074
 30
0.0
 40
4.181479
  1
FIG   TK1
 41
1.055328
  7
MX_NOTE_STANDARD
 11
-42.009808
 21
-55.5
 31
0.0
 73
     2
  0
TEXT
  8
LY_1
  6
CONTINUOUS
 62
   110
  5
56
 10
-42.051927
 20
-49.59074
 30
0.0
 40
4.181479
  1
      BALL VALVE 1
 41
0.994891
  7
MX_NOTE_STANDARD
 11
-42.051927
 21
-47.5
 31
0.0
 73
     2
  0
TEXT
  8
LY_1
  6
CONTINUOUS
 62
   110
  5
57
 10
-42.115522
 20
-41.59074
 30
0.0
 40
4.181479
  1
NAME  TYPE600 FORGED BRASS
 41
0.903639
  7
MX_NOTE_STANDARD
 11
-42.115522
 21
-39.5
 31
0.0
 73
     2
  0
ARC
  8
LY_1
  6
PHANTOM
 62
   110
  5
59
 10
5.0
 20
95.978012
 30
0.0
 40
13.125062
 50
247.607379
 51
295.939383
  0
ARC
  8
LY_1
  6
PHANTOM
 62
   110
  5
5A
 10
-5.0
 20
71.70726
 30
0.0
 40
13.125062
 50
67.607398
 51
115.939401
  0
ARC
  8
LY_1
  6
PHANTOM
 62
   110
  5
5B
 10
0.0
 20
110.0
 30
0.0
 40
10.0
 50
89.999982
 51
180.000019
  0
ARC
  8
LY_1
  6
PHANTOM
 62
   110
  5
5C
 10
0.0
 20
110.0
 30
0.0
 40
9.999999
 50
0.0
 51
39.715132
  0
ARC
  8
LY_1
  6
CONTINUOUS
 62
     3
  5
5D
 10
0.0
 20
110.0
 30
0.0
 40
10.0
 50
179.999964
 51
270.000001
  0
ARC
  8
LY_1
  6
CONTINUOUS
 62
     3
  5
5E
 10
65.625
 20
-9.5
 30
0.0
 40
45.625
 50
169.262961
 51
190.737021
  0
ARC
  8
LY_1
  6
CONTINUOUS
 62
     3
  5
5F
 10
65.625
 20
9.5
 30
0.0
 40
45.625
 50
169.262961
 51
190.737021
  0
ARC
  8
LY_1
  6
CONTINUOUS
 62
     3
  5
60
 10
-66.625
 20
-9.5
 30
0.0
 40
45.625
 50
349.262987
 51
10.737013
  0
ARC
  8
LY_1
  6
CONTINUOUS
 62
     3
  5
61
 10
-66.625
 20
9.5
 30
0.0
 40
45.625
 50
349.262987
 51
10.737013
  0
ARC
  8
LY_1
  6
CONTINUOUS
 62
     3
  5
62
 10
26.133438
 20
42.300003
 30
0.0
 40
1.3
 50
89.999982
 51
164.999994
  0
ARC
  8
LY_1
  6
CONTINUOUS
 62
     3
  5
63
 10
26.133453
 20
42.300003
 30
0.0
 40
5.7
 50
89.999982
 51
164.999994
  0
ARC
  8
LY_1
  6
CONTINUOUS
 62
     3
  5
64
 10
0.0
 20
110.0
 30
0.0
 40
4.188
 50
225.752523
 51
314.247496
  0
ARC
  8
LY_1
  6
CONTINUOUS
 62
   110
  5
65
 10
0.0
 20
110.0
 30
0.0
 40
5.0
 50
216.869889
 51
323.130103
  0
ARC
  8
LY_1
  6
CONTINUOUS
 62
   110
  5
66
 10
0.0
 20
110.0
 30
0.0
 40
4.188
 50
314.247496
 51
0.0
  0
ARC
  8
LY_1
  6
CONTINUOUS
 62
   110
  5
67
 10
0.0
 20
110.0
 30
0.0
 40
4.188
 50
134.247477
 51
225.752505
  0
ARC
  8
LY_1
  6
CONTINUOUS
 62
     3
  5
68
 10
0.0
 20
110.0
 30
0.0
 40
4.188
 50
45.752504
 51
134.247477
  0
ARC
  8
LY_1
  6
CONTINUOUS
 62
   110
  5
69
 10
0.0
 20
110.0
 30
0.0
 40
5.0
 50
36.869897
 51
143.130111
  0
ARC
  8
LY_1
  6
PHANTOM
 62
   110
  5
6A
 10
10.0
 20
118.306625
 30
0.0
 40
3.0
 50
180.000036
 51
219.715127
  0
ARC
  8
LY_1
  6
PHANTOM
 62
   110
  5
6B
 10
4.0
 20
123.5
 30
0.0
 40
3.0
 50
359.999982
 51
90.000037
  0
ARC
  8
LY_1
  6
CONTINUOUS
 62
     3
  5
6C
 10
55.524536
 20
111.993744
 30
0.0
 40
0.756249
 50
89.999982
 51
10.546505
  0
ARC
  8
LY_1
  6
CONTINUOUS
 62
     3
  5
6D
 10
55.252274
 20
108.006241
 30
0.0
 40
0.756249
 50
128.11894
 51
270.000055
  0
ARC
  8
LY_1
  6
CONTINUOUS
 62
     3
  5
6E
 10
60.334274
 20
108.006241
 30
0.0
 40
0.756249
 50
270.000018
 51
89.999927
  0
ARC
  8
LY_1
  6
CONTINUOUS
 62
     3
  5
6F
 10
60.334274
 20
111.993744
 30
0.0
 40
0.756249
 50
308.118873
 51
89.999927
  0
ARC
  8
LY_1
  6
CONTINUOUS
 62
     3
  5
70
 10
52.934921
 20
111.993744
 30
0.0
 40
0.756249
 50
270.000018
 51
89.999982
  0
ARC
  8
LY_1
  6
CONTINUOUS
 62
     3
  5
71
 10
47.880814
 20
111.993744
 30
0.0
 40
0.756249
 50
89.999982
 51
10.546505
  0
ARC
  8
LY_1
  6
CONTINUOUS
 62
     3
  5
72
 10
50.531525
 20
108.006241
 30
0.0
 40
0.756249
 50
180.000036
 51
0.000019
  0
ARC
  8
LY_1
  6
CONTINUOUS
 62
     3
  5
73
 10
45.291229
 20
108.006241
 30
0.0
 40
0.756249
 50
180.000036
 51
0.000019
  0
ARC
  8
LY_1
  6
CONTINUOUS
 62
     3
  5
74
 10
45.291229
 20
111.993744
 30
0.0
 40
0.756249
 50
359.999964
 51
179.999964
  0
ARC
  8
LY_1
  6
CONTINUOUS
 62
     3
  5
75
 10
42.70166
 20
108.006241
 30
0.0
 40
0.756249
 50
235.167474
 51
359.999964
  0
ARC
  8
LY_1
  6
CONTINUOUS
 62
     3
  5
76
 10
42.70166
 20
108.006241
 30
0.0
 40
0.756249
 50
359.999964
 51
55.167346
  0
ARC
  8
LY_1
  6
CONTINUOUS
 62
     3
  5
77
 10
42.70166
 20
111.993744
 30
0.0
 40
0.756249
 50
214.83646
 51
124.832471
  0
ARC
  8
LY_1
  6
CONTINUOUS
 62
     3
  5
78
 10
37.756241
 20
108.006241
 30
0.0
 40
0.756249
 50
180.000036
 51
0.000019
  0
ARC
  8
LY_1
  6
CONTINUOUS
 62
     3
  5
79
 10
37.756241
 20
111.993744
 30
0.0
 40
0.756249
 50
359.999964
 51
179.999964
  0
ARC
  8
LY_1
  6
CONTINUOUS
 62
     3
  5
7A
 10
95.300003
 20
106.179794
 30
0.0
 40
4.7
 50
274.004148
 51
0.000014
  0
ARC
  8
LY_1
  6
CONTINUOUS
 62
     3
  5
7B
 10
95.300003
 20
113.820206
 30
0.0
 40
4.7
 50
359.999896
 51
85.995797
  0
ARC
  8
LY_1
  6
CONTINUOUS
 62
     3
  5
7C
 10
-8.306625
 20
120.0
 30
0.0
 40
3.0
 50
270.000018
 51
309.715143
  0
ARC
  8
LY_1
  6
CONTINUOUS
 62
     3
  5
7D
 10
-13.5
 20
114.0
 30
0.0
 40
3.0
 50
89.999982
 51
180.000019
  0
ARC
  8
LY_1
  6
CONTINUOUS
 62
     3
  5
7E
 10
0.0
 20
110.0
 30
0.0
 40
10.0
 50
89.999982
 51
129.715128
  0
ARC
  8
LY_1
  6
CONTINUOUS
 62
     3
  5
7F
 10
0.0
 20
110.0
 30
0.0
 40
5.0
 50
323.130103
 51
36.869897
  0
ARC
  8
LY_1
  6
CONTINUOUS
 62
     3
  5
80
 10
0.0
 20
110.0
 30
0.0
 40
5.0
 50
143.130111
 51
216.869872
  0
ARC
  8
LY_1
  6
CONTINUOUS
 62
   110
  5
81
 10
0.0
 20
110.0
 30
0.0
 40
4.188
 50
0.0
 51
45.752504
  0
CIRCLE
  8
LY_1
  6
CONTINUOUS
 62
     3
  5
82
 10
0.0
 20
110.0
 30
0.0
 40
6.749999
  0
ARC
  8
LY_1
  6
CONTINUOUS
 62
     3
  5
83
 10
14.46535
 20
25.800003
 30
0.0
 40
5.0
 50
270.000018
 51
345.0
  0
ARC
  8
LY_1
  6
CONTINUOUS
 62
     3
  5
84
 10
14.465353
 20
25.800003
 30
0.0
 40
2.0
 50
270.000018
 51
345.0
  0
CIRCLE
  8
LY_1
  6
CONTINUOUS
 62
     3
  5
85
 10
150.0
 20
0.0
 30
0.0
 40
15.081082
  0
CIRCLE
  8
LY_1
  6
CONTINUOUS
 62
   110
  5
86
 10
150.0
 20
0.0
 30
0.0
 40
16.6745
  0
ARC
  8
LY_1
  6
CONTINUOUS
 62
     3
  5
87
 10
139.799988
 20
23.699997
 30
0.0
 40
0.8
 50
89.999982
 51
179.999964
  0
ARC
  8
LY_1
  6
CONTINUOUS
 62
     3
  5
88
 10
0.0
 20
110.0
 30
0.0
 40
11.0
 50
180.000036
 51
204.619972
  0
ARC
  8
LY_1
  6
CONTINUOUS
 62
     3
  5
89
 10
0.0
 20
110.0
 30
0.0
 40
17.5
 50
199.462961
 51
218.944846
  0
ARC
  8
LY_1
  6
CONTINUOUS
 62
     3
  5
8A
 10
-10.799988
 20
99.799988
 30
0.0
 40
0.8
 50
270.000018
 51
0.0
  0
CIRCLE
  8
LY_1
  6
CONTINUOUS
 62
     3
  5
8B
 10
0.0
 20
110.0
 30
0.0
 40
8.0
  0
ARC
  8
LY_1
  6
CONTINUOUS
 62
     3
  5
8C
 10
2.626602
 20
90.5
 30
0.0
 40
3.0
 50
35.685338
 51
89.999982
  0
ARC
  8
LY_1
  6
CONTINUOUS
 62
     3
  5
8D
 10
7.5
 20
94.0
 30
0.0
 40
3.0
 50
215.685316
 51
269.999963
  0
ARC
  8
LY_1
  6
CONTINUOUS
 62
     3
  5
8E
 10
2.626602
 20
129.5
 30
0.0
 40
3.0
 50
270.000018
 51
324.314662
  0
ARC
  8
LY_1
  6
CONTINUOUS
 62
     3
  5
8F
 10
7.5
 20
126.0
 30
0.0
 40
3.0
 50
89.999982
 51
144.314684
  0
ARC
  8
LY_1
  6
CONTINUOUS
 62
     3
  5
90
 10
-9.626602
 20
90.5
 30
0.0
 40
3.0
 50
89.999982
 51
144.31463
  0
ARC
  8
LY_1
  6
CONTINUOUS
 62
     3
  5
91
 10
-14.5
 20
94.0
 30
0.0
 40
3.0
 50
270.000018
 51
324.314669
  0
ARC
  8
LY_1
  6
CONTINUOUS
 62
     3
  5
92
 10
-9.626602
 20
129.5
 30
0.0
 40
3.0
 50
215.68537
 51
270.000018
  0
ARC
  8
LY_1
  6
CONTINUOUS
 62
     3
  5
93
 10
-14.5
 20
126.0
 30
0.0
 40
3.0
 50
35.685331
 51
89.999982
  0
ARC
  8
LY_1
  6
CONTINUOUS
 62
     3
  5
94
 10
2.626602
 20
-19.5
 30
0.0
 40
3.0
 50
35.685338
 51
89.999982
  0
ARC
  8
LY_1
  6
CONTINUOUS
 62
     3
  5
95
 10
7.5
 20
-16.0
 30
0.0
 40
3.0
 50
215.68537
 51
270.000018
  0
ARC
  8
LY_1
  6
CONTINUOUS
 62
     3
  5
96
 10
-9.626602
 20
-19.5
 30
0.0
 40
3.0
 50
89.999982
 51
144.31463
  0
ARC
  8
LY_1
  6
CONTINUOUS
 62
     3
  5
97
 10
-14.5
 20
-16.0
 30
0.0
 40
3.0
 50
270.000018
 51
324.314669
  0
LINE
  8
LY_1
  6
CONTINUOUS
 62
     3
  5
98
 10
15.988534
 20
119.466965
 30
0.0
 11
15.988534
 21
100.593597
 31
0.0
  0
LINE
  8
LY_1
  6
CONTINUOUS
 62
     3
  5
99
 10
21.759689
 20
119.749115
 30
0.0
 11
21.759689
 21
100.212967
 31
0.0
  0
LINE
  8
LY_1
  6
CONTINUOUS
 62
     3
  5
9A
 10
-21.999999
 20
131.249997
 30
0.0
 11
-20.700967
 21
129.000002
 31
0.0
  0
LINE
  8
LY_1
  6
CONTINUOUS
 62
     3
  5
9B
 10
21.000019
 20
131.249994
 30
0.0
 11
19.700973
 21
128.99999
 31
0.0
  0
LINE
  8
LY_1
  6
CONTINUOUS
 62
     3
  5
9C
 10
-21.999993
 20
88.750011
 30
0.0
 11
-20.700962
 21
91.000005
 31
0.0
  0
LINE
  8
LY_1
  6
CONTINUOUS
 62
     3
  5
9D
 10
21.000018
 20
88.749996
 30
0.0
 11
19.700973
 21
91.0
 31
0.0
  0
LINE
  8
LY_1
  6
CONTINUOUS
 62
     3
  5
9E
 10
21.0
 20
0.0
 30
0.0
 11
35.0
 21
0.0
 31
0.0
  0
LINE
  8
LY_1
  6
CONTINUOUS
 62
     3
  5
9F
 10
-22.0
 20
0.0
 30
0.0
 11
-36.0
 21
0.0
 31
0.0
  0
LINE
  8
LY_1
  6
CONTINUOUS
 62
     3
  5
A0
 10
-9.199997
 20
26.300003
 30
0.0
 11
-9.199997
 21
23.800003
 31
0.0
  0
LINE
  8
LY_1
  6
CONTINUOUS
 62
     3
  5
A1
 10
9.2
 20
26.300003
 30
0.0
 11
9.2
 21
23.800003
 31
0.0
  0
LINE
  8
LY_1
  6
CONTINUOUS
 62
     3
  5
A2
 10
-9.199997
 20
26.300003
 30
0.0
 11
9.2
 21
26.300003
 31
0.0
  0
LINE
  8
LY_1
  6
CONTINUOUS
 62
     3
  5
A3
 10
139.799988
 20
24.5
 30
0.0
 11
140.0
 21
24.5
 31
0.0
  0
LINE
  8
LY_1
  6
PHANTOM
 62
   110
  5
A4
 10
7.0
 20
123.5
 30
0.0
 11
7.0
 21
118.306625
 31
0.0
  0
LINE
  8
LY_1
  6
PHANTOM
 62
   110
  5
A5
 10
4.0
 20
126.5
 30
0.0
 11
0.0
 21
126.5
 31
0.0
  0
LINE
  8
LY_1
  6
PHANTOM
 62
   110
  5
A6
 10
10.0
 20
110.0
 30
0.0
 11
10.0
 21
83.842636
 31
0.0
  0
LINE
  8
LY_1
  6
PHANTOM
 62
   110
  5
A7
 10
-10.0
 20
110.0
 30
0.0
 11
-10.0
 21
83.842636
 31
0.0
  0
LINE
  8
LY_1
  6
CONTINUOUS
 62
     3
  5
A8
 10
56.26799
 20
112.132156
 30
0.0
 11
59.285583
 21
112.132156
 31
0.0
  0
LINE
  8
LY_1
  6
CONTINUOUS
 62
     3
  5
A9
 10
55.252274
 20
107.25
 30
0.0
 11
60.334274
 21
107.25
 31
0.0
  0
LINE
  8
LY_1
  6
CONTINUOUS
 62
     3
  5
AA
 10
60.334274
 20
108.762497
 30
0.0
 11
57.441193
 21
108.762497
 31
0.0
  0
LINE
  8
LY_1
  6
CONTINUOUS
 62
     3
  5
AB
 10
60.800944
 20
111.398747
 30
0.0
 11
57.441044
 21
108.762462
 31
0.0
  0
LINE
  8
LY_1
  6
CONTINUOUS
 62
     3
  5
AC
 10
59.285432
 20
112.132096
 30
0.0
 11
54.785326
 21
108.601168
 31
0.0
  0
LINE
  8
LY_1
  6
CONTINUOUS
 62
     3
  5
AD
 10
55.524536
 20
112.75
 30
0.0
 11
60.334274
 21
112.75
 31
0.0
  0
LINE
  8
LY_1
  6
CONTINUOUS
 62
     3
  5
AE
 10
48.624283
 20
112.132156
 30
0.0
 11
49.775269
 21
112.132156
 31
0.0
  0
LINE
  8
LY_1
  6
CONTINUOUS
 62
     3
  5
AF
 10
51.28775
 20
111.237488
 30
0.0
 11
52.934921
 21
111.237488
 31
0.0
  0
LINE
  8
LY_1
  6
CONTINUOUS
 62
     3
  5
B0
 10
51.28775
 20
111.237488
 30
0.0
 11
51.28775
 21
108.006241
 31
0.0
  0
LINE
  8
LY_1
  6
CONTINUOUS
 62
     3
  5
B1
 10
49.775269
 20
112.132156
 30
0.0
 11
49.775269
 21
108.006241
 31
0.0
  0
LINE
  8
LY_1
  6
CONTINUOUS
 62
     3
  5
B2
 10
44.534973
 20
108.006241
 30
0.0
 11
44.534973
 21
111.993744
 31
0.0
  0
LINE
  8
LY_1
  6
CONTINUOUS
 62
     3
  5
B3
 10
46.047485
 20
111.993744
 30
0.0
 11
46.047485
 21
108.006241
 31
0.0
  0
LINE
  8
LY_1
  6
CONTINUOUS
 62
     3
  5
B4
 10
40.498522
 20
110.460604
 30
0.0
 11
42.080917
 21
111.561731
 31
0.0
  0
LINE
  8
LY_1
  6
CONTINUOUS
 62
     3
  5
B5
 10
40.498507
 20
110.460604
 30
0.0
 11
43.133597
 21
108.626946
 31
0.0
  0
LINE
  8
LY_1
  6
CONTINUOUS
 62
     3
  5
B6
 10
38.512513
 20
109.999954
 30
0.0
 11
42.269699
 21
112.614435
 31
0.0
  0
LINE
  8
LY_1
  6
CONTINUOUS
 62
     3
  5
B7
 10
38.51249
 20
109.999941
 30
0.0
 11
42.269676
 21
107.38546
 31
0.0
  0
LINE
  8
LY_1
  6
CONTINUOUS
 62
     3
  5
B8
 10
38.512497
 20
111.993744
 30
0.0
 11
38.512497
 21
108.006241
 31
0.0
  0
LINE
  8
LY_1
  6
CONTINUOUS
 62
     3
  5
B9
 10
37.0
 20
111.993744
 30
0.0
 11
37.0
 21
108.006241
 31
0.0
  0
LINE
  8
LY_1
  6
CONTINUOUS
 62
     3
  5
BA
 10
47.880814
 20
112.75
 30
0.0
 11
52.934921
 21
112.75
 31
0.0
  0
LINE
  8
LY_1
  6
CONTINUOUS
 62
     3
  5
BB
 10
140.0
 20
20.800003
 30
0.0
 11
160.0
 21
20.800003
 31
0.0
  0
LINE
  8
LY_1
  6
CONTINUOUS
 62
     3
  5
BC
 10
140.0
 20
23.800003
 30
0.0
 11
160.0
 21
23.800003
 31
0.0
  0
LINE
  8
LY_1
  6
CONTINUOUS
 62
     3
  5
BD
 10
140.0
 20
48.0
 30
0.0
 11
140.0
 21
20.0
 31
0.0
  0
LINE
  8
LY_1
  6
CONTINUOUS
 62
     3
  5
BE
 10
160.0
 20
48.0
 30
0.0
 11
160.0
 21
20.0
 31
0.0
  0
LINE
  8
LY_1
  6
CONTINUOUS
 62
     3
  5
BF
 10
140.0
 20
20.0
 30
0.0
 11
160.0
 21
20.0
 31
0.0
  0
LINE
  8
LY_1
  6
CONTINUOUS
 62
     3
  5
C0
 10
142.0
 20
20.0
 30
0.0
 11
142.0
 21
19.0
 31
0.0
  0
LINE
  8
LY_1
  6
CONTINUOUS
 62
     3
  5
C1
 10
158.0
 20
20.0
 30
0.0
 11
158.0
 21
19.0
 31
0.0
  0
LINE
  8
LY_1
  6
CONTINUOUS
 62
     3
  5
C2
 10
-4.041458
 20
34.300003
 30
0.0
 11
-4.041458
 21
26.300003
 31
0.0
  0
LINE
  8
LY_1
  6
CONTINUOUS
 62
     3
  5
C3
 10
4.041458
 20
34.300003
 30
0.0
 11
4.041458
 21
26.300003
 31
0.0
  0
LINE
  8
LY_1
  6
CONTINUOUS
 62
     3
  5
C4
 10
140.0
 20
43.600006
 30
0.0
 11
160.0
 21
43.600006
 31
0.0
  0
LINE
  8
LY_1
  6
CONTINUOUS
 62
     3
  5
C5
 10
140.0
 20
48.0
 30
0.0
 11
160.0
 21
48.0
 31
0.0
  0
LINE
  8
LY_1
  6
CONTINUOUS
 62
     3
  5
C6
 10
-9.626602
 20
15.187698
 30
0.0
 11
-9.626602
 21
-15.768556
 31
0.0
  0
LINE
  8
LY_1
  6
CONTINUOUS
 62
     3
  5
C7
 10
2.626602
 20
14.890045
 30
0.0
 11
2.626602
 21
-15.470887
 31
0.0
  0
LINE
  8
LY_1
  6
CONTINUOUS
 62
     3
  5
C8
 10
-13.610641
 20
24.5
 30
0.0
 11
-13.610641
 21
18.181366
 31
0.0
  0
LINE
  8
LY_1
  6
CONTINUOUS
 62
     3
  5
C9
 10
-11.0
 20
19.0
 30
0.0
 11
35.0
 21
19.0
 31
0.0
  0
LINE
  8
LY_1
  6
CONTINUOUS
 62
     3
  5
CA
 10
-16.5
 20
18.181366
 30
0.0
 11
-12.032852
 21
18.181366
 31
0.0
  0
LINE
  8
LY_1
  6
CONTINUOUS
 62
     3
  5
CB
 10
4.0
 20
35.0
 30
0.0
 11
4.0
 21
34.300003
 31
0.0
  0
LINE
  8
LY_1
  6
CONTINUOUS
 62
     3
  5
CC
 10
5.0
 20
35.0
 30
0.0
 11
5.0
 21
34.300003
 31
0.0
  0
LINE
  8
LY_1
  6
CONTINUOUS
 62
     3
  5
CD
 10
-11.0
 20
20.800003
 30
0.0
 11
14.46535
 21
20.800003
 31
0.0
  0
LINE
  8
LY_1
  6
CONTINUOUS
 62
     3
  5
CE
 10
-11.0
 20
23.800003
 30
0.0
 11
14.46535
 21
23.800003
 31
0.0
  0
LINE
  8
LY_1
  6
CONTINUOUS
 62
     3
  5
CF
 10
35.0
 20
120.699997
 30
0.0
 11
35.0
 21
131.25
 31
0.0
  0
LINE
  8
LY_1
  6
CONTINUOUS
 62
     3
  5
D0
 10
100.0
 20
113.820206
 30
0.0
 11
100.0
 21
106.179794
 31
0.0
  0
LINE
  8
LY_1
  6
CONTINUOUS
 62
     3
  5
D1
 10
64.348893
 20
99.301721
 30
0.0
 11
95.628202
 21
101.49127
 31
0.0
  0
LINE
  8
LY_1
  6
CONTINUOUS
 62
     3
  5
D2
 10
17.13559
 20
99.300003
 30
0.0
 11
64.324432
 21
99.300003
 31
0.0
  0
LINE
  8
LY_1
  6
CONTINUOUS
 62
     3
  5
D3
 10
95.628181
 20
118.508735
 30
0.0
 11
64.348872
 21
120.698284
 31
0.0
  0
LINE
  8
LY_1
  6
CONTINUOUS
 62
     3
  5
D4
 10
17.13559
 20
120.699997
 30
0.0
 11
64.324478
 21
120.699997
 31
0.0
  0
LINE
  8
LY_1
  6
CONTINUOUS
 62
     3
  5
D5
 10
17.13559
 20
120.699997
 30
0.0
 11
17.13559
 21
99.300003
 31
0.0
  0
LINE
  8
LY_1
  6
CONTINUOUS
 62
     3
  5
D6
 10
-13.5
 20
117.0
 30
0.0
 11
-8.306625
 21
117.0
 31
0.0
  0
LINE
  8
LY_1
  6
CONTINUOUS
 62
     3
  5
D7
 10
-16.5
 20
114.0
 30
0.0
 11
-16.5
 21
110.0
 31
0.0
  0
LINE
  8
LY_1
  6
CONTINUOUS
 62
     3
  5
D8
 10
0.0
 20
120.0
 30
0.0
 11
17.13559
 21
120.0
 31
0.0
  0
LINE
  8
LY_1
  6
CONTINUOUS
 62
     3
  5
D9
 10
0.0
 20
100.0
 30
0.0
 11
17.13559
 21
100.0
 31
0.0
  0
LINE
  8
LY_1
  6
CONTINUOUS
 62
     3
  5
DA
 10
-4.0
 20
113.0
 30
0.0
 11
4.0
 21
113.0
 31
0.0
  0
LINE
  8
LY_1
  6
CONTINUOUS
 62
     3
  5
DB
 10
-4.0
 20
107.0
 30
0.0
 11
4.0
 21
107.0
 31
0.0
  0
LINE
  8
LY_1
  6
CONTINUOUS
 62
     3
  5
DC
 10
-16.5
 20
110.0
 30
0.0
 11
-10.0
 21
110.0
 31
0.0
  0
LINE
  8
LY_1
  6
CONTINUOUS
 62
     3
  5
DD
 10
-4.041444
 20
103.0
 30
0.0
 11
4.041449
 21
103.0
 31
0.0
  0
LINE
  8
LY_1
  6
CONTINUOUS
 62
     3
  5
DE
 10
-8.082904
 20
109.999997
 30
0.0
 11
-4.041453
 21
103.0
 31
0.0
  0
LINE
  8
LY_1
  6
CONTINUOUS
 62
     3
  5
DF
 10
-4.041452
 20
116.999997
 30
0.0
 11
-8.082902
 21
110.0
 31
0.0
  0
LINE
  8
LY_1
  6
CONTINUOUS
 62
     3
  5
E0
 10
4.041452
 20
117.0
 30
0.0
 11
-4.041444
 21
117.0
 31
0.0
  0
LINE
  8
LY_1
  6
CONTINUOUS
 62
     3
  5
E1
 10
8.082902
 20
110.0
 30
0.0
 11
4.041452
 21
116.999997
 31
0.0
  0
LINE
  8
LY_1
  6
CONTINUOUS
 62
     3
  5
E2
 10
4.041453
 20
103.0
 30
0.0
 11
8.082904
 21
109.999997
 31
0.0
  0
LINE
  8
LY_1
  6
CONTINUOUS
 62
     3
  5
E3
 10
-10.0
 20
20.800003
 30
0.0
 11
-10.0
 21
20.0
 31
0.0
  0
LINE
  8
LY_1
  6
CONTINUOUS
 62
     3
  5
E4
 10
10.0
 20
20.800003
 30
0.0
 11
10.0
 21
20.0
 31
0.0
  0
LINE
  8
LY_1
  6
CONTINUOUS
 62
     3
  5
E5
 10
-10.0
 20
20.0
 30
0.0
 11
10.0
 21
20.0
 31
0.0
  0
LINE
  8
LY_1
  6
CONTINUOUS
 62
     3
  5
E6
 10
-8.100006
 20
34.300003
 30
0.0
 11
-8.100006
 21
26.300003
 31
0.0
  0
LINE
  8
LY_1
  6
CONTINUOUS
 62
     3
  5
E7
 10
-5.0
 20
35.0
 30
0.0
 11
-5.0
 21
34.300003
 31
0.0
  0
LINE
  8
LY_1
  6
CONTINUOUS
 62
     3
  5
E8
 10
8.1
 20
34.300003
 30
0.0
 11
-8.100006
 21
34.300003
 31
0.0
  0
LINE
  8
LY_1
  6
CONTINUOUS
 62
     3
  5
E9
 10
8.1
 20
34.300003
 30
0.0
 11
8.1
 21
26.300003
 31
0.0
  0
LINE
  8
LY_1
  6
CONTINUOUS
 62
     3
  5
EA
 10
100.0
 20
48.0
 30
0.0
 11
100.0
 21
43.600006
 31
0.0
  0
LINE
  8
LY_1
  6
CONTINUOUS
 62
     3
  5
EB
 10
26.133438
 20
43.600006
 30
0.0
 11
100.0
 21
43.600006
 31
0.0
  0
LINE
  8
LY_1
  6
CONTINUOUS
 62
     3
  5
EC
 10
24.877738
 20
42.636467
 30
0.0
 11
21.385659
 21
29.603853
 31
0.0
  0
LINE
  8
LY_1
  6
CONTINUOUS
 62
     3
  5
ED
 10
26.133453
 20
48.0
 30
0.0
 11
100.0
 21
48.0
 31
0.0
  0
LINE
  8
LY_1
  6
CONTINUOUS
 62
     3
  5
EE
 10
20.627669
 20
43.775269
 30
0.0
 11
17.135591
 21
30.742655
 31
0.0
  0
LINE
  8
LY_1
  6
CONTINUOUS
 62
     3
  5
EF
 10
21.385659
 20
29.603853
 30
0.0
 11
17.135591
 21
30.742655
 31
0.0
  0
LINE
  8
LY_1
  6
CONTINUOUS
 62
     3
  5
F0
 10
20.747557
 20
29.774829
 30
0.0
 11
19.294986
 21
24.505937
 31
0.0
  0
LINE
  8
LY_1
  6
CONTINUOUS
 62
     3
  5
F1
 10
17.849781
 20
30.551283
 30
0.0
 11
16.39721
 21
25.282391
 31
0.0
  0
LINE
  8
LY_1
  6
CONTINUOUS
 62
     3
  5
F2
 10
-16.5
 20
24.5
 30
0.0
 11
-16.5
 21
18.181366
 31
0.0
  0
LINE
  8
LY_1
  6
CONTINUOUS
 62
     3
  5
F3
 10
-11.0
 20
24.5
 30
0.0
 11
-11.0
 21
18.181366
 31
0.0
  0
LINE
  8
LY_1
  6
CONTINUOUS
 62
     3
  5
F4
 10
-16.5
 20
24.5
 30
0.0
 11
-11.0
 21
24.5
 31
0.0
  0
LINE
  8
LY_1
  6
CONTINUOUS
 62
     3
  5
F5
 10
-8.0
 20
20.0
 30
0.0
 11
-8.0
 21
19.0
 31
0.0
  0
LINE
  8
LY_1
  6
CONTINUOUS
 62
     3
  5
F6
 10
8.0
 20
20.0
 30
0.0
 11
8.0
 21
19.0
 31
0.0
  0
LINE
  8
LY_1
  6
CONTINUOUS
 62
     3
  5
F7
 10
-4.0
 20
35.0
 30
0.0
 11
-4.0
 21
34.300003
 31
0.0
  0
LINE
  8
LY_1
  6
CONTINUOUS
 62
     3
  5
F8
 10
-5.0
 20
35.0
 30
0.0
 11
5.0
 21
35.0
 31
0.0
  0
LINE
  8
LY_1
  6
CONTINUOUS
 62
     3
  5
F9
 10
-36.0
 20
19.0
 30
0.0
 11
-16.5
 21
19.0
 31
0.0
  0
LINE
  8
LY_1
  6
CONTINUOUS
 62
     3
  5
FA
 10
139.0
 20
23.699997
 30
0.0
 11
139.0
 21
19.0
 31
0.0
  0
LINE
  8
LY_1
  6
CONTINUOUS
 62
     3
  5
FB
 10
139.030299
 20
18.999996
 30
0.0
 11
128.06065
 21
0.000003
 31
0.0
  0
LINE
  8
LY_1
  6
CONTINUOUS
 62
     3
  5
FC
 10
171.939266
 20
-0.000002
 30
0.0
 11
160.969609
 21
-19.000008
 31
0.0
  0
LINE
  8
LY_1
  6
CONTINUOUS
 62
     3
  5
FD
 10
139.030304
 20
19.0
 30
0.0
 11
160.96962
 21
19.0
 31
0.0
  0
LINE
  8
LY_1
  6
CONTINUOUS
 62
     3
  5
FE
 10
139.030319
 20
-19.0
 30
0.0
 11
160.96962
 21
-19.0
 31
0.0
  0
LINE
  8
LY_1
  6
CONTINUOUS
 62
     3
  5
FF
 10
160.969619
 20
18.999994
 30
0.0
 11
171.939262
 21
0.000016
 31
0.0
  0
LINE
  8
LY_1
  6
CONTINUOUS
 62
     3
  5
100
 10
128.060647
 20
0.000007
 30
0.0
 11
139.030305
 21
-18.999997
 31
0.0
  0
LINE
  8
LY_1
  6
CONTINUOUS
 62
     3
  5
101
 10
-9.626602
 20
93.5
 30
0.0
 11
0.0
 21
93.5
 31
0.0
  0
LINE
  8
LY_1
  6
CONTINUOUS
 62
     3
  5
102
 10
-13.610641
 20
98.999985
 30
0.0
 11
-10.799988
 21
98.999985
 31
0.0
  0
LINE
  8
LY_1
  6
CONTINUOUS
 62
     3
  5
103
 10
35.0
 20
98.330002
 30
0.0
 11
-36.0
 21
98.330002
 31
0.0
  0
LINE
  8
LY_1
  6
CONTINUOUS
 62
     3
  5
104
 10
-36.0
 20
121.669998
 30
0.0
 11
35.0
 21
121.669998
 31
0.0
  0
LINE
  8
LY_1
  6
CONTINUOUS
 62
     3
  5
105
 10
-10.0
 20
105.417419
 30
0.0
 11
-10.0
 21
99.799988
 31
0.0
  0
LINE
  8
LY_1
  6
CONTINUOUS
 62
     3
  5
106
 10
-16.5
 20
110.0
 30
0.0
 11
-16.5
 21
104.169037
 31
0.0
  0
LINE
  8
LY_1
  6
CONTINUOUS
 62
     3
  5
107
 10
0.0
 20
93.5
 30
0.0
 11
2.626602
 21
93.5
 31
0.0
  0
LINE
  8
LY_1
  6
CONTINUOUS
 62
     3
  5
108
 10
0.0
 20
126.5
 30
0.0
 11
2.626602
 21
126.5
 31
0.0
  0
LINE
  8
LY_1
  6
CONTINUOUS
 62
     3
  5
109
 10
19.700974
 20
91.0
 30
0.0
 11
7.5
 21
91.0
 31
0.0
  0
LINE
  8
LY_1
  6
CONTINUOUS
 62
     3
  5
10A
 10
7.5
 20
129.0
 30
0.0
 11
19.700974
 21
129.0
 31
0.0
  0
LINE
  8
LY_1
  6
CONTINUOUS
 62
     3
  5
10B
 10
-9.626602
 20
126.5
 30
0.0
 11
0.0
 21
126.5
 31
0.0
  0
LINE
  8
LY_1
  6
CONTINUOUS
 62
     3
  5
10C
 10
35.0
 20
88.75
 30
0.0
 11
35.0
 21
99.300003
 31
0.0
  0
LINE
  8
LY_1
  6
CONTINUOUS
 62
     3
  5
10D
 10
21.0
 20
131.25
 30
0.0
 11
35.0
 21
131.25
 31
0.0
  0
LINE
  8
LY_1
  6
CONTINUOUS
 62
     3
  5
10E
 10
21.0
 20
88.75
 30
0.0
 11
35.0
 21
88.75
 31
0.0
  0
LINE
  8
LY_1
  6
CONTINUOUS
 62
     3
  5
10F
 10
-14.5
 20
91.0
 30
0.0
 11
-20.700974
 21
91.0
 31
0.0
  0
LINE
  8
LY_1
  6
CONTINUOUS
 62
     3
  5
110
 10
-20.700974
 20
129.0
 30
0.0
 11
-14.5
 21
129.0
 31
0.0
  0
LINE
  8
LY_1
  6
CONTINUOUS
 62
     3
  5
111
 10
-36.0
 20
131.25
 30
0.0
 11
-36.0
 21
88.75
 31
0.0
  0
LINE
  8
LY_1
  6
CONTINUOUS
 62
     3
  5
112
 10
-36.0
 20
131.25
 30
0.0
 11
-22.0
 21
131.25
 31
0.0
  0
LINE
  8
LY_1
  6
CONTINUOUS
 62
     3
  5
113
 10
-36.0
 20
88.75
 30
0.0
 11
-22.0
 21
88.75
 31
0.0
  0
LINE
  8
LY_1
  6
CONTINUOUS
 62
     3
  5
114
 10
7.5
 20
-19.0
 30
0.0
 11
35.0
 21
-19.0
 31
0.0
  0
LINE
  8
LY_1
  6
CONTINUOUS
 62
     3
  5
115
 10
-9.626602
 20
-16.5
 30
0.0
 11
2.626602
 21
-16.5
 31
0.0
  0
LINE
  8
LY_1
  6
CONTINUOUS
 62
     3
  5
116
 10
-36.0
 20
19.0
 30
0.0
 11
-36.0
 21
-19.0
 31
0.0
  0
LINE
  8
LY_1
  6
CONTINUOUS
 62
     3
  5
117
 10
35.0
 20
19.0
 30
0.0
 11
35.0
 21
-19.0
 31
0.0
  0
LINE
  8
LY_1
  6
CONTINUOUS
 62
     3
  5
118
 10
-36.0
 20
-19.0
 30
0.0
 11
-14.5
 21
-19.0
 31
0.0
  0
LINE
  8
LY_1
  6
CENTER
 62
   110
  5
11A
 10
0.0
 20
133.583496
 30
0.0
 11
0.0
 21
82.947083
 31
0.0
  0
LINE
  8
LY_1
  6
CENTER
 62
   110
  5
11B
 10
-41.302322
 20
110.0
 30
0.0
 11
104.485748
 21
110.0
 31
0.0
  0
LINE
  8
LY_1
  6
CENTER
 62
   110
  5
11C
 10
150.0
 20
51.322906
 30
0.0
 11
150.0
 21
-21.423981
 31
0.0
  0
LINE
  8
LY_1
  6
CENTER
 62
   110
  5
11D
 10
126.398209
 20
0.0
 30
0.0
 11
174.17952
 21
0.0
 31
0.0
  0
LINE
  8
LY_1
  6
CENTER
 62
   110
  5
11E
 10
0.0
 20
35.0
 30
0.0
 11
0.0
 21
-21.795486
 31
0.0
  0
LINE
  8
LY_1
  6
CENTER
 62
   110
  5
11F
 10
-41.0
 20
0.0
 30
0.0
 11
40.0
 21
0.0
 31
0.0
  0
ENDSEC
  0
EOF
