  0
SECTION
  2
HEADER
  9
$ACADVER
  1
AC1009
  9
$DWGCODEPAGE
  3
dos932
  9
$INSBASE
 10
0.0
 20
0.0
 30
0.0
  9
$EXTMIN
 10
-25.735133
 20
-58.62539
 30
0.0
  9
$EXTMAX
 10
104.880951
 20
82.391571
 30
0.0
  9
$LIMMIN
 10
-25.735133
 20
-58.62539
  9
$LIMMAX
 10
104.880951
 20
82.391571
  9
$ORTHOMODE
 70
     0
  9
$REGENMODE
 70
     1
  9
$FILLMODE
 70
     1
  9
$QTEXTMODE
 70
     0
  9
$MIRRTEXT
 70
     1
  9
$DRAGMODE
 70
     2
  9
$LTSCALE
 40
1.0
  9
$OSMODE
 70
     0
  9
$ATTMODE
 70
     1
  9
$TEXTSIZE
 40
3.3
  9
$TRACEWID
 40
0.05
  9
$TEXTSTYLE
  7
MX_NOTE_STANDARD
  9
$CLAYER
  8
LY_1
  9
$CELTYPE
  6
CONTINUOUS
  9
$CECOLOR
 62
   256
  9
$DIMSCALE
 40
1.0
  9
$DIMASZ
 40
2.5
  9
$DIMEXO
 40
0.0
  9
$DIMDLI
 40
3.75
  9
$DIMRND
 40
0.0
  9
$DIMDLE
 40
0.0
  9
$DIMEXE
 40
1.1938
  9
$DIMTP
 40
0.0
  9
$DIMTM
 40
0.0
  9
$DIMTXT
 40
3.3
  9
$DIMCEN
 40
2.5
  9
$DIMTSZ
 40
0.0
  9
$DIMTOL
 70
     0
  9
$DIMLIM
 70
     0
  9
$DIMTIH
 70
     0
  9
$DIMTOH
 70
     0
  9
$DIMSE1
 70
     0
  9
$DIMSE2
 70
     0
  9
$DIMTAD
 70
     1
  9
$DIMZIN
 70
     8
  9
$DIMBLK
  1

  9
$DIMASO
 70
     1
  9
$DIMSHO
 70
     1
  9
$DIMPOST
  1

  9
$DIMAPOST
  1

  9
$DIMALT
 70
     0
  9
$DIMALTD
 70
     4
  9
$DIMALTF
 40
0.03937
  9
$DIMLFAC
 40
1.0
  9
$DIMTOFL
 70
     1
  9
$DIMTVP
 40
0.0
  9
$DIMTIX
 70
     0
  9
$DIMSOXD
 70
     0
  9
$DIMSAH
 70
     1
  9
$DIMBLK1
  1
_OPEN30
  9
$DIMBLK2
  1
_OPEN30
  9
$DIMSTYLE
  2
MXDIMSTYLE
  9
$DIMCLRD
 70
     0
  9
$DIMCLRE
 70
     0
  9
$DIMCLRT
 70
     0
  9
$DIMTFAC
 40
1.0
  9
$DIMGAP
 40
1.0
  9
$LUNITS
 70
     2
  9
$LUPREC
 70
     4
  9
$AXISMODE
 70
     0
  9
$AXISUNIT
 10
0.0
 20
0.0
  9
$SKETCHINC
 40
0.1
  9
$FILLETRAD
 40
0.0
  9
$AUNITS
 70
     0
  9
$AUPREC
 70
     0
  9
$MENU
  1
acad
  9
$ELEVATION
 40
0.0
  9
$PELEVATION
 40
0.0
  9
$THICKNESS
 40
0.0
  9
$LIMCHECK
 70
     0
  9
$BLIPMODE
 70
     1
  9
$CHAMFERA
 40
0.0
  9
$CHAMFERB
 40
0.0
  9
$SKPOLY
 70
     0
  9
$TDCREATE
 40
2454901.551782407
  9
$TDUPDATE
 40
2454901.551782407
  9
$TDINDWG
 40
0.0000000000
  9
$TDUSRTIMER
 40
0.0000000000
  9
$USRTIMER
 70
     1
  9
$ANGBASE
 50
0.0
  9
$ANGDIR
 70
     0
  9
$PDMODE
 70
     0
  9
$PDSIZE
 40
0.0
  9
$PLINEWID
 40
0.0
  9
$COORDS
 70
     1
  9
$SPLFRAME
 70
     0
  9
$SPLINETYPE
 70
     6
  9
$SPLINESEGS
 70
     8
  9
$ATTDIA
 70
     0
  9
$ATTREQ
 70
     1
  9
$HANDLING
 70
     1
  9
$HANDSEED
  5
F6
  9
$SURFTAB1
 70
     6
  9
$SURFTAB2
 70
     6
  9
$SURFTYPE
 70
     6
  9
$SURFU
 70
     6
  9
$SURFV
 70
     6
  9
$UCSNAME
  2

  9
$UCSORG
 10
0.0
 20
0.0
 30
0.0
  9
$UCSXDIR
 10
1.0
 20
0.0
 30
0.0
  9
$UCSYDIR
 10
0.0
 20
1.0
 30
0.0
  9
$PUCSNAME
  2

  9
$PUCSORG
 10
0.0
 20
0.0
 30
0.0
  9
$PUCSXDIR
 10
1.0
 20
0.0
 30
0.0
  9
$PUCSYDIR
 10
0.0
 20
1.0
 30
0.0
  9
$USERI1
 70
     0
  9
$USERI2
 70
     0
  9
$USERI3
 70
     0
  9
$USERI4
 70
     0
  9
$USERI5
 70
     0
  9
$USERR1
 40
0.0
  9
$USERR2
 40
0.0
  9
$USERR3
 40
0.0
  9
$USERR4
 40
0.0
  9
$USERR5
 40
0.0
  9
$WORLDVIEW
 70
     1
  9
$SHADEDGE
 70
     3
  9
$SHADEDIF
 70
    70
  9
$TILEMODE
 70
     1
  9
$MAXACTVP
 70
    16
  9
$PINSBASE
 10
0.0
 20
0.0
 30
0.0
  9
$PLIMCHECK
 70
     0
  9
$PEXTMIN
 10
1.000000E+20
 20
1.000000E+20
 30
1.000000E+20
  9
$PEXTMAX
 10
-1.000000E+20
 20
-1.000000E+20
 30
-1.000000E+20
  9
$PLIMMIN
 10
0.0
 20
0.0
  9
$PLIMMAX
 10
12.0
 20
9.0
  9
$UNITMODE
 70
     0
  9
$VISRETAIN
 70
     0
  9
$PLINEGEN
 70
     1
  9
$PSLTSCALE
 70
     0
  9
$TREEDEPTH
 70
  3020
  0
ENDSEC
  0
SECTION
  2
TABLES
  0
TABLE
  2
VPORT
 70
     1
  0
VPORT
  2
*ACTIVE
 70
     0
 10
0.0
 20
0.0
 11
1.0
 21
1.0
 12
39.572909
 22
11.88309
 13
0.0
 23
0.0
 14
1.0
 24
1.0
 15
0.0
 25
0.0
 16
0.0
 26
0.0
 36
1.0
 17
0.0
 27
0.0
 37
0.0
 40
142.427131
 41
1.732051
 42
50.0
 43
0.0
 44
0.0
 50
0.0
 51
0.0
 71
     0
 72
   100
 73
     1
 74
     1
 75
     0
 76
     0
 77
     0
 78
     0
  0
ENDTAB
  0
TABLE
  2
LTYPE
 70
     3
  0
LTYPE
  2
CONTINUOUS
 70
    64
  3
Solid line
 72
    65
 73
     0
 40
0.0
  0
LTYPE
  2
PHANTOM
 70
    64
  3
Phantom ______  __  __  ______  __  __  ______
 72
    65
 73
     6
 40
63.5
 49
31.75
 49
-6.35
 49
6.35
 49
-6.35
 49
6.35
 49
-6.35
  0
LTYPE
  2
CENTER
 70
    64
  3
Center ____ _ ____ _ ____ _ ____ _ ____ _ ____
 72
    65
 73
     4
 40
50.8
 49
31.75
 49
-6.35
 49
6.35
 49
-6.35
  0
ENDTAB
  0
TABLE
  2
LAYER
 70
     3
  0
LAYER
  2
0
 70
     0
 62
     7
  6
CONTINUOUS
  0
LAYER
  2
LY_1
 70
     0
 62
     7
  6
CONTINUOUS
  0
LAYER
  2
DEFPOINTS
 70
     0
 62
     7
  6
CONTINUOUS
  0
ENDTAB
  0
TABLE
  2
STYLE
 70
     2
  0
STYLE
  2
MX_NOTE_STANDARD
 70
     0
 40
0.0
 41
1.0
 50
0.0
 71
     0
 42
3.3
  3
txt.shx
  4
extfont.shx
  0
STYLE
  2
MX_DIMTXSTY_2
 70
     0
 40
0.0
 41
0.9
 50
0.0
 71
     0
 42
3.3
  3
txt.shx
  4
extfont.shx
  0
ENDTAB
  0
TABLE
  2
VIEW
 70
     0
  0
ENDTAB
  0
TABLE
  2
UCS
 70
     0
  0
ENDTAB
  0
TABLE
  2
APPID
 70
     1
  0
APPID
  2
ACAD
 70
     0
  0
ENDTAB
  0
TABLE
  2
DIMSTYLE
 70
     1
  0
DIMSTYLE
  2
MXDIMSTYLE
 70
     0
  3

  4

  5

  6
_OPEN30
  7
_OPEN30
 40
1.0
 41
2.5
 42
0.0
 43
3.75
 44
1.1938
 45
0.0
 46
0.0
 47
0.0
 48
0.0
 71
     0
 72
     0
 73
     0
 74
     0
 75
     0
 76
     0
 77
     1
 78
     8
140
3.3
141
2.5
142
0.0
143
0.03937
144
1.0
145
0.0
146
1.0
147
1.0
170
     0
171
     4
172
     1
173
     1
174
     0
175
     0
176
     0
177
     0
178
     0
  0
ENDTAB
  0
ENDSEC
  0
SECTION
  2
BLOCKS
  0
BLOCK
  8
0
  6
BYBLOCK
 62
     0
  5
20
  2
_OPEN30
 70
     2
 10
0.0
 20
0.0
 30
0.0
  3
_OPEN30
  0
LINE
  8
0
  6
BYBLOCK
 62
     0
  5
21
 10
-1.0
 20
0.267949
 30
0.0
 11
0.0
 21
0.0
 31
0.0
  0
LINE
  8
0
  6
BYBLOCK
 62
     0
  5
22
 10
0.0
 20
0.0
 30
0.0
 11
-1.0
 21
-0.267949
 31
0.0
  0
LINE
  8
0
  6
BYBLOCK
 62
     0
  5
23
 10
0.0
 20
0.0
 30
0.0
 11
-1.0
 21
0.0
 31
0.0
  0
ENDBLK
  8
0
  6
BYBLOCK
 62
     0
  5
24
  0
BLOCK
  8
0
  6
BYBLOCK
 62
     0
  5
26
  2
*D1
 70
     1
 10
0.0
 20
0.0
 30
0.0
  3
*D1
  0
LINE
  8
0
  6
CONTINUOUS
 62
   110
  5
27
 10
0.0
 20
39.0
 30
0.0
 11
60.0
 21
39.0
 31
0.0
  0
LINE
  8
0
  6
CONTINUOUS
 62
   110
  5
28
 10
0.0
 20
23.72023
 30
0.0
 11
0.0
 21
40.193787
 31
0.0
  0
LINE
  8
0
  6
CONTINUOUS
 62
   110
  5
29
 10
60.0
 20
31.0
 30
0.0
 11
60.0
 21
40.193787
 31
0.0
  0
INSERT
  8
0
  6
CONTINUOUS
 62
   110
  5
30
  2
_OPEN
 10
0.0
 20
39.0
 30
0.0
 41
2.19
 42
2.19
 50
180.0
 43
2.19
  0
INSERT
  8
0
  6
CONTINUOUS
 62
   110
  5
31
  2
_OPEN
 10
60.0
 20
39.0
 30
0.0
 41
2.19
 42
2.19
 43
2.19
  0
TEXT
  8
0
  6
CONTINUOUS
 62
   110
  5
33
 10
27.253998
 20
40.0
 30
0.0
 40
4.099999
  1
60
 41
1.017352
  7
MX_DIMTXSTY_2
 11
27.253998
 21
42.05
 31
0.0
 73
     2
  0
POINT
  8
DEFPOINTS
  6
CONTINUOUS
 62
     0
  5
34
 10
0.0
 20
23.72023
 30
0.0
  0
POINT
  8
DEFPOINTS
  6
CONTINUOUS
 62
     0
  5
35
 10
60.0
 20
31.0
 30
0.0
  0
POINT
  8
DEFPOINTS
  6
CONTINUOUS
 62
     0
  5
36
 10
60.0
 20
39.0
 30
0.0
  0
ENDBLK
  8
0
  6
BYBLOCK
 62
     0
  5
37
  0
BLOCK
  8
0
  6
BYBLOCK
 62
     0
  5
2B
  2
_OPEN
 70
     2
 10
0.0
 20
0.0
 30
0.0
  3
_OPEN
  0
LINE
  8
0
  6
BYBLOCK
 62
     0
  5
2C
 10
-1.0
 20
0.166667
 30
0.0
 11
0.0
 21
0.0
 31
0.0
  0
LINE
  8
0
  6
BYBLOCK
 62
     0
  5
2D
 10
0.0
 20
0.0
 30
0.0
 11
-1.0
 21
-0.166667
 31
0.0
  0
LINE
  8
0
  6
BYBLOCK
 62
     0
  5
2E
 10
0.0
 20
0.0
 30
0.0
 11
-1.0
 21
0.0
 31
0.0
  0
ENDBLK
  8
0
  6
BYBLOCK
 62
     0
  5
2F
  0
BLOCK
  8
0
  6
BYBLOCK
 62
     0
  5
3A
  2
*D3
 70
     1
 10
0.0
 20
0.0
 30
0.0
  3
*D3
  0
LINE
  8
0
  6
CONTINUOUS
 62
   110
  5
3B
 10
20.0
 20
-21.5
 30
0.0
 11
-19.0
 21
-21.5
 31
0.0
  0
LINE
  8
0
  6
CONTINUOUS
 62
   110
  5
3C
 10
20.0
 20
-8.5
 30
0.0
 11
20.0
 21
-22.693787
 31
0.0
  0
LINE
  8
0
  6
CONTINUOUS
 62
   110
  5
3D
 10
-19.0
 20
-8.5
 30
0.0
 11
-19.0
 21
-22.693787
 31
0.0
  0
INSERT
  8
0
  6
CONTINUOUS
 62
   110
  5
3E
  2
_OPEN
 10
20.0
 20
-21.5
 30
0.0
 41
2.19
 42
2.19
 43
2.19
  0
INSERT
  8
0
  6
CONTINUOUS
 62
   110
  5
3F
  2
_OPEN
 10
-19.0
 20
-21.5
 30
0.0
 41
2.19
 42
2.19
 50
180.0
 43
2.19
  0
TEXT
  8
0
  6
CONTINUOUS
 62
   110
  5
40
 10
-2.303934
 20
-20.5
 30
0.0
 40
4.099999
  1
39
 41
0.932572
  7
MX_DIMTXSTY_2
 11
-2.303934
 21
-18.45
 31
0.0
 73
     2
  0
POINT
  8
DEFPOINTS
  6
CONTINUOUS
 62
     0
  5
41
 10
20.0
 20
-8.5
 30
0.0
  0
POINT
  8
DEFPOINTS
  6
CONTINUOUS
 62
     0
  5
42
 10
-19.0
 20
-8.5
 30
0.0
  0
POINT
  8
DEFPOINTS
  6
CONTINUOUS
 62
     0
  5
43
 10
-19.0
 20
-21.5
 30
0.0
  0
ENDBLK
  8
0
  6
BYBLOCK
 62
     0
  5
44
  0
BLOCK
  8
0
  6
BYBLOCK
 62
     0
  5
47
  2
*D4
 70
     1
 10
0.0
 20
0.0
 30
0.0
  3
*D4
  0
LINE
  8
0
  6
CONTINUOUS
 62
   110
  5
48
 10
68.0
 20
31.0
 30
0.0
 11
68.0
 21
0.0
 31
0.0
  0
LINE
  8
0
  6
CONTINUOUS
 62
   110
  5
49
 10
60.0
 20
31.0
 30
0.0
 11
69.193787
 21
31.0
 31
0.0
  0
LINE
  8
0
  6
CONTINUOUS
 62
   110
  5
4A
 10
25.0
 20
0.0
 30
0.0
 11
69.193787
 21
0.0
 31
0.0
  0
INSERT
  8
0
  6
CONTINUOUS
 62
   110
  5
4B
  2
_OPEN
 10
68.0
 20
31.0
 30
0.0
 41
2.19
 42
2.19
 50
90.0
 43
2.19
  0
INSERT
  8
0
  6
CONTINUOUS
 62
   110
  5
4C
  2
_OPEN
 10
68.0
 20
0.0
 30
0.0
 41
2.19
 42
2.19
 50
270.0
 43
2.19
  0
TEXT
  8
0
  6
CONTINUOUS
 62
   110
  5
4D
 10
67.0
 20
12.747046
 30
0.0
 40
4.099999
  1
31
 50
90.0
 41
1.007178
  7
MX_NOTE_STANDARD
 11
64.95
 21
12.747046
 31
0.0
 73
     2
  0
POINT
  8
DEFPOINTS
  6
CONTINUOUS
 62
     0
  5
4E
 10
60.0
 20
31.0
 30
0.0
  0
POINT
  8
DEFPOINTS
  6
CONTINUOUS
 62
     0
  5
4F
 10
25.0
 20
0.0
 30
0.0
  0
POINT
  8
DEFPOINTS
  6
CONTINUOUS
 62
     0
  5
50
 10
68.0
 20
0.0
 30
0.0
  0
ENDBLK
  8
0
  6
BYBLOCK
 62
     0
  5
51
  0
ENDSEC
  0
SECTION
  2
ENTITIES
  0
DIMENSION
  8
LY_1
  6
CONTINUOUS
 62
   110
  5
38
  2
*D1
 10
60.0
 20
39.0
 30
0.0
 11
30.0
 21
39.0
 31
0.0
 70
   128
  1
<>
 13
0.0
 23
23.72023
 33
0.0
 14
60.0
 24
31.0
 34
0.0
  3
MXDIMSTYLE
1001
ACAD
1000
DSTYLE
1002
{
1070
     6
1000
_OPEN
1070
     7
1000
_OPEN
1070
    41
1040
2.19
1070
    44
1040
1.193787
1070
   140
1040
4.099999
1070
   271
1070
     0
1070
   284
1070
     8
1070
   340
1005
32
1070
   343
1005
2A
1070
   344
1005
2A
1002
}
  0
DIMENSION
  8
LY_1
  6
CONTINUOUS
 62
   110
  5
45
  2
*D3
 10
-19.0
 20
-21.5
 30
0.0
 11
0.5
 21
-21.5
 31
0.0
 70
   128
  1
<>
 13
20.0
 23
-8.5
 33
0.0
 14
-19.0
 24
-8.5
 34
0.0
  3
MXDIMSTYLE
1001
ACAD
1000
DSTYLE
1002
{
1070
     6
1000
_OPEN
1070
     7
1000
_OPEN
1070
    41
1040
2.19
1070
    44
1040
1.193787
1070
   140
1040
4.099999
1070
   271
1070
     0
1070
   284
1070
     8
1070
   340
1005
32
1070
   343
1005
2A
1070
   344
1005
2A
1002
}
  0
DIMENSION
  8
LY_1
  6
CONTINUOUS
 62
   110
  5
52
  2
*D4
 10
68.0
 20
0.0
 30
0.0
 11
68.0
 21
15.5
 31
0.0
 70
   128
  1
<>
 13
60.0
 23
31.0
 33
0.0
 14
25.0
 24
0.0
 34
0.0
 50
90.0
  3
MXDIMSTYLE
1001
ACAD
1000
DSTYLE
1002
{
1070
     6
1000
_OPEN
1070
     7
1000
_OPEN
1070
    41
1040
2.19
1070
    44
1040
1.193787
1070
   140
1040
4.099999
1070
   271
1070
     0
1070
   284
1070
     8
1070
   343
1005
2A
1070
   344
1005
2A
1002
}
  0
TEXT
  8
LY_1
  6
CONTINUOUS
 62
   110
  5
53
 10
-25.249358
 20
-57.59074
 30
0.0
 40
4.181479
  1
ＫＩＴＺ
 41
0.697038
  7
MX_NOTE_STANDARD
 11
-25.249358
 21
-55.5
 31
0.0
 73
     2
  0
TEXT
  8
LY_1
  6
CONTINUOUS
 62
   110
  5
54
 10
-25.172657
 20
-49.59074
 30
0.0
 40
4.181479
  1
ＦＩＧ   ＴＫ１／ ４
 41
0.807096
  7
MX_NOTE_STANDARD
 11
-25.172657
 21
-47.5
 31
0.0
 73
     2
  0
TEXT
  8
LY_1
  6
CONTINUOUS
 62
   110
  5
55
 10
-25.05467
 20
-41.59074
 30
0.0
 40
4.181479
  1
      BALL VALVE 1/4
 41
0.976395
  7
MX_NOTE_STANDARD
 11
-25.05467
 21
-39.5
 31
0.0
 73
     2
  0
TEXT
  8
LY_1
  6
CONTINUOUS
 62
   110
  5
56
 10
-25.199789
 20
-33.59074
 30
0.0
 40
4.181479
  1
ＮＡＭＥ  ＴＹＰＥ ６００ ＦＯＲＧＥＤ ＢＲＡＳＳ
 41
0.768164
  7
MX_NOTE_STANDARD
 11
-25.199789
 21
-31.5
 31
0.0
 73
     2
  0
CIRCLE
  8
LY_1
  6
CONTINUOUS
 62
     3
  5
57
 10
0.0
 20
70.0
 30
0.0
 40
4.599999
  0
ARC
  8
LY_1
  6
CONTINUOUS
 62
     3
  5
58
 10
33.534149
 20
71.087494
 30
0.0
 40
0.4125
 50
89.999982
 51
10.546505
  0
ARC
  8
LY_1
  6
CONTINUOUS
 62
     3
  5
59
 10
33.385651
 20
68.912506
 30
0.0
 40
0.4125
 50
128.11894
 51
270.000055
  0
ARC
  8
LY_1
  6
CONTINUOUS
 62
     3
  5
5A
 10
36.157639
 20
68.912506
 30
0.0
 40
0.4125
 50
270.000018
 51
89.999927
  0
ARC
  8
LY_1
  6
CONTINUOUS
 62
     3
  5
5B
 10
36.157639
 20
71.087494
 30
0.0
 40
0.4125
 50
308.118873
 51
89.999927
  0
ARC
  8
LY_1
  6
CONTINUOUS
 62
     3
  5
5C
 10
32.121628
 20
71.087494
 30
0.0
 40
0.4125
 50
270.000018
 51
89.999982
  0
ARC
  8
LY_1
  6
CONTINUOUS
 62
     3
  5
5D
 10
29.364838
 20
71.087494
 30
0.0
 40
0.4125
 50
89.999982
 51
10.546505
  0
ARC
  8
LY_1
  6
CONTINUOUS
 62
     3
  5
5E
 10
30.810684
 20
68.912506
 30
0.0
 40
0.4125
 50
180.000036
 51
0.000019
  0
ARC
  8
LY_1
  6
CONTINUOUS
 62
     3
  5
5F
 10
27.952347
 20
68.912506
 30
0.0
 40
0.4125
 50
180.000036
 51
0.000019
  0
ARC
  8
LY_1
  6
CONTINUOUS
 62
     3
  5
60
 10
27.952347
 20
71.087494
 30
0.0
 40
0.4125
 50
359.999964
 51
179.999964
  0
ARC
  8
LY_1
  6
CONTINUOUS
 62
     3
  5
61
 10
26.539856
 20
68.912506
 30
0.0
 40
0.4125
 50
235.167474
 51
359.999964
  0
ARC
  8
LY_1
  6
CONTINUOUS
 62
     3
  5
62
 10
26.539856
 20
68.912506
 30
0.0
 40
0.4125
 50
359.999964
 51
55.167346
  0
ARC
  8
LY_1
  6
CONTINUOUS
 62
     3
  5
63
 10
26.539856
 20
71.087494
 30
0.0
 40
0.4125
 50
214.83646
 51
124.832471
  0
ARC
  8
LY_1
  6
CONTINUOUS
 62
     3
  5
64
 10
23.842346
 20
68.912506
 30
0.0
 40
0.4125
 50
180.000036
 51
0.000019
  0
ARC
  8
LY_1
  6
CONTINUOUS
 62
     3
  5
65
 10
23.842346
 20
71.087494
 30
0.0
 40
0.4125
 50
359.999964
 51
179.999964
  0
ARC
  8
LY_1
  6
PHANTOM
 62
   110
  5
67
 10
3.0
 20
56.33873
 30
0.0
 40
4.895583
 50
232.207926
 51
316.528322
  0
ARC
  8
LY_1
  6
PHANTOM
 62
   110
  5
68
 10
-3.0
 20
48.601364
 30
0.0
 40
4.895583
 50
52.207934
 51
136.528323
  0
ARC
  8
LY_1
  6
CONTINUOUS
 62
     3
  5
69
 10
24.389053
 20
-4.25
 30
0.0
 40
11.68906
 50
163.856894
 51
196.143143
  0
ARC
  8
LY_1
  6
CONTINUOUS
 62
     3
  5
6A
 10
-23.389053
 20
-4.25
 30
0.0
 40
11.68906
 50
343.856875
 51
16.143125
  0
ARC
  8
LY_1
  6
CONTINUOUS
 62
     3
  5
6B
 10
24.389053
 20
4.25
 30
0.0
 40
11.68906
 50
163.856894
 51
196.143143
  0
ARC
  8
LY_1
  6
CONTINUOUS
 62
     3
  5
6C
 10
-23.389053
 20
4.25
 30
0.0
 40
11.68906
 50
343.856875
 51
16.143125
  0
ARC
  8
LY_1
  6
CONTINUOUS
 62
     3
  5
6D
 10
19.632919
 20
25.0
 30
0.0
 40
2.0
 50
90.000201
 51
165.000049
  0
ARC
  8
LY_1
  6
CONTINUOUS
 62
     3
  5
6E
 10
18.865601
 20
26.0
 30
0.0
 40
5.0
 50
89.999982
 51
164.999994
  0
CIRCLE
  8
LY_1
  6
CONTINUOUS
 62
     3
  5
6F
 10
0.0
 20
70.0
 30
0.0
 40
4.0
  0
CIRCLE
  8
LY_1
  6
CONTINUOUS
 62
     3
  5
70
 10
0.0
 20
70.0
 30
0.0
 40
2.5
  0
CIRCLE
  8
LY_1
  6
CONTINUOUS
 62
   110
  5
71
 10
0.0
 20
70.0
 30
0.0
 40
2.2
  0
ARC
  8
LY_1
  6
CONTINUOUS
 62
     3
  5
72
 10
0.0
 20
70.0
 30
0.0
 40
6.0
 50
179.999964
 51
270.000001
  0
ARC
  8
LY_1
  6
CONTINUOUS
 62
     3
  5
73
 10
-8.0
 20
73.0
 30
0.0
 40
3.0
 50
89.999982
 51
179.999964
  0
CIRCLE
  8
LY_1
  6
CONTINUOUS
 62
     3
  5
74
 10
90.065994
 20
0.0
 30
0.0
 40
5.7
  0
CIRCLE
  8
LY_1
  6
CONTINUOUS
 62
   110
  5
75
 10
90.065994
 20
0.0
 30
0.0
 40
6.55
  0
ARC
  8
LY_1
  6
CONTINUOUS
 62
     3
  5
76
 10
9.465346
 20
14.1
 30
0.0
 40
4.0
 50
270.000018
 51
345.0
  0
ARC
  8
LY_1
  6
CONTINUOUS
 62
     3
  5
77
 10
56.5
 20
67.728943
 30
0.0
 40
3.5
 50
274.004203
 51
0.0
  0
ARC
  8
LY_1
  6
CONTINUOUS
 62
     3
  5
78
 10
56.5
 20
72.271057
 30
0.0
 40
3.5
 50
0.0
 51
85.995797
  0
ARC
  8
LY_1
  6
CONTINUOUS
 62
     3
  5
79
 10
9.465346
 20
14.1
 30
0.0
 40
2.0
 50
270.000018
 51
345.0
  0
ARC
  8
LY_1
  6
PHANTOM
 62
   110
  5
7A
 10
3.0
 20
78.0
 30
0.0
 40
3.0
 50
0.000003
 51
89.999982
  0
ARC
  8
LY_1
  6
PHANTOM
 62
   110
  5
7B
 10
0.0
 20
70.0
 30
0.0
 40
6.0
 50
89.999982
 51
179.999964
  0
ARC
  8
LY_1
  6
CONTINUOUS
 62
     3
  5
7C
 10
0.0
 20
70.0
 30
0.0
 40
7.0
 50
179.999964
 51
211.002684
  0
ARC
  8
LY_1
  6
CONTINUOUS
 62
     3
  5
7D
 10
0.0
 20
70.0
 30
0.0
 40
11.5
 50
196.957429
 51
217.495261
  0
LINE
  8
LY_1
  6
CONTINUOUS
 62
     3
  5
7E
 10
33.939682
 20
71.162994
 30
0.0
 11
35.585632
 21
71.162994
 31
0.0
  0
LINE
  8
LY_1
  6
CONTINUOUS
 62
     3
  5
7F
 10
33.385651
 20
68.5
 30
0.0
 11
36.157639
 21
68.5
 31
0.0
  0
LINE
  8
LY_1
  6
CONTINUOUS
 62
     3
  5
80
 10
36.157639
 20
69.324997
 30
0.0
 11
34.579605
 21
69.324997
 31
0.0
  0
LINE
  8
LY_1
  6
CONTINUOUS
 62
     3
  5
81
 10
36.41219
 20
70.762952
 30
0.0
 11
34.579512
 21
69.324974
 31
0.0
  0
LINE
  8
LY_1
  6
CONTINUOUS
 62
     3
  5
82
 10
35.585544
 20
71.162958
 30
0.0
 11
33.130945
 21
69.237
 31
0.0
  0
LINE
  8
LY_1
  6
CONTINUOUS
 62
     3
  5
83
 10
33.534149
 20
71.5
 30
0.0
 11
36.157639
 21
71.5
 31
0.0
  0
LINE
  8
LY_1
  6
CONTINUOUS
 62
     3
  5
84
 10
29.77037
 20
71.162994
 30
0.0
 11
30.398193
 21
71.162994
 31
0.0
  0
LINE
  8
LY_1
  6
CONTINUOUS
 62
     3
  5
85
 10
31.223175
 20
70.675003
 30
0.0
 11
32.121628
 21
70.675003
 31
0.0
  0
LINE
  8
LY_1
  6
CONTINUOUS
 62
     3
  5
86
 10
31.223175
 20
70.675003
 30
0.0
 11
31.223175
 21
68.912506
 31
0.0
  0
LINE
  8
LY_1
  6
CONTINUOUS
 62
     3
  5
87
 10
30.398193
 20
71.162994
 30
0.0
 11
30.398193
 21
68.912506
 31
0.0
  0
LINE
  8
LY_1
  6
CONTINUOUS
 62
     3
  5
88
 10
27.539841
 20
68.912506
 30
0.0
 11
27.539841
 21
71.087494
 31
0.0
  0
LINE
  8
LY_1
  6
CONTINUOUS
 62
     3
  5
89
 10
28.364838
 20
71.087494
 30
0.0
 11
28.364838
 21
68.912506
 31
0.0
  0
LINE
  8
LY_1
  6
CONTINUOUS
 62
     3
  5
8A
 10
25.338142
 20
70.251232
 30
0.0
 11
26.201262
 21
70.851844
 31
0.0
  0
LINE
  8
LY_1
  6
CONTINUOUS
 62
     3
  5
8B
 10
25.338137
 20
70.251225
 30
0.0
 11
26.775457
 21
69.251049
 31
0.0
  0
LINE
  8
LY_1
  6
CONTINUOUS
 62
     3
  5
8C
 10
24.254861
 20
69.99997
 30
0.0
 11
26.30423
 21
71.426046
 31
0.0
  0
LINE
  8
LY_1
  6
CONTINUOUS
 62
     3
  5
8D
 10
24.254854
 20
69.999957
 30
0.0
 11
26.304222
 21
68.57388
 31
0.0
  0
LINE
  8
LY_1
  6
CONTINUOUS
 62
     3
  5
8E
 10
24.254852
 20
71.087494
 30
0.0
 11
24.254852
 21
68.912506
 31
0.0
  0
LINE
  8
LY_1
  6
CONTINUOUS
 62
     3
  5
8F
 10
23.429855
 20
71.087494
 30
0.0
 11
23.429855
 21
68.912506
 31
0.0
  0
LINE
  8
LY_1
  6
CONTINUOUS
 62
     3
  5
90
 10
29.364838
 20
71.5
 30
0.0
 11
32.121628
 21
71.5
 31
0.0
  0
LINE
  8
LY_1
  6
CONTINUOUS
 62
     3
  5
91
 10
-11.0
 20
70.0
 30
0.0
 11
-6.0
 21
70.0
 31
0.0
  0
LINE
  8
LY_1
  6
CONTINUOUS
 62
     3
  5
92
 10
13.5
 20
79.650011
 30
0.0
 11
12.83604
 21
78.500009
 31
0.0
  0
LINE
  8
LY_1
  6
CONTINUOUS
 62
     3
  5
93
 10
-12.499998
 20
79.650007
 30
0.0
 11
-11.836049
 21
78.499998
 31
0.0
  0
LINE
  8
LY_1
  6
CONTINUOUS
 62
     3
  5
94
 10
13.499999
 20
60.349996
 30
0.0
 11
12.836039
 21
61.499998
 31
0.0
  0
LINE
  8
LY_1
  6
CONTINUOUS
 62
     3
  5
95
 10
-12.5
 20
60.349991
 30
0.0
 11
-11.836051
 21
61.5
 31
0.0
  0
LINE
  8
LY_1
  6
CONTINUOUS
 62
     3
  5
96
 10
-12.5
 20
0.0
 30
0.0
 11
-19.0
 21
0.0
 31
0.0
  0
LINE
  8
LY_1
  6
CONTINUOUS
 62
     3
  5
97
 10
13.5
 20
0.0
 30
0.0
 11
20.0
 21
0.0
 31
0.0
  0
LINE
  8
LY_1
  6
CONTINUOUS
 62
     3
  5
98
 10
11.0
 20
75.53035
 30
0.0
 11
11.0
 21
64.814728
 31
0.0
  0
LINE
  8
LY_1
  6
CONTINUOUS
 62
     3
  5
99
 10
15.028963
 20
76.348907
 30
0.0
 11
15.028963
 21
63.609222
 31
0.0
  0
LINE
  8
LY_1
  6
CONTINUOUS
 62
     3
  5
9A
 10
85.565994
 20
10.1
 30
0.0
 11
85.565994
 21
8.5
 31
0.0
  0
LINE
  8
LY_1
  6
CONTINUOUS
 62
     3
  5
9B
 10
-6.0
 20
8.5
 30
0.0
 11
20.0
 21
8.5
 31
0.0
  0
LINE
  8
LY_1
  6
CONTINUOUS
 62
     3
  5
9C
 10
-11.0
 20
4.875637
 30
0.0
 11
-6.697365
 21
4.875637
 31
0.0
  0
LINE
  8
LY_1
  6
CONTINUOUS
 62
     3
  5
9D
 10
-9.124144
 20
12.5
 30
0.0
 11
-9.124144
 21
4.875637
 31
0.0
  0
LINE
  8
LY_1
  6
CONTINUOUS
 62
     3
  5
9E
 10
-11.0
 20
12.5
 30
0.0
 11
-11.0
 21
4.875637
 31
0.0
  0
LINE
  8
LY_1
  6
CONTINUOUS
 62
     3
  5
9F
 10
-6.0
 20
12.5
 30
0.0
 11
-6.0
 21
4.680645
 31
0.0
  0
LINE
  8
LY_1
  6
CONTINUOUS
 62
     3
  5
A0
 10
-11.0
 20
12.5
 30
0.0
 11
-6.0
 21
12.5
 31
0.0
  0
LINE
  8
LY_1
  6
CONTINUOUS
 62
     3
  5
A1
 10
0.0
 20
64.0
 30
0.0
 11
11.586988
 21
64.0
 31
0.0
  0
LINE
  8
LY_1
  6
CONTINUOUS
 62
     3
  5
A2
 10
-8.0
 20
76.0
 30
0.0
 11
11.586988
 21
76.0
 31
0.0
  0
LINE
  8
LY_1
  6
CONTINUOUS
 62
     3
  5
A3
 10
-11.0
 20
73.0
 30
0.0
 11
-11.0
 21
70.0
 31
0.0
  0
LINE
  8
LY_1
  6
CENTER
 62
   110
  5
A5
 10
75.550629
 20
0.0
 30
0.0
 11
104.880951
 21
0.0
 31
0.0
  0
LINE
  8
LY_1
  6
CENTER
 62
   110
  5
A6
 10
0.0
 20
23.72023
 30
0.0
 11
0.0
 21
-13.5
 31
0.0
  0
LINE
  8
LY_1
  6
CONTINUOUS
 62
     3
  5
A7
 10
84.065994
 20
31.0
 30
0.0
 11
84.065994
 21
10.1
 31
0.0
  0
LINE
  8
LY_1
  6
CONTINUOUS
 62
     3
  5
A8
 10
84.065994
 20
10.1
 30
0.0
 11
96.065994
 21
10.1
 31
0.0
  0
LINE
  8
LY_1
  6
CONTINUOUS
 62
     3
  5
A9
 10
-4.5
 20
9.6
 30
0.0
 11
4.5
 21
9.6
 31
0.0
  0
LINE
  8
LY_1
  6
CONTINUOUS
 62
     3
  5
AA
 10
4.5
 20
10.1
 30
0.0
 11
4.5
 21
8.5
 31
0.0
  0
LINE
  8
LY_1
  6
CONTINUOUS
 62
     3
  5
AB
 10
96.065994
 20
31.0
 30
0.0
 11
96.065994
 21
10.1
 31
0.0
  0
LINE
  8
LY_1
  6
CONTINUOUS
 62
     3
  5
AC
 10
84.065994
 20
17.119095
 30
0.0
 11
96.065994
 21
17.119095
 31
0.0
  0
LINE
  8
LY_1
  6
CONTINUOUS
 62
     3
  5
AD
 10
84.065994
 20
27.0
 30
0.0
 11
96.065994
 21
27.0
 31
0.0
  0
LINE
  8
LY_1
  6
CONTINUOUS
 62
     3
  5
AE
 10
84.065994
 20
31.0
 30
0.0
 11
96.065994
 21
31.0
 31
0.0
  0
LINE
  8
LY_1
  6
CENTER
 62
   110
  5
AF
 10
90.065994
 20
31.48172
 30
0.0
 11
90.065994
 21
-11.6831
 31
0.0
  0
LINE
  8
LY_1
  6
CONTINUOUS
 62
     3
  5
B0
 10
20.0
 20
63.0
 30
0.0
 11
20.0
 21
60.349991
 31
0.0
  0
LINE
  8
LY_1
  6
CONTINUOUS
 62
     3
  5
B1
 10
11.586988
 20
63.0
 30
0.0
 11
39.066208
 21
63.0
 31
0.0
  0
LINE
  8
LY_1
  6
CENTER
 62
   110
  5
B2
 10
-24.319366
 20
70.0
 30
0.0
 11
64.733627
 21
70.0
 31
0.0
  0
LINE
  8
LY_1
  6
CONTINUOUS
 62
     3
  5
B3
 10
11.586988
 20
77.0
 30
0.0
 11
11.586988
 21
63.0
 31
0.0
  0
LINE
  8
LY_1
  6
CONTINUOUS
 62
     3
  5
B4
 10
-2.309401
 20
16.599991
 30
0.0
 11
-2.309401
 21
13.4
 31
0.0
  0
LINE
  8
LY_1
  6
CONTINUOUS
 62
     3
  5
B5
 10
15.450688
 20
17.119084
 30
0.0
 11
11.586984
 21
18.154361
 31
0.0
  0
LINE
  8
LY_1
  6
CONTINUOUS
 62
     3
  5
B6
 10
15.450688
 20
17.119084
 30
0.0
 11
17.701075
 21
25.51764
 31
0.0
  0
LINE
  8
LY_1
  6
CONTINUOUS
 62
     3
  5
B7
 10
11.586984
 20
18.154361
 30
0.0
 11
14.035967
 21
27.294089
 31
0.0
  0
LINE
  8
LY_1
  6
CONTINUOUS
 62
     3
  5
B8
 10
60.0
 20
31.0
 30
0.0
 11
60.0
 21
27.0
 31
0.0
  0
LINE
  8
LY_1
  6
CONTINUOUS
 62
     3
  5
B9
 10
60.0
 20
72.271057
 30
0.0
 11
60.0
 21
67.728943
 31
0.0
  0
LINE
  8
LY_1
  6
CONTINUOUS
 62
     3
  5
BA
 10
13.32905
 20
13.064724
 30
0.0
 11
14.484763
 21
17.377903
 31
0.0
  0
LINE
  8
LY_1
  6
CONTINUOUS
 62
     3
  5
BB
 10
11.397197
 20
13.582362
 30
0.0
 11
12.55291
 21
17.895542
 31
0.0
  0
LINE
  8
LY_1
  6
CONTINUOUS
 62
     3
  5
BC
 10
19.632919
 20
27.0
 30
0.0
 11
60.0
 21
27.0
 31
0.0
  0
LINE
  8
LY_1
  6
CONTINUOUS
 62
     3
  5
BD
 10
18.865601
 20
31.0
 30
0.0
 11
60.0
 21
31.0
 31
0.0
  0
LINE
  8
LY_1
  6
CONTINUOUS
 62
     3
  5
BE
 10
39.066001
 20
62.999984
 30
0.0
 11
56.744406
 21
64.237471
 31
0.0
  0
LINE
  8
LY_1
  6
CONTINUOUS
 62
     3
  5
BF
 10
39.065997
 20
76.999992
 30
0.0
 11
56.744387
 21
75.762505
 31
0.0
  0
LINE
  8
LY_1
  6
CONTINUOUS
 62
     3
  5
C0
 10
11.586988
 20
77.0
 30
0.0
 11
39.065933
 21
77.0
 31
0.0
  0
LINE
  8
LY_1
  6
PHANTOM
 62
   110
  5
C1
 10
-6.0
 20
70.0
 30
0.0
 11
-6.0
 21
52.470047
 31
0.0
  0
LINE
  8
LY_1
  6
PHANTOM
 62
   110
  5
C2
 10
6.0
 20
78.0
 30
0.0
 11
6.0
 21
52.470047
 31
0.0
  0
LINE
  8
LY_1
  6
PHANTOM
 62
   110
  5
C3
 10
3.0
 20
81.0
 30
0.0
 11
0.0
 21
81.0
 31
0.0
  0
LINE
  8
LY_1
  6
CONTINUOUS
 62
     3
  5
C4
 10
-2.0
 20
68.5
 30
0.0
 11
2.0
 21
68.5
 31
0.0
  0
LINE
  8
LY_1
  6
CONTINUOUS
 62
     3
  5
C5
 10
-2.0
 20
71.5
 30
0.0
 11
2.0
 21
71.5
 31
0.0
  0
LINE
  8
LY_1
  6
CONTINUOUS
 62
     3
  5
C6
 10
2.309401
 20
66.0
 30
0.0
 11
-2.309401
 21
66.0
 31
0.0
  0
LINE
  8
LY_1
  6
CONTINUOUS
 62
     3
  5
C7
 10
-2.309402
 20
66.0
 30
0.0
 11
-4.618797
 21
69.999989
 31
0.0
  0
LINE
  8
LY_1
  6
CONTINUOUS
 62
     3
  5
C8
 10
-4.618801
 20
70.0
 30
0.0
 11
-2.309406
 21
73.999989
 31
0.0
  0
LINE
  8
LY_1
  6
CONTINUOUS
 62
     3
  5
C9
 10
-2.309401
 20
74.0
 30
0.0
 11
2.309401
 21
74.0
 31
0.0
  0
LINE
  8
LY_1
  6
CONTINUOUS
 62
     3
  5
CA
 10
2.309406
 20
73.999989
 30
0.0
 11
4.618801
 21
70.0
 31
0.0
  0
LINE
  8
LY_1
  6
CONTINUOUS
 62
     3
  5
CB
 10
4.618797
 20
69.999989
 30
0.0
 11
2.309402
 21
66.0
 31
0.0
  0
LINE
  8
LY_1
  6
CONTINUOUS
 62
     3
  5
CC
 10
-2.5
 20
16.699997
 30
0.0
 11
-2.5
 21
16.599991
 31
0.0
  0
LINE
  8
LY_1
  6
CONTINUOUS
 62
     3
  5
CD
 10
-4.599999
 20
16.599991
 30
0.0
 11
-4.599999
 21
12.1
 31
0.0
  0
LINE
  8
LY_1
  6
CONTINUOUS
 62
     3
  5
CE
 10
2.309401
 20
16.599991
 30
0.0
 11
2.309401
 21
13.4
 31
0.0
  0
LINE
  8
LY_1
  6
CONTINUOUS
 62
     3
  5
CF
 10
4.599999
 20
16.599991
 30
0.0
 11
4.599999
 21
12.1
 31
0.0
  0
LINE
  8
LY_1
  6
CONTINUOUS
 62
     3
  5
D0
 10
-4.5
 20
16.599991
 30
0.0
 11
4.599999
 21
16.599991
 31
0.0
  0
LINE
  8
LY_1
  6
CONTINUOUS
 62
     3
  5
D1
 10
-4.599999
 20
13.4
 30
0.0
 11
4.599999
 21
13.4
 31
0.0
  0
LINE
  8
LY_1
  6
CONTINUOUS
 62
     3
  5
D2
 10
-6.0
 20
12.1
 30
0.0
 11
9.465346
 21
12.1
 31
0.0
  0
LINE
  8
LY_1
  6
CONTINUOUS
 62
     3
  5
D3
 10
-4.5
 20
10.1
 30
0.0
 11
-4.5
 21
8.5
 31
0.0
  0
LINE
  8
LY_1
  6
CONTINUOUS
 62
     3
  5
D4
 10
-6.0
 20
10.1
 30
0.0
 11
9.465346
 21
10.1
 31
0.0
  0
LINE
  8
LY_1
  6
CONTINUOUS
 62
     3
  5
D5
 10
94.565994
 20
10.1
 30
0.0
 11
94.565994
 21
8.5
 31
0.0
  0
LINE
  8
LY_1
  6
CONTINUOUS
 62
     3
  5
D6
 10
85.565994
 20
9.6
 30
0.0
 11
94.565994
 21
9.6
 31
0.0
  0
LINE
  8
LY_1
  6
CONTINUOUS
 62
     3
  5
D7
 10
2.5
 20
16.699997
 30
0.0
 11
2.5
 21
16.599991
 31
0.0
  0
LINE
  8
LY_1
  6
CONTINUOUS
 62
     3
  5
D8
 10
-2.5
 20
16.699997
 30
0.0
 11
2.5
 21
16.699997
 31
0.0
  0
LINE
  8
LY_1
  6
CONTINUOUS
 62
     3
  5
D9
 10
-6.0
 20
66.39444
 30
0.0
 11
-6.0
 21
63.0
 31
0.0
  0
LINE
  8
LY_1
  6
CONTINUOUS
 62
     3
  5
DA
 10
-11.0
 20
70.0
 30
0.0
 11
-11.0
 21
66.645889
 31
0.0
  0
LINE
  8
LY_1
  6
CONTINUOUS
 62
     3
  5
DB
 10
-9.124144
 20
63.0
 30
0.0
 11
-6.0
 21
63.0
 31
0.0
  0
LINE
  8
LY_1
  6
CONTINUOUS
 62
     3
  5
DC
 10
83.065994
 20
12.5
 30
0.0
 11
83.065994
 21
4.875644
 31
0.0
  0
LINE
  8
LY_1
  6
CONTINUOUS
 62
     3
  5
DD
 10
83.065994
 20
12.5
 30
0.0
 11
84.065994
 21
12.5
 31
0.0
  0
LINE
  8
LY_1
  6
CONTINUOUS
 62
     3
  5
DE
 10
85.158524
 20
-8.5
 30
0.0
 11
94.97348
 21
-8.5
 31
0.0
  0
LINE
  8
LY_1
  6
CONTINUOUS
 62
     3
  5
DF
 10
-19.0
 20
8.5
 30
0.0
 11
-11.0
 21
8.5
 31
0.0
  0
LINE
  8
LY_1
  6
CONTINUOUS
 62
     3
  5
E0
 10
-19.0
 20
74.907471
 30
0.0
 11
-10.315503
 21
74.907471
 31
0.0
  0
LINE
  8
LY_1
  6
CONTINUOUS
 62
     3
  5
E1
 10
-19.0
 20
65.092514
 30
0.0
 11
-10.400316
 21
65.092514
 31
0.0
  0
LINE
  8
LY_1
  6
CONTINUOUS
 62
     3
  5
E2
 10
85.158524
 20
8.5
 30
0.0
 11
94.97348
 21
8.5
 31
0.0
  0
LINE
  8
LY_1
  6
CONTINUOUS
 62
     3
  5
E3
 10
85.158513
 20
-8.500002
 30
0.0
 11
80.251035
 21
0.0
 31
0.0
  0
LINE
  8
LY_1
  6
CONTINUOUS
 62
     3
  5
E4
 10
80.251035
 20
0.0
 30
0.0
 11
85.158513
 21
8.500002
 31
0.0
  0
LINE
  8
LY_1
  6
CONTINUOUS
 62
     3
  5
E5
 10
-12.5
 20
60.349991
 30
0.0
 11
-19.0
 21
60.349991
 31
0.0
  0
LINE
  8
LY_1
  6
CONTINUOUS
 62
     3
  5
E6
 10
-12.5
 20
79.649994
 30
0.0
 11
-19.0
 21
79.649994
 31
0.0
  0
LINE
  8
LY_1
  6
CONTINUOUS
 62
     3
  5
E7
 10
13.5
 20
60.349991
 30
0.0
 11
20.0
 21
60.349991
 31
0.0
  0
LINE
  8
LY_1
  6
CONTINUOUS
 62
     3
  5
E8
 10
13.5
 20
79.649994
 30
0.0
 11
20.0
 21
79.649994
 31
0.0
  0
LINE
  8
LY_1
  6
CONTINUOUS
 62
     3
  5
E9
 10
-19.0
 20
-8.5
 30
0.0
 11
20.0
 21
-8.5
 31
0.0
  0
LINE
  8
LY_1
  6
CONTINUOUS
 62
     3
  5
EA
 10
20.0
 20
8.5
 30
0.0
 11
20.0
 21
-8.5
 31
0.0
  0
LINE
  8
LY_1
  6
CONTINUOUS
 62
     3
  5
EB
 10
-19.0
 20
8.5
 30
0.0
 11
-19.0
 21
-8.5
 31
0.0
  0
LINE
  8
LY_1
  6
CONTINUOUS
 62
     3
  5
EC
 10
-11.836049
 20
61.5
 30
0.0
 11
12.836035
 21
61.5
 31
0.0
  0
LINE
  8
LY_1
  6
CONTINUOUS
 62
     3
  5
ED
 10
-19.0
 20
79.649994
 30
0.0
 11
-19.0
 21
60.349991
 31
0.0
  0
LINE
  8
LY_1
  6
CONTINUOUS
 62
     3
  5
EE
 10
20.0
 20
79.649994
 30
0.0
 11
20.0
 21
77.0
 31
0.0
  0
LINE
  8
LY_1
  6
CONTINUOUS
 62
     3
  5
EF
 10
-11.83605
 20
78.5
 30
0.0
 11
12.836038
 21
78.5
 31
0.0
  0
LINE
  8
LY_1
  6
CONTINUOUS
 62
     3
  5
F0
 10
94.973467
 20
8.5
 30
0.0
 11
99.880945
 21
-0.000002
 31
0.0
  0
LINE
  8
LY_1
  6
CONTINUOUS
 62
     3
  5
F1
 10
99.880945
 20
0.000002
 30
0.0
 11
94.973467
 21
-8.5
 31
0.0
  0
LINE
  8
LY_1
  6
CENTER
 62
   110
  5
F2
 10
-24.0
 20
0.0
 30
0.0
 11
25.0
 21
0.0
 31
0.0
  0
LINE
  8
LY_1
  6
CENTER
 62
   110
  5
F3
 10
0.0
 20
82.391571
 30
0.0
 11
0.0
 21
51.140076
 31
0.0
  0
ENDSEC
  0
EOF
