  0
SECTION
  2
HEADER
  9
$ACADVER
  1
AC1009
  9
$DWGCODEPAGE
  3
dos932
  9
$INSBASE
 10
0.0
 20
0.0
 30
0.0
  9
$EXTMIN
 10
-34.252818
 20
-60.87539
 30
0.0
  9
$EXTMAX
 10
137.123032
 20
95.578659
 30
0.0
  9
$LIMMIN
 10
-34.252818
 20
-60.87539
  9
$LIMMAX
 10
137.123032
 20
95.578659
  9
$ORTHOMODE
 70
     0
  9
$REGENMODE
 70
     1
  9
$FILLMODE
 70
     1
  9
$QTEXTMODE
 70
     0
  9
$MIRRTEXT
 70
     1
  9
$DRAGMODE
 70
     2
  9
$LTSCALE
 40
1.0
  9
$OSMODE
 70
     0
  9
$ATTMODE
 70
     1
  9
$TEXTSIZE
 40
3.3
  9
$TRACEWID
 40
0.05
  9
$TEXTSTYLE
  7
MX_NOTE_STANDARD
  9
$CLAYER
  8
LY_1
  9
$CELTYPE
  6
CONTINUOUS
  9
$CECOLOR
 62
   256
  9
$DIMSCALE
 40
1.0
  9
$DIMASZ
 40
2.5
  9
$DIMEXO
 40
0.0
  9
$DIMDLI
 40
3.75
  9
$DIMRND
 40
0.0
  9
$DIMDLE
 40
0.0
  9
$DIMEXE
 40
1.1938
  9
$DIMTP
 40
0.0
  9
$DIMTM
 40
0.0
  9
$DIMTXT
 40
3.3
  9
$DIMCEN
 40
2.5
  9
$DIMTSZ
 40
0.0
  9
$DIMTOL
 70
     0
  9
$DIMLIM
 70
     0
  9
$DIMTIH
 70
     0
  9
$DIMTOH
 70
     0
  9
$DIMSE1
 70
     0
  9
$DIMSE2
 70
     0
  9
$DIMTAD
 70
     1
  9
$DIMZIN
 70
     8
  9
$DIMBLK
  1

  9
$DIMASO
 70
     1
  9
$DIMSHO
 70
     1
  9
$DIMPOST
  1

  9
$DIMAPOST
  1

  9
$DIMALT
 70
     0
  9
$DIMALTD
 70
     4
  9
$DIMALTF
 40
0.03937
  9
$DIMLFAC
 40
1.0
  9
$DIMTOFL
 70
     1
  9
$DIMTVP
 40
0.0
  9
$DIMTIX
 70
     0
  9
$DIMSOXD
 70
     0
  9
$DIMSAH
 70
     1
  9
$DIMBLK1
  1
_OPEN30
  9
$DIMBLK2
  1
_OPEN30
  9
$DIMSTYLE
  2
MXDIMSTYLE
  9
$DIMCLRD
 70
     0
  9
$DIMCLRE
 70
     0
  9
$DIMCLRT
 70
     0
  9
$DIMTFAC
 40
1.0
  9
$DIMGAP
 40
1.0
  9
$LUNITS
 70
     2
  9
$LUPREC
 70
     4
  9
$AXISMODE
 70
     0
  9
$AXISUNIT
 10
0.0
 20
0.0
  9
$SKETCHINC
 40
0.1
  9
$FILLETRAD
 40
0.0
  9
$AUNITS
 70
     0
  9
$AUPREC
 70
     0
  9
$MENU
  1
acad
  9
$ELEVATION
 40
0.0
  9
$PELEVATION
 40
0.0
  9
$THICKNESS
 40
0.0
  9
$LIMCHECK
 70
     0
  9
$BLIPMODE
 70
     1
  9
$CHAMFERA
 40
0.0
  9
$CHAMFERB
 40
0.0
  9
$SKPOLY
 70
     0
  9
$TDCREATE
 40
2454901.551782407
  9
$TDUPDATE
 40
2454901.551782407
  9
$TDINDWG
 40
0.0000000000
  9
$TDUSRTIMER
 40
0.0000000000
  9
$USRTIMER
 70
     1
  9
$ANGBASE
 50
0.0
  9
$ANGDIR
 70
     0
  9
$PDMODE
 70
     0
  9
$PDSIZE
 40
0.0
  9
$PLINEWID
 40
0.0
  9
$COORDS
 70
     1
  9
$SPLFRAME
 70
     0
  9
$SPLINETYPE
 70
     6
  9
$SPLINESEGS
 70
     8
  9
$ATTDIA
 70
     0
  9
$ATTREQ
 70
     1
  9
$HANDLING
 70
     1
  9
$HANDSEED
  5
127
  9
$SURFTAB1
 70
     6
  9
$SURFTAB2
 70
     6
  9
$SURFTYPE
 70
     6
  9
$SURFU
 70
     6
  9
$SURFV
 70
     6
  9
$UCSNAME
  2

  9
$UCSORG
 10
0.0
 20
0.0
 30
0.0
  9
$UCSXDIR
 10
1.0
 20
0.0
 30
0.0
  9
$UCSYDIR
 10
0.0
 20
1.0
 30
0.0
  9
$PUCSNAME
  2

  9
$PUCSORG
 10
0.0
 20
0.0
 30
0.0
  9
$PUCSXDIR
 10
1.0
 20
0.0
 30
0.0
  9
$PUCSYDIR
 10
0.0
 20
1.0
 30
0.0
  9
$USERI1
 70
     0
  9
$USERI2
 70
     0
  9
$USERI3
 70
     0
  9
$USERI4
 70
     0
  9
$USERI5
 70
     0
  9
$USERR1
 40
0.0
  9
$USERR2
 40
0.0
  9
$USERR3
 40
0.0
  9
$USERR4
 40
0.0
  9
$USERR5
 40
0.0
  9
$WORLDVIEW
 70
     1
  9
$SHADEDGE
 70
     3
  9
$SHADEDIF
 70
    70
  9
$TILEMODE
 70
     1
  9
$MAXACTVP
 70
    16
  9
$PINSBASE
 10
0.0
 20
0.0
 30
0.0
  9
$PLIMCHECK
 70
     0
  9
$PEXTMIN
 10
1.000000E+20
 20
1.000000E+20
 30
1.000000E+20
  9
$PEXTMAX
 10
-1.000000E+20
 20
-1.000000E+20
 30
-1.000000E+20
  9
$PLIMMIN
 10
0.0
 20
0.0
  9
$PLIMMAX
 10
12.0
 20
9.0
  9
$UNITMODE
 70
     0
  9
$VISRETAIN
 70
     0
  9
$PLINEGEN
 70
     1
  9
$PSLTSCALE
 70
     0
  9
$TREEDEPTH
 70
  3020
  0
ENDSEC
  0
SECTION
  2
TABLES
  0
TABLE
  2
VPORT
 70
     1
  0
VPORT
  2
*ACTIVE
 70
     0
 10
0.0
 20
0.0
 11
1.0
 21
1.0
 12
51.435107
 22
17.351635
 13
0.0
 23
0.0
 14
1.0
 24
1.0
 15
0.0
 25
0.0
 16
0.0
 26
0.0
 36
1.0
 17
0.0
 27
0.0
 37
0.0
 40
158.01859
 41
1.732051
 42
50.0
 43
0.0
 44
0.0
 50
0.0
 51
0.0
 71
     0
 72
   100
 73
     1
 74
     1
 75
     0
 76
     0
 77
     0
 78
     0
  0
ENDTAB
  0
TABLE
  2
LTYPE
 70
     3
  0
LTYPE
  2
CONTINUOUS
 70
    64
  3
Solid line
 72
    65
 73
     0
 40
0.0
  0
LTYPE
  2
PHANTOM
 70
    64
  3
Phantom ______  __  __  ______  __  __  ______
 72
    65
 73
     6
 40
63.5
 49
31.75
 49
-6.35
 49
6.35
 49
-6.35
 49
6.35
 49
-6.35
  0
LTYPE
  2
CENTER
 70
    64
  3
Center ____ _ ____ _ ____ _ ____ _ ____ _ ____
 72
    65
 73
     4
 40
50.8
 49
31.75
 49
-6.35
 49
6.35
 49
-6.35
  0
ENDTAB
  0
TABLE
  2
LAYER
 70
     3
  0
LAYER
  2
0
 70
     0
 62
     7
  6
CONTINUOUS
  0
LAYER
  2
LY_1
 70
     0
 62
     7
  6
CONTINUOUS
  0
LAYER
  2
DEFPOINTS
 70
     0
 62
     7
  6
CONTINUOUS
  0
ENDTAB
  0
TABLE
  2
STYLE
 70
     2
  0
STYLE
  2
MX_NOTE_STANDARD
 70
     0
 40
0.0
 41
1.0
 50
0.0
 71
     0
 42
3.3
  3
txt.shx
  4
extfont.shx
  0
STYLE
  2
MX_DIMTXSTY_2
 70
     0
 40
0.0
 41
0.85
 50
0.0
 71
     0
 42
3.3
  3
txt.shx
  4
extfont.shx
  0
ENDTAB
  0
TABLE
  2
VIEW
 70
     0
  0
ENDTAB
  0
TABLE
  2
UCS
 70
     0
  0
ENDTAB
  0
TABLE
  2
APPID
 70
     1
  0
APPID
  2
ACAD
 70
     0
  0
ENDTAB
  0
TABLE
  2
DIMSTYLE
 70
     1
  0
DIMSTYLE
  2
MXDIMSTYLE
 70
     0
  3

  4

  5

  6
_OPEN30
  7
_OPEN30
 40
1.0
 41
2.5
 42
0.0
 43
3.75
 44
1.1938
 45
0.0
 46
0.0
 47
0.0
 48
0.0
 71
     0
 72
     0
 73
     0
 74
     0
 75
     0
 76
     0
 77
     1
 78
     8
140
3.3
141
2.5
142
0.0
143
0.03937
144
1.0
145
0.0
146
1.0
147
1.0
170
     0
171
     4
172
     1
173
     1
174
     0
175
     0
176
     0
177
     0
178
     0
  0
ENDTAB
  0
ENDSEC
  0
SECTION
  2
BLOCKS
  0
BLOCK
  8
0
  6
BYBLOCK
 62
     0
  5
20
  2
_OPEN30
 70
     2
 10
0.0
 20
0.0
 30
0.0
  3
_OPEN30
  0
LINE
  8
0
  6
BYBLOCK
 62
     0
  5
21
 10
-1.0
 20
0.267949
 30
0.0
 11
0.0
 21
0.0
 31
0.0
  0
LINE
  8
0
  6
BYBLOCK
 62
     0
  5
22
 10
0.0
 20
0.0
 30
0.0
 11
-1.0
 21
-0.267949
 31
0.0
  0
LINE
  8
0
  6
BYBLOCK
 62
     0
  5
23
 10
0.0
 20
0.0
 30
0.0
 11
-1.0
 21
0.0
 31
0.0
  0
ENDBLK
  8
0
  6
BYBLOCK
 62
     0
  5
24
  0
BLOCK
  8
0
  6
BYBLOCK
 62
     0
  5
26
  2
*D1
 70
     1
 10
0.0
 20
0.0
 30
0.0
  3
*D1
  0
LINE
  8
0
  6
CONTINUOUS
 62
   110
  5
27
 10
0.0
 20
49.0
 30
0.0
 11
85.0
 21
49.0
 31
0.0
  0
LINE
  8
0
  6
CONTINUOUS
 62
   110
  5
28
 10
0.0
 20
29.946335
 30
0.0
 11
0.0
 21
50.193787
 31
0.0
  0
LINE
  8
0
  6
CONTINUOUS
 62
   110
  5
29
 10
85.0
 20
41.0
 30
0.0
 11
85.0
 21
50.193787
 31
0.0
  0
INSERT
  8
0
  6
CONTINUOUS
 62
   110
  5
30
  2
_OPEN
 10
0.0
 20
49.0
 30
0.0
 41
2.19
 42
2.19
 50
180.0
 43
2.19
  0
INSERT
  8
0
  6
CONTINUOUS
 62
   110
  5
31
  2
_OPEN
 10
85.0
 20
49.0
 30
0.0
 41
2.19
 42
2.19
 43
2.19
  0
TEXT
  8
0
  6
CONTINUOUS
 62
   110
  5
33
 10
39.733552
 20
50.0
 30
0.0
 40
4.099999
  1
85
 41
0.98743
  7
MX_DIMTXSTY_2
 11
39.733552
 21
52.05
 31
0.0
 73
     2
  0
POINT
  8
DEFPOINTS
  6
CONTINUOUS
 62
     0
  5
34
 10
0.0
 20
29.946335
 30
0.0
  0
POINT
  8
DEFPOINTS
  6
CONTINUOUS
 62
     0
  5
35
 10
85.0
 20
41.0
 30
0.0
  0
POINT
  8
DEFPOINTS
  6
CONTINUOUS
 62
     0
  5
36
 10
85.0
 20
49.0
 30
0.0
  0
ENDBLK
  8
0
  6
BYBLOCK
 62
     0
  5
37
  0
BLOCK
  8
0
  6
BYBLOCK
 62
     0
  5
2B
  2
_OPEN
 70
     2
 10
0.0
 20
0.0
 30
0.0
  3
_OPEN
  0
LINE
  8
0
  6
BYBLOCK
 62
     0
  5
2C
 10
-1.0
 20
0.166667
 30
0.0
 11
0.0
 21
0.0
 31
0.0
  0
LINE
  8
0
  6
BYBLOCK
 62
     0
  5
2D
 10
0.0
 20
0.0
 30
0.0
 11
-1.0
 21
-0.166667
 31
0.0
  0
LINE
  8
0
  6
BYBLOCK
 62
     0
  5
2E
 10
0.0
 20
0.0
 30
0.0
 11
-1.0
 21
0.0
 31
0.0
  0
ENDBLK
  8
0
  6
BYBLOCK
 62
     0
  5
2F
  0
BLOCK
  8
0
  6
BYBLOCK
 62
     0
  5
3A
  2
*D3
 70
     1
 10
0.0
 20
0.0
 30
0.0
  3
*D3
  0
LINE
  8
0
  6
CONTINUOUS
 62
   110
  5
3B
 10
93.0
 20
41.0
 30
0.0
 11
93.0
 21
0.0
 31
0.0
  0
LINE
  8
0
  6
CONTINUOUS
 62
   110
  5
3C
 10
85.0
 20
41.0
 30
0.0
 11
94.193787
 21
41.0
 31
0.0
  0
LINE
  8
0
  6
CONTINUOUS
 62
   110
  5
3D
 10
34.0
 20
0.0
 30
0.0
 11
94.193787
 21
0.0
 31
0.0
  0
INSERT
  8
0
  6
CONTINUOUS
 62
   110
  5
3E
  2
_OPEN
 10
93.0
 20
41.0
 30
0.0
 41
2.19
 42
2.19
 50
90.0
 43
2.19
  0
INSERT
  8
0
  6
CONTINUOUS
 62
   110
  5
3F
  2
_OPEN
 10
93.0
 20
0.0
 30
0.0
 41
2.19
 42
2.19
 50
270.0
 43
2.19
  0
TEXT
  8
0
  6
CONTINUOUS
 62
   110
  5
40
 10
92.0
 20
17.747046
 30
0.0
 40
4.099999
  1
41
 50
90.0
 41
1.007178
  7
MX_NOTE_STANDARD
 11
89.95
 21
17.747046
 31
0.0
 73
     2
  0
POINT
  8
DEFPOINTS
  6
CONTINUOUS
 62
     0
  5
41
 10
85.0
 20
41.0
 30
0.0
  0
POINT
  8
DEFPOINTS
  6
CONTINUOUS
 62
     0
  5
42
 10
34.0
 20
0.0
 30
0.0
  0
POINT
  8
DEFPOINTS
  6
CONTINUOUS
 62
     0
  5
43
 10
93.0
 20
0.0
 30
0.0
  0
ENDBLK
  8
0
  6
BYBLOCK
 62
     0
  5
44
  0
BLOCK
  8
0
  6
BYBLOCK
 62
     0
  5
47
  2
*D4
 70
     1
 10
0.0
 20
0.0
 30
0.0
  3
*D4
  0
LINE
  8
0
  6
CONTINUOUS
 62
   110
  5
48
 10
29.0
 20
-23.75
 30
0.0
 11
-27.500015
 21
-23.75
 31
0.0
  0
LINE
  8
0
  6
CONTINUOUS
 62
   110
  5
49
 10
29.0
 20
-12.5
 30
0.0
 11
29.0
 21
-24.943802
 31
0.0
  0
LINE
  8
0
  6
CONTINUOUS
 62
   110
  5
4A
 10
-27.500015
 20
-12.5
 30
0.0
 11
-27.500015
 21
-24.943802
 31
0.0
  0
INSERT
  8
0
  6
CONTINUOUS
 62
   110
  5
4B
  2
_OPEN
 10
29.0
 20
-23.75
 30
0.0
 41
2.19
 42
2.19
 43
2.19
  0
INSERT
  8
0
  6
CONTINUOUS
 62
   110
  5
4C
  2
_OPEN
 10
-27.500015
 20
-23.75
 30
0.0
 41
2.19
 42
2.19
 50
180.0
 43
2.19
  0
TEXT
  8
0
  6
CONTINUOUS
 62
   110
  5
4D
 10
-5.444161
 20
-22.75
 30
0.0
 40
4.099999
  1
56.5
 41
1.007178
  7
MX_NOTE_STANDARD
 11
-5.444161
 21
-20.7
 31
0.0
 73
     2
  0
POINT
  8
DEFPOINTS
  6
CONTINUOUS
 62
     0
  5
4E
 10
29.0
 20
-12.5
 30
0.0
  0
POINT
  8
DEFPOINTS
  6
CONTINUOUS
 62
     0
  5
4F
 10
-27.500015
 20
-12.5
 30
0.0
  0
POINT
  8
DEFPOINTS
  6
CONTINUOUS
 62
     0
  5
50
 10
-27.500015
 20
-23.75
 30
0.0
  0
ENDBLK
  8
0
  6
BYBLOCK
 62
     0
  5
51
  0
ENDSEC
  0
SECTION
  2
ENTITIES
  0
DIMENSION
  8
LY_1
  6
CONTINUOUS
 62
   110
  5
38
  2
*D1
 10
85.0
 20
49.0
 30
0.0
 11
42.5
 21
49.0
 31
0.0
 70
   128
  1
<>
 13
0.0
 23
29.946335
 33
0.0
 14
85.0
 24
41.0
 34
0.0
  3
MXDIMSTYLE
1001
ACAD
1000
DSTYLE
1002
{
1070
     6
1000
_OPEN
1070
     7
1000
_OPEN
1070
    41
1040
2.19
1070
    44
1040
1.193787
1070
   140
1040
4.099999
1070
   271
1070
     0
1070
   284
1070
     8
1070
   340
1005
32
1070
   343
1005
2A
1070
   344
1005
2A
1002
}
  0
DIMENSION
  8
LY_1
  6
CONTINUOUS
 62
   110
  5
45
  2
*D3
 10
93.0
 20
0.0
 30
0.0
 11
93.0
 21
20.5
 31
0.0
 70
   128
  1
<>
 13
85.0
 23
41.0
 33
0.0
 14
34.0
 24
0.0
 34
0.0
 50
90.0
  3
MXDIMSTYLE
1001
ACAD
1000
DSTYLE
1002
{
1070
     6
1000
_OPEN
1070
     7
1000
_OPEN
1070
    41
1040
2.19
1070
    44
1040
1.193787
1070
   140
1040
4.099999
1070
   271
1070
     0
1070
   284
1070
     8
1070
   343
1005
2A
1070
   344
1005
2A
1002
}
  0
DIMENSION
  8
LY_1
  6
CONTINUOUS
 62
   110
  5
52
  2
*D4
 10
-27.500015
 20
-23.75
 30
0.0
 11
0.749985
 21
-23.75
 31
0.0
 70
   128
  1
<>
 13
29.0
 23
-12.5
 33
0.0
 14
-27.500015
 24
-12.5
 34
0.0
  3
MXDIMSTYLE
1001
ACAD
1000
DSTYLE
1002
{
1070
     6
1000
_OPEN
1070
     7
1000
_OPEN
1070
    41
1040
2.19
1070
   140
1040
4.099999
1070
   271
1070
     1
1070
   284
1070
     8
1070
   343
1005
2A
1070
   344
1005
2A
1002
}
  0
TEXT
  8
LY_1
  6
CONTINUOUS
 62
   110
  5
53
 10
-33.616895
 20
-59.84074
 30
0.0
 40
4.181479
  1
KITZ
 41
0.912486
  7
MX_NOTE_STANDARD
 11
-33.616895
 21
-57.75
 31
0.0
 73
     2
  0
TEXT
  8
LY_1
  6
CONTINUOUS
 62
   110
  5
54
 10
-33.550749
 20
-51.84074
 30
0.0
 40
4.181479
  1
FIG   TK1/2
 41
1.007398
  7
MX_NOTE_STANDARD
 11
-33.550749
 21
-49.75
 31
0.0
 73
     2
  0
TEXT
  8
LY_1
  6
CONTINUOUS
 62
   110
  5
55
 10
-33.572355
 20
-43.84074
 30
0.0
 40
4.181479
  1
      BALL VALVE 1/2
 41
0.976395
  7
MX_NOTE_STANDARD
 11
-33.572355
 21
-41.75
 31
0.0
 73
     2
  0
TEXT
  8
LY_1
  6
CONTINUOUS
 62
   110
  5
56
 10
-33.614746
 20
-35.84074
 30
0.0
 40
4.181479
  1
NAME  TYPE 600 FORGED BRASS
 41
0.915569
  7
MX_NOTE_STANDARD
 11
-33.614746
 21
-33.75
 31
0.0
 73
     2
  0
ARC
  8
LY_1
  6
PHANTOM
 62
   110
  5
58
 10
4.0
 20
70.222839
 30
0.0
 40
8.26566
 50
241.05761
 51
307.33374
  0
ARC
  8
LY_1
  6
PHANTOM
 62
   110
  5
59
 10
-4.0
 20
55.756165
 30
0.0
 40
8.26566
 50
61.057629
 51
127.333741
  0
ARC
  8
LY_1
  6
CONTINUOUS
 62
     3
  5
5A
 10
44.014038
 20
-6.249997
 30
0.0
 40
24.814041
 50
167.7854
 51
192.214583
  0
ARC
  8
LY_1
  6
CONTINUOUS
 62
     3
  5
5B
 10
44.014038
 20
6.249997
 30
0.0
 40
24.814041
 50
167.7854
 51
192.214583
  0
ARC
  8
LY_1
  6
CONTINUOUS
 62
     3
  5
5C
 10
-42.514038
 20
-6.249997
 30
0.0
 40
24.814041
 50
347.785399
 51
12.214588
  0
ARC
  8
LY_1
  6
CONTINUOUS
 62
     3
  5
5D
 10
-42.514038
 20
6.249997
 30
0.0
 40
24.814041
 50
347.785412
 51
12.214591
  0
ARC
  8
LY_1
  6
CONTINUOUS
 62
     3
  5
5E
 10
24.240616
 20
35.0
 30
0.0
 40
6.0
 50
89.999927
 51
164.999994
  0
ARC
  8
LY_1
  6
CONTINUOUS
 62
     3
  5
5F
 10
24.240616
 20
35.0
 30
0.0
 40
2.0
 50
89.999818
 51
164.99994
  0
ARC
  8
LY_1
  6
PHANTOM
 62
   110
  5
60
 10
3.0
 20
90.499985
 30
0.0
 40
3.0
 50
359.999982
 51
90.000037
  0
ARC
  8
LY_1
  6
PHANTOM
 62
   110
  5
61
 10
9.0
 20
86.324539
 30
0.0
 40
3.0
 50
180.000036
 51
215.096826
  0
ARC
  8
LY_1
  6
PHANTOM
 62
   110
  5
62
 10
0.0
 20
79.999985
 30
0.0
 40
8.0
 50
359.999982
 51
35.096828
  0
ARC
  8
LY_1
  6
PHANTOM
 62
   110
  5
63
 10
0.0
 20
79.999985
 30
0.0
 40
8.0
 50
89.999982
 51
180.000019
  0
ARC
  8
LY_1
  6
CONTINUOUS
 62
     3
  5
64
 10
52.16687
 20
81.739975
 30
0.0
 40
0.66
 50
89.999982
 51
10.546505
  0
ARC
  8
LY_1
  6
CONTINUOUS
 62
     3
  5
65
 10
51.929276
 20
78.259995
 30
0.0
 40
0.66
 50
128.11894
 51
270.000055
  0
ARC
  8
LY_1
  6
CONTINUOUS
 62
     3
  5
66
 10
56.364456
 20
78.259995
 30
0.0
 40
0.66
 50
270.000018
 51
89.999927
  0
ARC
  8
LY_1
  6
CONTINUOUS
 62
     3
  5
67
 10
56.364456
 20
81.739975
 30
0.0
 40
0.66
 50
308.118873
 51
89.999927
  0
ARC
  8
LY_1
  6
CONTINUOUS
 62
     3
  5
68
 10
49.90683
 20
81.739975
 30
0.0
 40
0.66
 50
270.000018
 51
89.999982
  0
ARC
  8
LY_1
  6
CONTINUOUS
 62
     3
  5
69
 10
45.495972
 20
81.739975
 30
0.0
 40
0.66
 50
89.999982
 51
10.546505
  0
ARC
  8
LY_1
  6
CONTINUOUS
 62
     3
  5
6A
 10
47.809326
 20
78.259995
 30
0.0
 40
0.66
 50
180.000036
 51
0.000019
  0
ARC
  8
LY_1
  6
CONTINUOUS
 62
     3
  5
6B
 10
43.235992
 20
78.259995
 30
0.0
 40
0.66
 50
180.000036
 51
0.000019
  0
ARC
  8
LY_1
  6
CONTINUOUS
 62
     3
  5
6C
 10
43.235992
 20
81.739975
 30
0.0
 40
0.66
 50
359.999964
 51
179.999964
  0
ARC
  8
LY_1
  6
CONTINUOUS
 62
     3
  5
6D
 10
40.975998
 20
78.259995
 30
0.0
 40
0.66
 50
235.167474
 51
359.999964
  0
ARC
  8
LY_1
  6
CONTINUOUS
 62
     3
  5
6E
 10
40.975998
 20
78.259995
 30
0.0
 40
0.66
 50
359.999964
 51
55.167346
  0
ARC
  8
LY_1
  6
CONTINUOUS
 62
     3
  5
6F
 10
40.975998
 20
81.739975
 30
0.0
 40
0.66
 50
214.83646
 51
124.832471
  0
ARC
  8
LY_1
  6
CONTINUOUS
 62
     3
  5
70
 10
36.659988
 20
78.259995
 30
0.0
 40
0.66
 50
180.000036
 51
0.000019
  0
ARC
  8
LY_1
  6
CONTINUOUS
 62
     3
  5
71
 10
36.659988
 20
81.739975
 30
0.0
 40
0.66
 50
359.999964
 51
179.999964
  0
ARC
  8
LY_1
  6
CONTINUOUS
 62
     3
  5
72
 10
0.0
 20
79.999985
 30
0.0
 40
3.5
 50
225.584718
 51
314.415307
  0
ARC
  8
LY_1
  6
CONTINUOUS
 62
     3
  5
73
 10
0.0
 20
79.999985
 30
0.0
 40
3.5
 50
45.584693
 51
134.415282
  0
ARC
  8
LY_1
  6
CONTINUOUS
 62
   110
  5
74
 10
0.0
 20
79.999985
 30
0.0
 40
4.0
 50
218.682184
 51
321.317811
  0
ARC
  8
LY_1
  6
CONTINUOUS
 62
   110
  5
75
 10
0.0
 20
79.999985
 30
0.0
 40
4.0
 50
38.682189
 51
141.317816
  0
ARC
  8
LY_1
  6
CONTINUOUS
 62
   110
  5
76
 10
0.0
 20
79.999985
 30
0.0
 40
3.5
 50
314.415307
 51
0.0
  0
ARC
  8
LY_1
  6
CONTINUOUS
 62
   110
  5
77
 10
0.0
 20
79.999985
 30
0.0
 40
3.5
 50
134.415282
 51
225.584647
  0
ARC
  8
LY_1
  6
CONTINUOUS
 62
   110
  5
78
 10
0.0
 20
79.999985
 30
0.0
 40
3.5
 50
0.0
 51
45.584693
  0
ARC
  8
LY_1
  6
CONTINUOUS
 62
     3
  5
79
 10
111.5
 20
17.0
 30
0.0
 40
0.5
 50
89.999982
 51
179.999964
  0
CIRCLE
  8
LY_1
  6
CONTINUOUS
 62
   110
  5
7A
 10
120.0
 20
0.0
 30
0.0
 40
10.4775
  0
CIRCLE
  8
LY_1
  6
CONTINUOUS
 62
     3
  5
7B
 10
120.0
 20
0.0
 30
0.0
 40
9.315499
  0
ARC
  8
LY_1
  6
CONTINUOUS
 62
     3
  5
7C
 10
-6.0
 20
9.997554
 30
0.0
 40
2.0
 50
179.999981
 51
215.677666
  0
CIRCLE
  8
LY_1
  6
CONTINUOUS
 62
     3
  5
7D
 10
0.0
 20
79.999985
 30
0.0
 40
6.25
  0
ARC
  8
LY_1
  6
CONTINUOUS
 62
     3
  5
7E
 10
-10.499995
 20
82.999985
 30
0.0
 40
3.0
 50
89.999982
 51
180.000019
  0
ARC
  8
LY_1
  6
CONTINUOUS
 62
     3
  5
7F
 10
-6.324554
 20
88.999985
 30
0.0
 40
3.0
 50
270.000018
 51
305.096802
  0
ARC
  8
LY_1
  6
CONTINUOUS
 62
     3
  5
80
 10
0.0
 20
79.999985
 30
0.0
 40
8.0
 50
89.999982
 51
125.096827
  0
ARC
  8
LY_1
  6
CONTINUOUS
 62
     3
  5
81
 10
0.0
 20
79.999985
 30
0.0
 40
8.0
 50
179.999981
 51
270.000018
  0
ARC
  8
LY_1
  6
CONTINUOUS
 62
     3
  5
82
 10
81.0
 20
77.034943
 30
0.0
 40
3.7
 50
273.999995
 51
359.999974
  0
ARC
  8
LY_1
  6
CONTINUOUS
 62
     3
  5
83
 10
81.0
 20
82.964539
 30
0.0
 40
3.7
 50
359.999965
 51
86.000005
  0
ARC
  8
LY_1
  6
CONTINUOUS
 62
     3
  5
84
 10
0.0
 20
79.999985
 30
0.0
 40
4.05
 50
321.881937
 51
38.118063
  0
ARC
  8
LY_1
  6
CONTINUOUS
 62
     3
  5
85
 10
0.0
 20
79.999985
 30
0.0
 40
4.05
 50
141.881935
 51
218.118048
  0
ARC
  8
LY_1
  6
CONTINUOUS
 62
     3
  5
86
 10
12.465363
 20
18.100006
 30
0.0
 40
4.0
 50
270.000018
 51
345.000003
  0
ARC
  8
LY_1
  6
CONTINUOUS
 62
     3
  5
87
 10
12.465363
 20
18.100006
 30
0.0
 40
2.0
 50
270.000018
 51
345.000006
  0
ARC
  8
LY_1
  6
CONTINUOUS
 62
     3
  5
88
 10
-8.499995
 20
71.499985
 30
0.0
 40
0.5
 50
270.000018
 51
0.0
  0
ARC
  8
LY_1
  6
CONTINUOUS
 62
     3
  5
89
 10
0.0
 20
79.999985
 30
0.0
 40
14.5
 50
201.40339
 51
218.36652
  0
ARC
  8
LY_1
  6
CONTINUOUS
 62
     3
  5
8A
 10
0.0
 20
79.999985
 30
0.0
 40
9.0
 50
180.000036
 51
207.266096
  0
ARC
  8
LY_1
  6
CONTINUOUS
 62
     3
  5
8B
 10
-6.19281
 20
67.249985
 30
0.0
 40
2.0
 50
89.999927
 51
145.771099
  0
ARC
  8
LY_1
  6
CONTINUOUS
 62
     3
  5
8C
 10
-9.499995
 20
69.499985
 30
0.0
 40
2.0
 50
270.000018
 51
325.844464
  0
ARC
  8
LY_1
  6
CONTINUOUS
 62
     3
  5
8D
 10
-6.19281
 20
92.749985
 30
0.0
 40
2.0
 50
214.228901
 51
270.000073
  0
ARC
  8
LY_1
  6
CONTINUOUS
 62
     3
  5
8E
 10
-9.499995
 20
90.499985
 30
0.0
 40
2.0
 50
34.155536
 51
89.999982
  0
ARC
  8
LY_1
  6
CONTINUOUS
 62
     3
  5
8F
 10
3.19281
 20
67.249985
 30
0.0
 40
2.0
 50
34.228871
 51
89.999982
  0
ARC
  8
LY_1
  6
CONTINUOUS
 62
     3
  5
90
 10
6.500015
 20
69.499985
 30
0.0
 40
2.0
 50
214.228737
 51
270.000018
  0
ARC
  8
LY_1
  6
CONTINUOUS
 62
     3
  5
91
 10
3.19281
 20
92.749985
 30
0.0
 40
2.0
 50
270.000018
 51
325.771129
  0
ARC
  8
LY_1
  6
CONTINUOUS
 62
     3
  5
92
 10
6.500015
 20
90.499985
 30
0.0
 40
2.0
 50
89.999982
 51
145.771263
  0
ARC
  8
LY_1
  6
CONTINUOUS
 62
     3
  5
93
 10
18.556641
 20
93.499985
 30
0.0
 40
1.0
 50
269.99969
 51
329.999822
  0
ARC
  8
LY_1
  6
CONTINUOUS
 62
     3
  5
94
 10
18.55661
 20
66.499985
 30
0.0
 40
1.0
 50
30.000045
 51
90.000037
  0
ARC
  8
LY_1
  6
CONTINUOUS
 62
     3
  5
95
 10
-17.056625
 20
66.499985
 30
0.0
 40
1.0
 50
89.999763
 51
149.999861
  0
ARC
  8
LY_1
  6
CONTINUOUS
 62
     3
  5
96
 10
-17.056625
 20
93.499985
 30
0.0
 40
1.0
 50
210.000139
 51
270.000237
  0
ARC
  8
LY_1
  6
CONTINUOUS
 62
     3
  5
97
 10
3.19281
 20
-12.75
 30
0.0
 40
2.0
 50
34.228865
 51
89.999982
  0
ARC
  8
LY_1
  6
CONTINUOUS
 62
     3
  5
98
 10
6.500015
 20
-10.5
 30
0.0
 40
2.0
 50
179.999981
 51
270.000018
  0
ARC
  8
LY_1
  6
CONTINUOUS
 62
     3
  5
99
 10
-6.19281
 20
-12.75
 30
0.0
 40
2.0
 50
89.999927
 51
145.771099
  0
ARC
  8
LY_1
  6
CONTINUOUS
 62
     3
  5
9A
 10
-9.499995
 20
-10.5
 30
0.0
 40
2.0
 50
270.000018
 51
0.0
  0
LINE
  8
LY_1
  6
CONTINUOUS
 62
     3
  5
9B
 10
-3.122498
 20
24.699997
 30
0.0
 11
-3.122498
 21
22.100006
 31
0.0
  0
LINE
  8
LY_1
  6
CONTINUOUS
 62
     3
  5
9C
 10
3.122498
 20
24.699997
 30
0.0
 11
3.122498
 21
22.100006
 31
0.0
  0
LINE
  8
LY_1
  6
PHANTOM
 62
   110
  5
9D
 10
-8.0
 20
62.989502
 30
0.0
 11
-8.0
 21
79.999985
 31
0.0
  0
LINE
  8
LY_1
  6
PHANTOM
 62
   110
  5
9E
 10
6.0
 20
90.499985
 30
0.0
 11
6.0
 21
86.324539
 31
0.0
  0
LINE
  8
LY_1
  6
PHANTOM
 62
   110
  5
9F
 10
3.0
 20
93.499985
 30
0.0
 11
0.0
 21
93.499985
 31
0.0
  0
LINE
  8
LY_1
  6
PHANTOM
 62
   110
  5
A0
 10
8.0
 20
79.999985
 30
0.0
 11
8.0
 21
63.12352
 31
0.0
  0
LINE
  8
LY_1
  6
CONTINUOUS
 62
     3
  5
A1
 10
113.499985
 20
15.395991
 30
0.0
 11
113.499985
 21
14.395991
 31
0.0
  0
LINE
  8
LY_1
  6
CONTINUOUS
 62
     3
  5
A2
 10
115.162292
 20
12.499995
 30
0.0
 11
115.162292
 21
14.395991
 31
0.0
  0
LINE
  8
LY_1
  6
CONTINUOUS
 62
     3
  5
A3
 10
111.999985
 20
41.0
 30
0.0
 11
111.999985
 21
15.395991
 31
0.0
  0
LINE
  8
LY_1
  6
CONTINUOUS
 62
     3
  5
A4
 10
126.500015
 20
15.395991
 30
0.0
 11
126.500015
 21
14.395991
 31
0.0
  0
LINE
  8
LY_1
  6
CONTINUOUS
 62
     3
  5
A5
 10
112.0
 20
15.395991
 30
0.0
 11
128.000015
 21
15.395991
 31
0.0
  0
LINE
  8
LY_1
  6
CONTINUOUS
 62
     3
  5
A6
 10
128.000015
 20
41.0
 30
0.0
 11
128.000015
 21
15.395991
 31
0.0
  0
LINE
  8
LY_1
  6
CONTINUOUS
 62
     3
  5
A7
 10
124.837708
 20
12.499995
 30
0.0
 11
124.837708
 21
14.395991
 31
0.0
  0
LINE
  8
LY_1
  6
CONTINUOUS
 62
     3
  5
A8
 10
113.5
 20
14.395991
 30
0.0
 11
126.500015
 21
14.395991
 31
0.0
  0
LINE
  8
LY_1
  6
CONTINUOUS
 62
     3
  5
A9
 10
52.81572
 20
81.860779
 30
0.0
 11
55.449249
 21
81.860779
 31
0.0
  0
LINE
  8
LY_1
  6
CONTINUOUS
 62
     3
  5
AA
 10
51.929276
 20
77.599991
 30
0.0
 11
56.364456
 21
77.599991
 31
0.0
  0
LINE
  8
LY_1
  6
CONTINUOUS
 62
     3
  5
AB
 10
56.364456
 20
78.919983
 30
0.0
 11
53.8396
 21
78.919983
 31
0.0
  0
LINE
  8
LY_1
  6
CONTINUOUS
 62
     3
  5
AC
 10
56.771733
 20
81.220712
 30
0.0
 11
53.839448
 21
78.919947
 31
0.0
  0
LINE
  8
LY_1
  6
CONTINUOUS
 62
     3
  5
AD
 10
55.4491
 20
81.86073
 30
0.0
 11
51.521732
 21
78.779191
 31
0.0
  0
LINE
  8
LY_1
  6
CONTINUOUS
 62
     3
  5
AE
 10
52.16687
 20
82.399979
 30
0.0
 11
56.364456
 21
82.399979
 31
0.0
  0
LINE
  8
LY_1
  6
CONTINUOUS
 62
     3
  5
AF
 10
46.144821
 20
81.860779
 30
0.0
 11
47.149338
 21
81.860779
 31
0.0
  0
LINE
  8
LY_1
  6
CONTINUOUS
 62
     3
  5
B0
 10
48.469315
 20
81.079987
 30
0.0
 11
49.90683
 21
81.079987
 31
0.0
  0
LINE
  8
LY_1
  6
CONTINUOUS
 62
     3
  5
B1
 10
48.469315
 20
81.079987
 30
0.0
 11
48.469315
 21
78.259995
 31
0.0
  0
LINE
  8
LY_1
  6
CONTINUOUS
 62
     3
  5
B2
 10
47.149338
 20
81.860779
 30
0.0
 11
47.149338
 21
78.259995
 31
0.0
  0
LINE
  8
LY_1
  6
CONTINUOUS
 62
     3
  5
B3
 10
42.575974
 20
78.259995
 30
0.0
 11
42.575974
 21
81.739975
 31
0.0
  0
LINE
  8
LY_1
  6
CONTINUOUS
 62
     3
  5
B4
 10
43.895966
 20
81.739975
 30
0.0
 11
43.895966
 21
78.259995
 31
0.0
  0
LINE
  8
LY_1
  6
CONTINUOUS
 62
     3
  5
B5
 10
39.053266
 20
80.401952
 30
0.0
 11
40.434262
 21
81.362934
 31
0.0
  0
LINE
  8
LY_1
  6
CONTINUOUS
 62
     3
  5
B6
 10
39.053246
 20
80.40194
 30
0.0
 11
41.352952
 21
78.801663
 31
0.0
  0
LINE
  8
LY_1
  6
CONTINUOUS
 62
     3
  5
B7
 10
37.319992
 20
79.999926
 30
0.0
 11
40.598994
 21
82.281657
 31
0.0
  0
LINE
  8
LY_1
  6
CONTINUOUS
 62
     3
  5
B8
 10
37.319996
 20
79.999912
 30
0.0
 11
40.59899
 21
77.718187
 31
0.0
  0
LINE
  8
LY_1
  6
CONTINUOUS
 62
     3
  5
B9
 10
37.319992
 20
81.739975
 30
0.0
 11
37.319992
 21
78.259995
 31
0.0
  0
LINE
  8
LY_1
  6
CONTINUOUS
 62
     3
  5
BA
 10
36.0
 20
81.739975
 30
0.0
 11
36.0
 21
78.259995
 31
0.0
  0
LINE
  8
LY_1
  6
CONTINUOUS
 62
     3
  5
BB
 10
45.495972
 20
82.399979
 30
0.0
 11
49.90683
 21
82.399979
 31
0.0
  0
LINE
  8
LY_1
  6
CONTINUOUS
 62
     3
  5
BC
 10
128.000015
 20
18.221298
 30
0.0
 11
111.999985
 21
18.221298
 31
0.0
  0
LINE
  8
LY_1
  6
CONTINUOUS
 62
     3
  5
BD
 10
6.500015
 20
13.499995
 30
0.0
 11
6.500015
 21
12.499995
 31
0.0
  0
LINE
  8
LY_1
  6
CONTINUOUS
 62
     3
  5
BE
 10
-7.999995
 20
13.499995
 30
0.0
 11
8.000015
 21
13.499995
 31
0.0
  0
LINE
  8
LY_1
  6
CONTINUOUS
 62
     3
  5
BF
 10
12.465363
 20
14.100001
 30
0.0
 11
-7.999995
 21
14.100001
 31
0.0
  0
LINE
  8
LY_1
  6
CONTINUOUS
 62
     3
  5
C0
 10
8.000015
 20
14.100001
 30
0.0
 11
8.000015
 21
13.499995
 31
0.0
  0
LINE
  8
LY_1
  6
CONTINUOUS
 62
     3
  5
C1
 10
85.0
 20
37.0
 30
0.0
 11
24.240616
 21
37.0
 31
0.0
  0
LINE
  8
LY_1
  6
CONTINUOUS
 62
     3
  5
C2
 10
85.0
 20
41.0
 30
0.0
 11
85.0
 21
37.0
 31
0.0
  0
LINE
  8
LY_1
  6
CONTINUOUS
 62
     3
  5
C3
 10
13.810516
 20
19.256577
 30
0.0
 11
18.445054
 21
36.552908
 31
0.0
  0
LINE
  8
LY_1
  6
CONTINUOUS
 62
     3
  5
C4
 10
17.67422
 20
18.221301
 30
0.0
 11
22.308757
 21
35.517631
 31
0.0
  0
LINE
  8
LY_1
  6
CONTINUOUS
 62
     3
  5
C5
 10
85.0
 20
41.0
 30
0.0
 11
24.240616
 21
41.0
 31
0.0
  0
LINE
  8
LY_1
  6
CONTINUOUS
 62
     3
  5
C6
 10
-4.0
 20
24.699997
 30
0.0
 11
-4.0
 21
22.100006
 31
0.0
  0
LINE
  8
LY_1
  6
CONTINUOUS
 62
     3
  5
C7
 10
4.0
 20
24.699997
 30
0.0
 11
4.0
 21
22.100006
 31
0.0
  0
LINE
  8
LY_1
  6
CONTINUOUS
 62
     3
  5
C8
 10
-7.5
 20
22.100006
 30
0.0
 11
7.500015
 21
22.100006
 31
0.0
  0
LINE
  8
LY_1
  6
CONTINUOUS
 62
     3
  5
C9
 10
-7.700012
 20
18.100006
 30
0.0
 11
-7.700012
 21
16.100006
 31
0.0
  0
LINE
  8
LY_1
  6
CONTINUOUS
 62
     3
  5
CA
 10
7.699997
 20
18.100006
 30
0.0
 11
7.699997
 21
16.100006
 31
0.0
  0
LINE
  8
LY_1
  6
CONTINUOUS
 62
     3
  5
CB
 10
-7.700012
 20
18.100006
 30
0.0
 11
7.699997
 21
18.100006
 31
0.0
  0
LINE
  8
LY_1
  6
CONTINUOUS
 62
     3
  5
CC
 10
29.0
 20
0.0
 30
0.0
 11
20.0
 21
0.0
 31
0.0
  0
LINE
  8
LY_1
  6
CONTINUOUS
 62
     3
  5
CD
 10
-27.500015
 20
0.0
 30
0.0
 11
-18.5
 21
0.0
 31
0.0
  0
LINE
  8
LY_1
  6
CENTER
 62
   110
  5
CF
 10
102.264359
 20
0.0
 30
0.0
 11
137.123032
 21
0.0
 31
0.0
  0
LINE
  8
LY_1
  6
CENTER
 62
   110
  5
D0
 10
120.0
 20
43.009491
 30
0.0
 11
120.0
 21
-15.533337
 31
0.0
  0
LINE
  8
LY_1
  6
CENTER
 62
   110
  5
D1
 10
-32.500015
 20
0.0
 30
0.0
 11
34.0
 21
0.0
 31
0.0
  0
LINE
  8
LY_1
  6
CENTER
 62
   110
  5
D2
 10
0.0
 20
29.946335
 30
0.0
 11
0.0
 21
-14.817753
 31
0.0
  0
LINE
  8
LY_1
  6
CENTER
 62
   110
  5
D3
 10
-33.14296
 20
79.999985
 30
0.0
 11
91.545364
 21
79.999985
 31
0.0
  0
LINE
  8
LY_1
  6
CENTER
 62
   110
  5
D4
 10
0.0
 20
95.578659
 30
0.0
 11
0.0
 21
59.960953
 31
0.0
  0
LINE
  8
LY_1
  6
CONTINUOUS
 62
     3
  5
D5
 10
111.999985
 20
41.0
 30
0.0
 11
128.000015
 21
41.0
 31
0.0
  0
LINE
  8
LY_1
  6
CONTINUOUS
 62
     3
  5
D6
 10
111.999985
 20
37.0
 30
0.0
 11
128.000015
 21
37.0
 31
0.0
  0
LINE
  8
LY_1
  6
CONTINUOUS
 62
     3
  5
D7
 10
111.0
 20
17.0
 30
0.0
 11
111.0
 21
9.411555
 31
0.0
  0
LINE
  8
LY_1
  6
CONTINUOUS
 62
     3
  5
D8
 10
111.5
 20
17.5
 30
0.0
 11
112.0
 21
17.5
 31
0.0
  0
LINE
  8
LY_1
  6
CONTINUOUS
 62
     3
  5
D9
 10
127.216897
 20
12.499995
 30
0.0
 11
134.433747
 21
0.000043
 31
0.0
  0
LINE
  8
LY_1
  6
CONTINUOUS
 62
     3
  5
DA
 10
134.433745
 20
0.000046
 30
0.0
 11
127.216843
 21
-12.499998
 31
0.0
  0
LINE
  8
LY_1
  6
CONTINUOUS
 62
     3
  5
DB
 10
112.783066
 20
12.499995
 30
0.0
 11
127.216904
 21
12.499995
 31
0.0
  0
LINE
  8
LY_1
  6
CONTINUOUS
 62
     3
  5
DC
 10
112.783127
 20
-12.5
 30
0.0
 11
127.216858
 21
-12.5
 31
0.0
  0
LINE
  8
LY_1
  6
CONTINUOUS
 62
     3
  5
DD
 10
105.566216
 20
0.000048
 30
0.0
 11
112.783065
 21
12.5
 31
0.0
  0
LINE
  8
LY_1
  6
CONTINUOUS
 62
     3
  5
DE
 10
112.78312
 20
-12.500003
 30
0.0
 11
105.566218
 21
0.000041
 31
0.0
  0
LINE
  8
LY_1
  6
CONTINUOUS
 62
     3
  5
DF
 10
6.500015
 20
12.499995
 30
0.0
 11
29.0
 21
12.499995
 31
0.0
  0
LINE
  8
LY_1
  6
CONTINUOUS
 62
     3
  5
E0
 10
-13.499995
 20
8.674678
 30
0.0
 11
-7.699997
 21
8.674678
 31
0.0
  0
LINE
  8
LY_1
  6
CONTINUOUS
 62
     3
  5
E1
 10
-7.999995
 20
17.5
 30
0.0
 11
-7.999995
 21
9.997554
 31
0.0
  0
LINE
  8
LY_1
  6
CONTINUOUS
 62
     3
  5
E2
 10
3.752762
 20
22.100006
 30
0.0
 11
3.752762
 21
18.100006
 31
0.0
  0
LINE
  8
LY_1
  6
CONTINUOUS
 62
     3
  5
E3
 10
-3.752777
 20
22.100006
 30
0.0
 11
-3.752777
 21
18.100006
 31
0.0
  0
LINE
  8
LY_1
  6
CONTINUOUS
 62
     3
  5
E4
 10
-7.5
 20
22.100006
 30
0.0
 11
-7.5
 21
18.100006
 31
0.0
  0
LINE
  8
LY_1
  6
CONTINUOUS
 62
     3
  5
E5
 10
7.500015
 20
22.100006
 30
0.0
 11
7.500015
 21
18.100006
 31
0.0
  0
LINE
  8
LY_1
  6
CONTINUOUS
 62
     3
  5
E6
 10
-11.368815
 20
17.5
 30
0.0
 11
-11.368815
 21
8.874675
 31
0.0
  0
LINE
  8
LY_1
  6
CONTINUOUS
 62
     3
  5
E7
 10
-13.499995
 20
17.5
 30
0.0
 11
-13.499995
 21
8.674678
 31
0.0
  0
LINE
  8
LY_1
  6
CONTINUOUS
 62
     3
  5
E8
 10
4.5
 20
9.733363
 30
0.0
 11
4.5
 21
-10.5
 31
0.0
  0
LINE
  8
LY_1
  6
CONTINUOUS
 62
     3
  5
E9
 10
-7.5
 20
8.474681
 30
0.0
 11
-7.5
 21
-10.5
 31
0.0
  0
LINE
  8
LY_1
  6
CONTINUOUS
 62
     3
  5
EA
 10
-7.505531
 20
79.99999
 30
0.0
 11
-3.752754
 21
73.49999
 31
0.0
  0
LINE
  8
LY_1
  6
CONTINUOUS
 62
     3
  5
EB
 10
-3.75278
 20
86.499962
 30
0.0
 11
-7.505542
 21
79.999987
 31
0.0
  0
LINE
  8
LY_1
  6
CONTINUOUS
 62
     3
  5
EC
 10
3.752776
 20
86.499985
 30
0.0
 11
-3.752763
 21
86.499985
 31
0.0
  0
LINE
  8
LY_1
  6
CONTINUOUS
 62
     3
  5
ED
 10
7.505542
 20
79.999987
 30
0.0
 11
3.752772
 21
86.499975
 31
0.0
  0
LINE
  8
LY_1
  6
CONTINUOUS
 62
     3
  5
EE
 10
3.752747
 20
73.499976
 30
0.0
 11
7.505524
 21
79.999977
 31
0.0
  0
LINE
  8
LY_1
  6
CONTINUOUS
 62
     3
  5
EF
 10
-3.752747
 20
73.499985
 30
0.0
 11
3.752762
 21
73.499985
 31
0.0
  0
LINE
  8
LY_1
  6
CONTINUOUS
 62
     3
  5
F0
 10
-3.122498
 20
82.499985
 30
0.0
 11
3.122498
 21
82.499985
 31
0.0
  0
LINE
  8
LY_1
  6
CONTINUOUS
 62
     3
  5
F1
 10
-3.122498
 20
77.499985
 30
0.0
 11
3.122498
 21
77.499985
 31
0.0
  0
LINE
  8
LY_1
  6
CONTINUOUS
 62
     3
  5
F2
 10
81.258056
 20
86.655984
 30
0.0
 11
54.0486
 21
88.698506
 31
0.0
  0
LINE
  8
LY_1
  6
CONTINUOUS
 62
     3
  5
F3
 10
16.0
 20
71.999985
 30
0.0
 11
0.0
 21
71.999985
 31
0.0
  0
LINE
  8
LY_1
  6
CONTINUOUS
 62
     3
  5
F4
 10
29.0
 20
88.699982
 30
0.0
 11
29.0
 21
93.999985
 31
0.0
  0
LINE
  8
LY_1
  6
CONTINUOUS
 62
     3
  5
F5
 10
19.894882
 20
88.348312
 30
0.0
 11
19.894882
 21
71.862289
 31
0.0
  0
LINE
  8
LY_1
  6
CONTINUOUS
 62
     3
  5
F6
 10
14.0
 20
87.012573
 30
0.0
 11
14.0
 21
73.112411
 31
0.0
  0
LINE
  8
LY_1
  6
CONTINUOUS
 62
     3
  5
F7
 10
-10.499995
 20
85.999985
 30
0.0
 11
-6.324554
 21
85.999985
 31
0.0
  0
LINE
  8
LY_1
  6
CONTINUOUS
 62
     3
  5
F8
 10
-13.499995
 20
82.999985
 30
0.0
 11
-13.499995
 21
79.999985
 31
0.0
  0
LINE
  8
LY_1
  6
CONTINUOUS
 62
     3
  5
F9
 10
-13.499995
 20
79.999985
 30
0.0
 11
-7.999995
 21
79.999985
 31
0.0
  0
LINE
  8
LY_1
  6
CONTINUOUS
 62
     3
  5
FA
 10
16.0
 20
88.699982
 30
0.0
 11
16.0
 21
71.299973
 31
0.0
  0
LINE
  8
LY_1
  6
CONTINUOUS
 62
     3
  5
FB
 10
81.258107
 20
73.344041
 30
0.0
 11
54.048652
 21
71.301518
 31
0.0
  0
LINE
  8
LY_1
  6
CONTINUOUS
 62
     3
  5
FC
 10
84.699997
 20
79.999985
 30
0.0
 11
84.699997
 21
77.034943
 31
0.0
  0
LINE
  8
LY_1
  6
CONTINUOUS
 62
     3
  5
FD
 10
84.699997
 20
82.964539
 30
0.0
 11
84.699997
 21
79.999985
 31
0.0
  0
LINE
  8
LY_1
  6
CONTINUOUS
 62
     3
  5
FE
 10
16.0
 20
88.699982
 30
0.0
 11
54.028946
 21
88.699982
 31
0.0
  0
LINE
  8
LY_1
  6
CONTINUOUS
 62
     3
  5
FF
 10
54.02803
 20
71.299973
 30
0.0
 11
16.0
 21
71.299973
 31
0.0
  0
LINE
  8
LY_1
  6
CONTINUOUS
 62
     3
  5
100
 10
0.0
 20
87.999985
 30
0.0
 11
16.0
 21
87.999985
 31
0.0
  0
LINE
  8
LY_1
  6
CONTINUOUS
 62
     3
  5
101
 10
-7.999995
 20
16.100006
 30
0.0
 11
12.465363
 21
16.100006
 31
0.0
  0
LINE
  8
LY_1
  6
CONTINUOUS
 62
     3
  5
102
 10
17.67422
 20
18.221301
 30
0.0
 11
13.810516
 21
19.256577
 31
0.0
  0
LINE
  8
LY_1
  6
CONTINUOUS
 62
     3
  5
103
 10
16.329038
 20
17.064718
 30
0.0
 11
16.708294
 21
18.48012
 31
0.0
  0
LINE
  8
LY_1
  6
CONTINUOUS
 62
     3
  5
104
 10
14.397186
 20
17.582356
 30
0.0
 11
14.776442
 21
18.997758
 31
0.0
  0
LINE
  8
LY_1
  6
CONTINUOUS
 62
     3
  5
105
 10
-6.5
 20
13.499995
 30
0.0
 11
-6.5
 21
12.499995
 31
0.0
  0
LINE
  8
LY_1
  6
CONTINUOUS
 62
     3
  5
106
 10
-7.999995
 20
12.499995
 30
0.0
 11
6.500015
 21
12.499995
 31
0.0
  0
LINE
  8
LY_1
  6
CONTINUOUS
 62
     3
  5
107
 10
-4.0
 20
24.699997
 30
0.0
 11
4.0
 21
24.699997
 31
0.0
  0
LINE
  8
LY_1
  6
CONTINUOUS
 62
     3
  5
108
 10
-13.499995
 20
17.5
 30
0.0
 11
-7.999995
 21
17.5
 31
0.0
  0
LINE
  8
LY_1
  6
CONTINUOUS
 62
     3
  5
109
 10
-4.924133
 20
73.694992
 30
0.0
 11
-7.999995
 21
73.694992
 31
0.0
  0
LINE
  8
LY_1
  6
CONTINUOUS
 62
     3
  5
10A
 10
-13.057445
 20
73.694992
 30
0.0
 11
-27.500015
 21
73.694992
 31
0.0
  0
LINE
  8
LY_1
  6
CONTINUOUS
 62
     3
  5
10B
 10
-27.500015
 20
86.304977
 30
0.0
 11
-4.924133
 21
86.304977
 31
0.0
  0
LINE
  8
LY_1
  6
CONTINUOUS
 62
     3
  5
10C
 10
-11.368815
 20
70.999985
 30
0.0
 11
-8.499995
 21
70.999985
 31
0.0
  0
LINE
  8
LY_1
  6
CONTINUOUS
 62
     3
  5
10D
 10
-13.499995
 20
79.999985
 30
0.0
 11
-13.499995
 21
74.708481
 31
0.0
  0
LINE
  8
LY_1
  6
CONTINUOUS
 62
     3
  5
10E
 10
-7.999995
 20
75.876877
 30
0.0
 11
-7.999995
 21
71.499985
 31
0.0
  0
LINE
  8
LY_1
  6
CONTINUOUS
 62
     3
  5
10F
 10
-17.056625
 20
67.499985
 30
0.0
 11
-9.499995
 21
67.499985
 31
0.0
  0
LINE
  8
LY_1
  6
CONTINUOUS
 62
     3
  5
110
 10
-17.056625
 20
92.499985
 30
0.0
 11
-9.499995
 21
92.499985
 31
0.0
  0
LINE
  8
LY_1
  6
CONTINUOUS
 62
     3
  5
111
 10
3.19281
 20
69.249985
 30
0.0
 11
-6.19281
 21
69.249985
 31
0.0
  0
LINE
  8
LY_1
  6
CONTINUOUS
 62
     3
  5
112
 10
-6.19281
 20
90.749985
 30
0.0
 11
3.19281
 21
90.749985
 31
0.0
  0
LINE
  8
LY_1
  6
CONTINUOUS
 62
     3
  5
113
 10
19.999985
 20
66.0
 30
0.0
 11
19.42263
 21
67.000007
 31
0.0
  0
LINE
  8
LY_1
  6
CONTINUOUS
 62
     3
  5
114
 10
19.422682
 20
92.999987
 30
0.0
 11
20.000021
 21
93.999968
 31
0.0
  0
LINE
  8
LY_1
  6
CONTINUOUS
 62
     3
  5
115
 10
6.500015
 20
67.499985
 30
0.0
 11
18.55661
 21
67.499985
 31
0.0
  0
LINE
  8
LY_1
  6
CONTINUOUS
 62
     3
  5
116
 10
6.500015
 20
92.499985
 30
0.0
 11
18.556641
 21
92.499985
 31
0.0
  0
LINE
  8
LY_1
  6
CONTINUOUS
 62
     3
  5
117
 10
20.0
 20
65.999985
 30
0.0
 11
29.0
 21
65.999985
 31
0.0
  0
LINE
  8
LY_1
  6
CONTINUOUS
 62
     3
  5
118
 10
20.0
 20
93.999985
 30
0.0
 11
29.0
 21
93.999985
 31
0.0
  0
LINE
  8
LY_1
  6
CONTINUOUS
 62
     3
  5
119
 10
29.0
 20
65.999985
 30
0.0
 11
29.0
 21
71.299973
 31
0.0
  0
LINE
  8
LY_1
  6
CONTINUOUS
 62
     3
  5
11A
 10
-17.922635
 20
66.999992
 30
0.0
 11
-18.499981
 21
65.999998
 31
0.0
  0
LINE
  8
LY_1
  6
CONTINUOUS
 62
     3
  5
11B
 10
-18.50002
 20
94.000004
 30
0.0
 11
-17.922666
 21
92.999997
 31
0.0
  0
LINE
  8
LY_1
  6
CONTINUOUS
 62
     3
  5
11C
 10
-27.500015
 20
65.999985
 30
0.0
 11
-18.5
 21
65.999985
 31
0.0
  0
LINE
  8
LY_1
  6
CONTINUOUS
 62
     3
  5
11D
 10
-27.500015
 20
93.999985
 30
0.0
 11
-18.5
 21
93.999985
 31
0.0
  0
LINE
  8
LY_1
  6
CONTINUOUS
 62
     3
  5
11E
 10
-27.500015
 20
93.999985
 30
0.0
 11
-27.500015
 21
65.999985
 31
0.0
  0
LINE
  8
LY_1
  6
CONTINUOUS
 62
     3
  5
11F
 10
-27.500015
 20
12.499995
 30
0.0
 11
-13.499995
 21
12.499995
 31
0.0
  0
LINE
  8
LY_1
  6
CONTINUOUS
 62
     3
  5
120
 10
29.0
 20
-12.5
 30
0.0
 11
6.500015
 21
-12.5
 31
0.0
  0
LINE
  8
LY_1
  6
CONTINUOUS
 62
     3
  5
121
 10
-6.19281
 20
-10.75
 30
0.0
 11
3.19281
 21
-10.75
 31
0.0
  0
LINE
  8
LY_1
  6
CONTINUOUS
 62
     3
  5
122
 10
-27.500015
 20
12.499995
 30
0.0
 11
-27.500015
 21
-12.5
 31
0.0
  0
LINE
  8
LY_1
  6
CONTINUOUS
 62
     3
  5
123
 10
29.0
 20
12.499995
 30
0.0
 11
29.0
 21
-12.5
 31
0.0
  0
LINE
  8
LY_1
  6
CONTINUOUS
 62
     3
  5
124
 10
-27.500015
 20
-12.5
 30
0.0
 11
-9.499995
 21
-12.5
 31
0.0
  0
ENDSEC
  0
EOF
