  0
SECTION
  2
HEADER
  9
$ACADVER
  1
AC1009
  9
$DWGCODEPAGE
  3
dos932
  9
$INSBASE
 10
0.0
 20
0.0
 30
0.0
  9
$EXTMIN
 10
-46.75117
 20
-71.12539
 30
0.0
  9
$EXTMAX
 10
180.0
 20
157.450006
 30
0.0
  9
$LIMMIN
 10
-46.75117
 20
-71.12539
  9
$LIMMAX
 10
180.0
 20
157.450006
  9
$ORTHOMODE
 70
     0
  9
$REGENMODE
 70
     1
  9
$FILLMODE
 70
     1
  9
$QTEXTMODE
 70
     0
  9
$MIRRTEXT
 70
     1
  9
$DRAGMODE
 70
     2
  9
$LTSCALE
 40
1.0
  9
$OSMODE
 70
     0
  9
$ATTMODE
 70
     1
  9
$TEXTSIZE
 40
3.3
  9
$TRACEWID
 40
0.05
  9
$TEXTSTYLE
  7
MX_NOTE_STANDARD
  9
$CLAYER
  8
LY_1
  9
$CELTYPE
  6
CONTINUOUS
  9
$CECOLOR
 62
   256
  9
$DIMSCALE
 40
1.0
  9
$DIMASZ
 40
2.5
  9
$DIMEXO
 40
0.0
  9
$DIMDLI
 40
3.75
  9
$DIMRND
 40
0.0
  9
$DIMDLE
 40
0.0
  9
$DIMEXE
 40
1.1938
  9
$DIMTP
 40
0.0
  9
$DIMTM
 40
0.0
  9
$DIMTXT
 40
3.3
  9
$DIMCEN
 40
2.5
  9
$DIMTSZ
 40
0.0
  9
$DIMTOL
 70
     0
  9
$DIMLIM
 70
     0
  9
$DIMTIH
 70
     0
  9
$DIMTOH
 70
     0
  9
$DIMSE1
 70
     0
  9
$DIMSE2
 70
     0
  9
$DIMTAD
 70
     1
  9
$DIMZIN
 70
     8
  9
$DIMBLK
  1

  9
$DIMASO
 70
     1
  9
$DIMSHO
 70
     1
  9
$DIMPOST
  1

  9
$DIMAPOST
  1

  9
$DIMALT
 70
     0
  9
$DIMALTD
 70
     4
  9
$DIMALTF
 40
0.03937
  9
$DIMLFAC
 40
1.0
  9
$DIMTOFL
 70
     1
  9
$DIMTVP
 40
0.0
  9
$DIMTIX
 70
     0
  9
$DIMSOXD
 70
     0
  9
$DIMSAH
 70
     1
  9
$DIMBLK1
  1
_OPEN30
  9
$DIMBLK2
  1
_OPEN30
  9
$DIMSTYLE
  2
MXDIMSTYLE
  9
$DIMCLRD
 70
     0
  9
$DIMCLRE
 70
     0
  9
$DIMCLRT
 70
     0
  9
$DIMTFAC
 40
1.0
  9
$DIMGAP
 40
1.0
  9
$LUNITS
 70
     2
  9
$LUPREC
 70
     4
  9
$AXISMODE
 70
     0
  9
$AXISUNIT
 10
0.0
 20
0.0
  9
$SKETCHINC
 40
0.1
  9
$FILLETRAD
 40
0.0
  9
$AUNITS
 70
     0
  9
$AUPREC
 70
     0
  9
$MENU
  1
acad
  9
$ELEVATION
 40
0.0
  9
$PELEVATION
 40
0.0
  9
$THICKNESS
 40
0.0
  9
$LIMCHECK
 70
     0
  9
$BLIPMODE
 70
     1
  9
$CHAMFERA
 40
0.0
  9
$CHAMFERB
 40
0.0
  9
$SKPOLY
 70
     0
  9
$TDCREATE
 40
2454901.551793981
  9
$TDUPDATE
 40
2454901.551793981
  9
$TDINDWG
 40
0.0000000000
  9
$TDUSRTIMER
 40
0.0000000000
  9
$USRTIMER
 70
     1
  9
$ANGBASE
 50
0.0
  9
$ANGDIR
 70
     0
  9
$PDMODE
 70
     0
  9
$PDSIZE
 40
0.0
  9
$PLINEWID
 40
0.0
  9
$COORDS
 70
     1
  9
$SPLFRAME
 70
     0
  9
$SPLINETYPE
 70
     6
  9
$SPLINESEGS
 70
     8
  9
$ATTDIA
 70
     0
  9
$ATTREQ
 70
     1
  9
$HANDLING
 70
     1
  9
$HANDSEED
  5
11D
  9
$SURFTAB1
 70
     6
  9
$SURFTAB2
 70
     6
  9
$SURFTYPE
 70
     6
  9
$SURFU
 70
     6
  9
$SURFV
 70
     6
  9
$UCSNAME
  2

  9
$UCSORG
 10
0.0
 20
0.0
 30
0.0
  9
$UCSXDIR
 10
1.0
 20
0.0
 30
0.0
  9
$UCSYDIR
 10
0.0
 20
1.0
 30
0.0
  9
$PUCSNAME
  2

  9
$PUCSORG
 10
0.0
 20
0.0
 30
0.0
  9
$PUCSXDIR
 10
1.0
 20
0.0
 30
0.0
  9
$PUCSYDIR
 10
0.0
 20
1.0
 30
0.0
  9
$USERI1
 70
     0
  9
$USERI2
 70
     0
  9
$USERI3
 70
     0
  9
$USERI4
 70
     0
  9
$USERI5
 70
     0
  9
$USERR1
 40
0.0
  9
$USERR2
 40
0.0
  9
$USERR3
 40
0.0
  9
$USERR4
 40
0.0
  9
$USERR5
 40
0.0
  9
$WORLDVIEW
 70
     1
  9
$SHADEDGE
 70
     3
  9
$SHADEDIF
 70
    70
  9
$TILEMODE
 70
     1
  9
$MAXACTVP
 70
    16
  9
$PINSBASE
 10
0.0
 20
0.0
 30
0.0
  9
$PLIMCHECK
 70
     0
  9
$PEXTMIN
 10
1.000000E+20
 20
1.000000E+20
 30
1.000000E+20
  9
$PEXTMAX
 10
-1.000000E+20
 20
-1.000000E+20
 30
-1.000000E+20
  9
$PLIMMIN
 10
0.0
 20
0.0
  9
$PLIMMAX
 10
12.0
 20
9.0
  9
$UNITMODE
 70
     0
  9
$VISRETAIN
 70
     0
  9
$PLINEGEN
 70
     1
  9
$PSLTSCALE
 70
     0
  9
$TREEDEPTH
 70
  3020
  0
ENDSEC
  0
SECTION
  2
TABLES
  0
TABLE
  2
VPORT
 70
     1
  0
VPORT
  2
*ACTIVE
 70
     0
 10
0.0
 20
0.0
 11
1.0
 21
1.0
 12
66.624415
 22
43.162308
 13
0.0
 23
0.0
 14
1.0
 24
1.0
 15
0.0
 25
0.0
 16
0.0
 26
0.0
 36
1.0
 17
0.0
 27
0.0
 37
0.0
 40
230.86115
 41
1.732051
 42
50.0
 43
0.0
 44
0.0
 50
0.0
 51
0.0
 71
     0
 72
   100
 73
     1
 74
     1
 75
     0
 76
     0
 77
     0
 78
     0
  0
ENDTAB
  0
TABLE
  2
LTYPE
 70
     3
  0
LTYPE
  2
CONTINUOUS
 70
    64
  3
Solid line
 72
    65
 73
     0
 40
0.0
  0
LTYPE
  2
PHANTOM
 70
    64
  3
Phantom ______  __  __  ______  __  __  ______
 72
    65
 73
     6
 40
63.5
 49
31.75
 49
-6.35
 49
6.35
 49
-6.35
 49
6.35
 49
-6.35
  0
LTYPE
  2
CENTER
 70
    64
  3
Center ____ _ ____ _ ____ _ ____ _ ____ _ ____
 72
    65
 73
     4
 40
50.8
 49
31.75
 49
-6.35
 49
6.35
 49
-6.35
  0
ENDTAB
  0
TABLE
  2
LAYER
 70
     3
  0
LAYER
  2
0
 70
     0
 62
     7
  6
CONTINUOUS
  0
LAYER
  2
LY_1
 70
     0
 62
     7
  6
CONTINUOUS
  0
LAYER
  2
DEFPOINTS
 70
     0
 62
     7
  6
CONTINUOUS
  0
ENDTAB
  0
TABLE
  2
STYLE
 70
     3
  0
STYLE
  2
MX_NOTE_STANDARD
 70
     0
 40
0.0
 41
1.0
 50
0.0
 71
     0
 42
3.3
  3
txt.shx
  4
extfont.shx
  0
STYLE
  2
MX_DIMTXSTY_2
 70
     0
 40
0.0
 41
0.85
 50
0.0
 71
     0
 42
3.3
  3
txt.shx
  4
extfont.shx
  0
STYLE
  2
MX_DIMTXSTY_3
 70
     0
 40
0.0
 41
1.05
 50
0.0
 71
     0
 42
3.3
  3
txt.shx
  4
extfont.shx
  0
ENDTAB
  0
TABLE
  2
VIEW
 70
     0
  0
ENDTAB
  0
TABLE
  2
UCS
 70
     0
  0
ENDTAB
  0
TABLE
  2
APPID
 70
     1
  0
APPID
  2
ACAD
 70
     0
  0
ENDTAB
  0
TABLE
  2
DIMSTYLE
 70
     1
  0
DIMSTYLE
  2
MXDIMSTYLE
 70
     0
  3

  4

  5

  6
_OPEN30
  7
_OPEN30
 40
1.0
 41
2.5
 42
0.0
 43
3.75
 44
1.1938
 45
0.0
 46
0.0
 47
0.0
 48
0.0
 71
     0
 72
     0
 73
     0
 74
     0
 75
     0
 76
     0
 77
     1
 78
     8
140
3.3
141
2.5
142
0.0
143
0.03937
144
1.0
145
0.0
146
1.0
147
1.0
170
     0
171
     4
172
     1
173
     1
174
     0
175
     0
176
     0
177
     0
178
     0
  0
ENDTAB
  0
ENDSEC
  0
SECTION
  2
BLOCKS
  0
BLOCK
  8
0
  6
BYBLOCK
 62
     0
  5
20
  2
_OPEN30
 70
     2
 10
0.0
 20
0.0
 30
0.0
  3
_OPEN30
  0
LINE
  8
0
  6
BYBLOCK
 62
     0
  5
21
 10
-1.0
 20
0.267949
 30
0.0
 11
0.0
 21
0.0
 31
0.0
  0
LINE
  8
0
  6
BYBLOCK
 62
     0
  5
22
 10
0.0
 20
0.0
 30
0.0
 11
-1.0
 21
-0.267949
 31
0.0
  0
LINE
  8
0
  6
BYBLOCK
 62
     0
  5
23
 10
0.0
 20
0.0
 30
0.0
 11
-1.0
 21
0.0
 31
0.0
  0
ENDBLK
  8
0
  6
BYBLOCK
 62
     0
  5
24
  0
BLOCK
  8
0
  6
BYBLOCK
 62
     0
  5
26
  2
*D1
 70
     1
 10
0.0
 20
0.0
 30
0.0
  3
*D1
  0
LINE
  8
0
  6
CONTINUOUS
 62
   110
  5
27
 10
108.0
 20
53.999985
 30
0.0
 11
108.0
 21
0.0
 31
0.0
  0
LINE
  8
0
  6
CONTINUOUS
 62
   110
  5
28
 10
100.0
 20
53.999985
 30
0.0
 11
109.193787
 21
53.999985
 31
0.0
  0
LINE
  8
0
  6
CONTINUOUS
 62
   110
  5
29
 10
42.799652
 20
0.0
 30
0.0
 11
109.193787
 21
0.0
 31
0.0
  0
INSERT
  8
0
  6
CONTINUOUS
 62
   110
  5
30
  2
_OPEN
 10
108.0
 20
53.999985
 30
0.0
 41
2.19
 42
2.19
 50
90.0
 43
2.19
  0
INSERT
  8
0
  6
CONTINUOUS
 62
   110
  5
31
  2
_OPEN
 10
108.0
 20
0.0
 30
0.0
 41
2.19
 42
2.19
 50
270.0
 43
2.19
  0
TEXT
  8
0
  6
CONTINUOUS
 62
   110
  5
33
 10
107.0
 20
24.233536
 30
0.0
 40
4.099999
  1
54
 50
90.0
 41
0.98743
  7
MX_DIMTXSTY_2
 11
104.95
 21
24.233536
 31
0.0
 73
     2
  0
POINT
  8
DEFPOINTS
  6
CONTINUOUS
 62
     0
  5
34
 10
100.0
 20
53.999985
 30
0.0
  0
POINT
  8
DEFPOINTS
  6
CONTINUOUS
 62
     0
  5
35
 10
42.799652
 20
0.0
 30
0.0
  0
POINT
  8
DEFPOINTS
  6
CONTINUOUS
 62
     0
  5
36
 10
108.0
 20
0.0
 30
0.0
  0
ENDBLK
  8
0
  6
BYBLOCK
 62
     0
  5
37
  0
BLOCK
  8
0
  6
BYBLOCK
 62
     0
  5
2B
  2
_OPEN
 70
     2
 10
0.0
 20
0.0
 30
0.0
  3
_OPEN
  0
LINE
  8
0
  6
BYBLOCK
 62
     0
  5
2C
 10
-1.0
 20
0.166667
 30
0.0
 11
0.0
 21
0.0
 31
0.0
  0
LINE
  8
0
  6
BYBLOCK
 62
     0
  5
2D
 10
0.0
 20
0.0
 30
0.0
 11
-1.0
 21
-0.166667
 31
0.0
  0
LINE
  8
0
  6
BYBLOCK
 62
     0
  5
2E
 10
0.0
 20
0.0
 30
0.0
 11
-1.0
 21
0.0
 31
0.0
  0
ENDBLK
  8
0
  6
BYBLOCK
 62
     0
  5
2F
  0
BLOCK
  8
0
  6
BYBLOCK
 62
     0
  5
3A
  2
*D3
 70
     1
 10
0.0
 20
0.0
 30
0.0
  3
*D3
  0
LINE
  8
0
  6
CONTINUOUS
 62
   110
  5
3B
 10
0.0
 20
61.999985
 30
0.0
 11
100.0
 21
61.999985
 31
0.0
  0
LINE
  8
0
  6
CONTINUOUS
 62
   110
  5
3C
 10
0.0
 20
47.408646
 30
0.0
 11
0.0
 21
63.193771
 31
0.0
  0
LINE
  8
0
  6
CONTINUOUS
 62
   110
  5
3D
 10
100.0
 20
53.999985
 30
0.0
 11
100.0
 21
63.193771
 31
0.0
  0
INSERT
  8
0
  6
CONTINUOUS
 62
   110
  5
3E
  2
_OPEN
 10
0.0
 20
61.999985
 30
0.0
 41
2.19
 42
2.19
 50
180.0
 43
2.19
  0
INSERT
  8
0
  6
CONTINUOUS
 62
   110
  5
3F
  2
_OPEN
 10
100.0
 20
61.999985
 30
0.0
 41
2.19
 42
2.19
 43
2.19
  0
TEXT
  8
0
  6
CONTINUOUS
 62
   110
  5
41
 10
45.540496
 20
62.999985
 30
0.0
 40
4.099999
  1
100
 41
1.027733
  7
MX_DIMTXSTY_3
 11
45.540496
 21
65.049984
 31
0.0
 73
     2
  0
POINT
  8
DEFPOINTS
  6
CONTINUOUS
 62
     0
  5
42
 10
0.0
 20
47.408646
 30
0.0
  0
POINT
  8
DEFPOINTS
  6
CONTINUOUS
 62
     0
  5
43
 10
100.0
 20
53.999985
 30
0.0
  0
POINT
  8
DEFPOINTS
  6
CONTINUOUS
 62
     0
  5
44
 10
100.0
 20
61.999985
 30
0.0
  0
ENDBLK
  8
0
  6
BYBLOCK
 62
     0
  5
45
  0
BLOCK
  8
0
  6
BYBLOCK
 62
     0
  5
48
  2
*D4
 70
     1
 10
0.0
 20
0.0
 30
0.0
  3
*D4
  0
LINE
  8
0
  6
CONTINUOUS
 62
   110
  5
49
 10
38.0
 20
-34.0
 30
0.0
 11
-40.0
 21
-34.0
 31
0.0
  0
LINE
  8
0
  6
CONTINUOUS
 62
   110
  5
4A
 10
38.0
 20
-24.5
 30
0.0
 11
38.0
 21
-35.193787
 31
0.0
  0
LINE
  8
0
  6
CONTINUOUS
 62
   110
  5
4B
 10
-40.0
 20
-24.5
 30
0.0
 11
-40.0
 21
-35.193787
 31
0.0
  0
INSERT
  8
0
  6
CONTINUOUS
 62
   110
  5
4C
  2
_OPEN
 10
38.0
 20
-34.0
 30
0.0
 41
2.19
 42
2.19
 43
2.19
  0
INSERT
  8
0
  6
CONTINUOUS
 62
   110
  5
4D
  2
_OPEN
 10
-40.0
 20
-34.0
 30
0.0
 41
2.19
 42
2.19
 50
180.0
 43
2.19
  0
TEXT
  8
0
  6
CONTINUOUS
 62
   110
  5
4E
 10
-3.766448
 20
-33.0
 30
0.0
 40
4.099999
  1
78
 41
0.98743
  7
MX_DIMTXSTY_2
 11
-3.766448
 21
-30.95
 31
0.0
 73
     2
  0
POINT
  8
DEFPOINTS
  6
CONTINUOUS
 62
     0
  5
4F
 10
38.0
 20
-24.5
 30
0.0
  0
POINT
  8
DEFPOINTS
  6
CONTINUOUS
 62
     0
  5
50
 10
-40.0
 20
-24.5
 30
0.0
  0
POINT
  8
DEFPOINTS
  6
CONTINUOUS
 62
     0
  5
51
 10
-40.0
 20
-34.0
 30
0.0
  0
ENDBLK
  8
0
  6
BYBLOCK
 62
     0
  5
52
  0
ENDSEC
  0
SECTION
  2
ENTITIES
  0
DIMENSION
  8
LY_1
  6
CONTINUOUS
 62
   110
  5
38
  2
*D1
 10
108.0
 20
0.0
 30
0.0
 11
108.0
 21
26.999985
 31
0.0
 70
   128
  1
<>
 13
100.0
 23
53.999985
 33
0.0
 14
42.799652
 24
0.0
 34
0.0
 50
90.0
  3
MXDIMSTYLE
1001
ACAD
1000
DSTYLE
1002
{
1070
     6
1000
_OPEN
1070
     7
1000
_OPEN
1070
    41
1040
2.19
1070
    44
1040
1.193787
1070
   140
1040
4.099999
1070
   271
1070
     0
1070
   284
1070
     8
1070
   340
1005
32
1070
   343
1005
2A
1070
   344
1005
2A
1002
}
  0
DIMENSION
  8
LY_1
  6
CONTINUOUS
 62
   110
  5
46
  2
*D3
 10
100.0
 20
61.999985
 30
0.0
 11
50.0
 21
61.999985
 31
0.0
 70
   128
  1
<>
 13
0.0
 23
47.408646
 33
0.0
 14
100.0
 24
53.999985
 34
0.0
  3
MXDIMSTYLE
1001
ACAD
1000
DSTYLE
1002
{
1070
     6
1000
_OPEN
1070
     7
1000
_OPEN
1070
    41
1040
2.19
1070
    44
1040
1.193787
1070
   140
1040
4.099999
1070
   271
1070
     0
1070
   284
1070
     8
1070
   340
1005
40
1070
   343
1005
2A
1070
   344
1005
2A
1002
}
  0
DIMENSION
  8
LY_1
  6
CONTINUOUS
 62
   110
  5
53
  2
*D4
 10
-40.0
 20
-34.0
 30
0.0
 11
-1.0
 21
-34.0
 31
0.0
 70
   128
  1
<>
 13
38.0
 23
-24.5
 33
0.0
 14
-40.0
 24
-24.5
 34
0.0
  3
MXDIMSTYLE
1001
ACAD
1000
DSTYLE
1002
{
1070
     6
1000
_OPEN
1070
     7
1000
_OPEN
1070
    41
1040
2.19
1070
    44
1040
1.193787
1070
   140
1040
4.099999
1070
   271
1070
     0
1070
   284
1070
     8
1070
   340
1005
32
1070
   343
1005
2A
1070
   344
1005
2A
1002
}
  0
TEXT
  8
LY_1
  6
CONTINUOUS
 62
   110
  5
54
 10
-46.115247
 20
-70.09074
 30
0.0
 40
4.181479
  1
KITZ
 41
0.912486
  7
MX_NOTE_STANDARD
 11
-46.115247
 21
-68.0
 31
0.0
 73
     2
  0
TEXT
  8
LY_1
  6
CONTINUOUS
 62
   110
  5
55
 10
-46.037378
 20
-62.09074
 30
0.0
 40
4.181479
  1
FIG   TK11/4
 41
1.024219
  7
MX_NOTE_STANDARD
 11
-46.037378
 21
-60.0
 31
0.0
 73
     2
  0
TEXT
  8
LY_1
  6
CONTINUOUS
 62
   110
  5
56
 10
-46.063444
 20
-54.09074
 30
0.0
 40
4.181479
  1
      BALL VALVE 11/4
 41
0.986818
  7
MX_NOTE_STANDARD
 11
-46.063444
 21
-52.0
 31
0.0
 73
     2
  0
TEXT
  8
LY_1
  6
CONTINUOUS
 62
   110
  5
57
 10
-46.113098
 20
-46.09074
 30
0.0
 40
4.181479
  1
NAME  TYPE 600 FORGED BRASS
 41
0.915569
  7
MX_NOTE_STANDARD
 11
-46.113098
 21
-44.0
 31
0.0
 73
     2
  0
ARC
  8
LY_1
  6
PHANTOM
 62
   110
  5
59
 10
5.0
 20
103.688217
 30
0.0
 40
13.613635
 50
248.452083
 51
298.411638
  0
ARC
  8
LY_1
  6
PHANTOM
 62
   110
  5
5A
 10
-5.0
 20
78.363846
 30
0.0
 40
13.613635
 50
68.452101
 51
118.411657
  0
ARC
  8
LY_1
  6
CONTINUOUS
 62
     3
  5
5B
 10
56.515579
 20
-12.249991
 30
0.0
 40
38.515579
 50
163.01689
 51
196.983093
  0
ARC
  8
LY_1
  6
CONTINUOUS
 62
     3
  5
5C
 10
-58.515579
 20
-12.249991
 30
0.0
 40
38.515579
 50
343.016885
 51
16.983084
  0
ARC
  8
LY_1
  6
CONTINUOUS
 62
     3
  5
5D
 10
56.515579
 20
12.249991
 30
0.0
 40
38.515579
 50
163.01689
 51
196.983093
  0
ARC
  8
LY_1
  6
CONTINUOUS
 62
     3
  5
5E
 10
-58.515579
 20
12.249991
 30
0.0
 40
38.515579
 50
343.016916
 51
16.983112
  0
ARC
  8
LY_1
  6
CONTINUOUS
 62
     3
  5
5F
 10
26.267426
 20
48.299988
 30
0.0
 40
5.7
 50
89.999982
 51
164.999994
  0
ARC
  8
LY_1
  6
CONTINUOUS
 62
     3
  5
60
 10
26.26741
 20
48.299988
 30
0.0
 40
1.3
 50
89.999982
 51
164.999994
  0
ARC
  8
LY_1
  6
PHANTOM
 62
   110
  5
61
 10
10.0
 20
138.306625
 30
0.0
 40
3.0
 50
180.000036
 51
219.715127
  0
ARC
  8
LY_1
  6
PHANTOM
 62
   110
  5
62
 10
4.0
 20
143.5
 30
0.0
 40
3.0
 50
359.999982
 51
90.000037
  0
ARC
  8
LY_1
  6
PHANTOM
 62
   110
  5
63
 10
0.0
 20
130.0
 30
0.0
 40
10.0
 50
129.715128
 51
180.000019
  0
ARC
  8
LY_1
  6
PHANTOM
 62
   110
  5
64
 10
0.0
 20
130.0
 30
0.0
 40
10.0
 50
359.999982
 51
39.715129
  0
ARC
  8
LY_1
  6
CONTINUOUS
 62
     3
  5
65
 10
55.524536
 20
131.993744
 30
0.0
 40
0.756249
 50
89.999982
 51
10.546505
  0
ARC
  8
LY_1
  6
CONTINUOUS
 62
     3
  5
66
 10
55.252274
 20
128.006241
 30
0.0
 40
0.756249
 50
128.11894
 51
270.000055
  0
ARC
  8
LY_1
  6
CONTINUOUS
 62
     3
  5
67
 10
60.334274
 20
128.006241
 30
0.0
 40
0.756249
 50
270.000018
 51
89.999927
  0
ARC
  8
LY_1
  6
CONTINUOUS
 62
     3
  5
68
 10
60.334274
 20
131.993744
 30
0.0
 40
0.756249
 50
308.118873
 51
89.999927
  0
ARC
  8
LY_1
  6
CONTINUOUS
 62
     3
  5
69
 10
52.934921
 20
131.993744
 30
0.0
 40
0.756249
 50
270.000018
 51
89.999982
  0
ARC
  8
LY_1
  6
CONTINUOUS
 62
     3
  5
6A
 10
47.880814
 20
131.993744
 30
0.0
 40
0.756249
 50
89.999982
 51
10.546505
  0
ARC
  8
LY_1
  6
CONTINUOUS
 62
     3
  5
6B
 10
50.531525
 20
128.006241
 30
0.0
 40
0.756249
 50
180.000036
 51
0.000019
  0
ARC
  8
LY_1
  6
CONTINUOUS
 62
     3
  5
6C
 10
45.291229
 20
128.006241
 30
0.0
 40
0.756249
 50
180.000036
 51
0.000019
  0
ARC
  8
LY_1
  6
CONTINUOUS
 62
     3
  5
6D
 10
45.291229
 20
131.993744
 30
0.0
 40
0.756249
 50
359.999964
 51
179.999964
  0
ARC
  8
LY_1
  6
CONTINUOUS
 62
     3
  5
6E
 10
42.70166
 20
128.006241
 30
0.0
 40
0.756249
 50
235.167474
 51
359.999964
  0
ARC
  8
LY_1
  6
CONTINUOUS
 62
     3
  5
6F
 10
42.70166
 20
128.006241
 30
0.0
 40
0.756249
 50
359.999964
 51
55.167346
  0
ARC
  8
LY_1
  6
CONTINUOUS
 62
     3
  5
70
 10
42.70166
 20
131.993744
 30
0.0
 40
0.756249
 50
214.83646
 51
124.832471
  0
ARC
  8
LY_1
  6
CONTINUOUS
 62
     3
  5
71
 10
37.756241
 20
128.006241
 30
0.0
 40
0.756249
 50
180.000036
 51
0.000019
  0
ARC
  8
LY_1
  6
CONTINUOUS
 62
     3
  5
72
 10
37.756241
 20
131.993744
 30
0.0
 40
0.756249
 50
359.999964
 51
179.999964
  0
ARC
  8
LY_1
  6
CONTINUOUS
 62
     3
  5
73
 10
0.0
 20
130.0
 30
0.0
 40
5.0
 50
323.130103
 51
359.999983
  0
ARC
  8
LY_1
  6
CONTINUOUS
 62
   110
  5
74
 10
0.0
 20
130.0
 30
0.0
 40
5.0
 50
216.869889
 51
323.130103
  0
ARC
  8
LY_1
  6
CONTINUOUS
 62
     3
  5
75
 10
0.0
 20
130.0
 30
0.0
 40
5.0
 50
143.130111
 51
216.869872
  0
ARC
  8
LY_1
  6
CONTINUOUS
 62
   110
  5
76
 10
0.0
 20
130.0
 30
0.0
 40
5.0
 50
36.869897
 51
143.130111
  0
CIRCLE
  8
LY_1
  6
CONTINUOUS
 62
     3
  5
77
 10
0.0
 20
130.0
 30
0.0
 40
9.2
  0
ARC
  8
LY_1
  6
CONTINUOUS
 62
     3
  5
78
 10
-8.306625
 20
140.0
 30
0.0
 40
3.0
 50
270.000018
 51
309.715147
  0
ARC
  8
LY_1
  6
CONTINUOUS
 62
     3
  5
79
 10
-13.5
 20
134.0
 30
0.0
 40
3.0
 50
89.999982
 51
180.000019
  0
ARC
  8
LY_1
  6
CONTINUOUS
 62
     3
  5
7A
 10
0.0
 20
130.0
 30
0.0
 40
10.0
 50
179.999964
 51
270.000001
  0
ARC
  8
LY_1
  6
CONTINUOUS
 62
     3
  5
7B
 10
0.0
 20
130.0
 30
0.0
 40
10.0
 50
89.999982
 51
129.715128
  0
ARC
  8
LY_1
  6
CONTINUOUS
 62
     3
  5
7C
 10
0.0
 20
130.0
 30
0.0
 40
5.0
 50
0.0
 51
36.869897
  0
CIRCLE
  8
LY_1
  6
CONTINUOUS
 62
     3
  5
7D
 10
0.0
 20
130.0
 30
0.0
 40
4.188
  0
CIRCLE
  8
LY_1
  6
CONTINUOUS
 62
     3
  5
7E
 10
0.0
 20
130.0
 30
0.0
 40
6.749999
  0
ARC
  8
LY_1
  6
CONTINUOUS
 62
     3
  5
7F
 10
14.46535
 20
31.299988
 30
0.0
 40
5.0
 50
270.000018
 51
345.0
  0
ARC
  8
LY_1
  6
CONTINUOUS
 62
     3
  5
80
 10
14.465353
 20
31.299988
 30
0.0
 40
2.0
 50
270.000018
 51
345.0
  0
ARC
  8
LY_1
  6
CONTINUOUS
 62
     3
  5
81
 10
95.300003
 20
126.179794
 30
0.0
 40
4.7
 50
274.004148
 51
0.000014
  0
ARC
  8
LY_1
  6
CONTINUOUS
 62
     3
  5
82
 10
95.300003
 20
133.820206
 30
0.0
 40
4.7
 50
359.999896
 51
85.995797
  0
ARC
  8
LY_1
  6
CONTINUOUS
 62
     3
  5
83
 10
137.5
 20
26.0
 30
0.0
 40
1.5
 50
270.000018
 51
0.0
  0
CIRCLE
  8
LY_1
  6
CONTINUOUS
 62
     3
  5
84
 10
150.0
 20
0.0
 30
0.0
 40
19.475998
  0
CIRCLE
  8
LY_1
  6
CONTINUOUS
 62
   110
  5
85
 10
150.0
 20
0.0
 30
0.0
 40
20.954987
  0
ARC
  8
LY_1
  6
CONTINUOUS
 62
     3
  5
86
 10
139.799988
 20
29.199997
 30
0.0
 40
0.8
 50
75.521566
 51
179.999964
  0
ARC
  8
LY_1
  6
CONTINUOUS
 62
     3
  5
87
 10
0.0
 20
130.0
 30
0.0
 40
11.0
 50
180.000036
 51
204.619972
  0
ARC
  8
LY_1
  6
CONTINUOUS
 62
     3
  5
88
 10
0.0
 20
130.0
 30
0.0
 40
17.5
 50
199.462961
 51
218.944791
  0
ARC
  8
LY_1
  6
CONTINUOUS
 62
     3
  5
89
 10
-10.799988
 20
119.799988
 30
0.0
 40
0.8
 50
270.000018
 51
0.0
  0
CIRCLE
  8
LY_1
  6
CONTINUOUS
 62
     3
  5
8A
 10
0.0
 20
130.0
 30
0.0
 40
8.0
  0
ARC
  8
LY_1
  6
CONTINUOUS
 62
     3
  5
8B
 10
3.045644
 20
106.0
 30
0.0
 40
3.0
 50
24.624318
 51
89.999982
  0
ARC
  8
LY_1
  6
CONTINUOUS
 62
     3
  5
8C
 10
8.5
 20
108.5
 30
0.0
 40
3.0
 50
204.624343
 51
270.000018
  0
ARC
  8
LY_1
  6
CONTINUOUS
 62
     3
  5
8D
 10
3.045644
 20
154.0
 30
0.0
 40
3.0
 50
270.000018
 51
335.375682
  0
ARC
  8
LY_1
  6
CONTINUOUS
 62
     3
  5
8E
 10
8.5
 20
151.5
 30
0.0
 40
3.0
 50
89.999982
 51
155.375657
  0
ARC
  8
LY_1
  6
CONTINUOUS
 62
     3
  5
8F
 10
-12.045639
 20
154.0
 30
0.0
 40
3.0
 50
204.624398
 51
270.000073
  0
ARC
  8
LY_1
  6
CONTINUOUS
 62
     3
  5
90
 10
-17.5
 20
151.5
 30
0.0
 40
3.0
 50
24.6243
 51
89.999982
  0
ARC
  8
LY_1
  6
CONTINUOUS
 62
     3
  5
91
 10
-12.045639
 20
106.0
 30
0.0
 40
3.0
 50
89.999982
 51
155.375657
  0
ARC
  8
LY_1
  6
CONTINUOUS
 62
     3
  5
92
 10
-17.5
 20
108.5
 30
0.0
 40
3.0
 50
270.000018
 51
335.3757
  0
ARC
  8
LY_1
  6
CONTINUOUS
 62
     3
  5
93
 10
-12.045639
 20
-24.0
 30
0.0
 40
3.0
 50
89.999982
 51
155.375657
  0
ARC
  8
LY_1
  6
CONTINUOUS
 62
     3
  5
94
 10
-17.5
 20
-21.5
 30
0.0
 40
3.0
 50
270.000018
 51
335.375682
  0
ARC
  8
LY_1
  6
CONTINUOUS
 62
     3
  5
95
 10
3.045644
 20
-24.0
 30
0.0
 40
3.0
 50
24.624318
 51
89.999982
  0
ARC
  8
LY_1
  6
CONTINUOUS
 62
     3
  5
96
 10
8.5
 20
-21.5
 30
0.0
 40
3.0
 50
204.624343
 51
270.000018
  0
LINE
  8
LY_1
  6
CONTINUOUS
 62
     3
  5
97
 10
-4.041443
 20
37.299988
 30
0.0
 11
-4.041443
 21
31.299988
 31
0.0
  0
LINE
  8
LY_1
  6
CONTINUOUS
 62
     3
  5
98
 10
4.041449
 20
37.299988
 30
0.0
 11
4.041449
 21
31.299988
 31
0.0
  0
LINE
  8
LY_1
  6
CONTINUOUS
 62
     3
  5
99
 10
-21.999986
 20
157.45
 30
0.0
 11
-20.296803
 21
154.499994
 31
0.0
  0
LINE
  8
LY_1
  6
CONTINUOUS
 62
     3
  5
9A
 10
19.999996
 20
157.450006
 30
0.0
 11
18.296796
 21
154.499991
 31
0.0
  0
LINE
  8
LY_1
  6
CONTINUOUS
 62
     3
  5
9B
 10
-21.999992
 20
102.54999
 30
0.0
 11
-20.296809
 21
105.499996
 31
0.0
  0
LINE
  8
LY_1
  6
CONTINUOUS
 62
     3
  5
9C
 10
20.000003
 20
102.549999
 30
0.0
 11
18.296804
 21
105.500013
 31
0.0
  0
LINE
  8
LY_1
  6
CONTINUOUS
 62
     3
  5
9D
 10
-22.0
 20
0.0
 30
0.0
 11
-40.0
 21
0.0
 31
0.0
  0
LINE
  8
LY_1
  6
CONTINUOUS
 62
     3
  5
9E
 10
20.0
 20
0.0
 30
0.0
 11
38.0
 21
0.0
 31
0.0
  0
LINE
  8
LY_1
  6
CONTINUOUS
 62
     3
  5
9F
 10
14.465353
 20
139.356628
 30
0.0
 11
14.465353
 21
121.422836
 31
0.0
  0
LINE
  8
LY_1
  6
CONTINUOUS
 62
     3
  5
A0
 10
21.893661
 20
139.989151
 30
0.0
 11
21.893661
 21
120.492661
 31
0.0
  0
LINE
  8
LY_1
  6
PHANTOM
 62
   110
  5
A1
 10
7.0
 20
143.5
 30
0.0
 11
7.0
 21
138.306625
 31
0.0
  0
LINE
  8
LY_1
  6
PHANTOM
 62
   110
  5
A2
 10
4.0
 20
146.5
 30
0.0
 11
0.0
 21
146.5
 31
0.0
  0
LINE
  8
LY_1
  6
PHANTOM
 62
   110
  5
A3
 10
-10.0
 20
130.0
 30
0.0
 11
-10.0
 21
91.026031
 31
0.0
  0
LINE
  8
LY_1
  6
PHANTOM
 62
   110
  5
A4
 10
10.0
 20
130.0
 30
0.0
 11
10.0
 21
91.026031
 31
0.0
  0
LINE
  8
LY_1
  6
CONTINUOUS
 62
     3
  5
A5
 10
56.26799
 20
132.132156
 30
0.0
 11
59.285583
 21
132.132156
 31
0.0
  0
LINE
  8
LY_1
  6
CONTINUOUS
 62
     3
  5
A6
 10
55.252274
 20
127.25
 30
0.0
 11
60.334274
 21
127.25
 31
0.0
  0
LINE
  8
LY_1
  6
CONTINUOUS
 62
     3
  5
A7
 10
60.334274
 20
128.762497
 30
0.0
 11
57.441193
 21
128.762497
 31
0.0
  0
LINE
  8
LY_1
  6
CONTINUOUS
 62
     3
  5
A8
 10
60.800945
 20
131.398747
 30
0.0
 11
57.441045
 21
128.762461
 31
0.0
  0
LINE
  8
LY_1
  6
CONTINUOUS
 62
     3
  5
A9
 10
59.285433
 20
132.132095
 30
0.0
 11
54.785327
 21
128.601167
 31
0.0
  0
LINE
  8
LY_1
  6
CONTINUOUS
 62
     3
  5
AA
 10
55.524536
 20
132.75
 30
0.0
 11
60.334274
 21
132.75
 31
0.0
  0
LINE
  8
LY_1
  6
CONTINUOUS
 62
     3
  5
AB
 10
48.624283
 20
132.132156
 30
0.0
 11
49.775269
 21
132.132156
 31
0.0
  0
LINE
  8
LY_1
  6
CONTINUOUS
 62
     3
  5
AC
 10
51.28775
 20
131.237488
 30
0.0
 11
52.934921
 21
131.237488
 31
0.0
  0
LINE
  8
LY_1
  6
CONTINUOUS
 62
     3
  5
AD
 10
51.28775
 20
131.237488
 30
0.0
 11
51.28775
 21
128.006241
 31
0.0
  0
LINE
  8
LY_1
  6
CONTINUOUS
 62
     3
  5
AE
 10
49.775269
 20
132.132156
 30
0.0
 11
49.775269
 21
128.006241
 31
0.0
  0
LINE
  8
LY_1
  6
CONTINUOUS
 62
     3
  5
AF
 10
44.534973
 20
128.006241
 30
0.0
 11
44.534973
 21
131.993744
 31
0.0
  0
LINE
  8
LY_1
  6
CONTINUOUS
 62
     3
  5
B0
 10
46.047485
 20
131.993744
 30
0.0
 11
46.047485
 21
128.006241
 31
0.0
  0
LINE
  8
LY_1
  6
CONTINUOUS
 62
     3
  5
B1
 10
40.498521
 20
130.460597
 30
0.0
 11
42.080915
 21
131.561724
 31
0.0
  0
LINE
  8
LY_1
  6
CONTINUOUS
 62
     3
  5
B2
 10
40.498508
 20
130.460597
 30
0.0
 11
43.133599
 21
128.626939
 31
0.0
  0
LINE
  8
LY_1
  6
CONTINUOUS
 62
     3
  5
B3
 10
38.512511
 20
129.999947
 30
0.0
 11
42.269698
 21
132.614428
 31
0.0
  0
LINE
  8
LY_1
  6
CONTINUOUS
 62
     3
  5
B4
 10
38.512491
 20
129.999934
 30
0.0
 11
42.269678
 21
127.385453
 31
0.0
  0
LINE
  8
LY_1
  6
CONTINUOUS
 62
     3
  5
B5
 10
38.512497
 20
131.993744
 30
0.0
 11
38.512497
 21
128.006241
 31
0.0
  0
LINE
  8
LY_1
  6
CONTINUOUS
 62
     3
  5
B6
 10
37.0
 20
131.993744
 30
0.0
 11
37.0
 21
128.006241
 31
0.0
  0
LINE
  8
LY_1
  6
CONTINUOUS
 62
     3
  5
B7
 10
47.880814
 20
132.75
 30
0.0
 11
52.934921
 21
132.75
 31
0.0
  0
LINE
  8
LY_1
  6
CONTINUOUS
 62
     3
  5
B8
 10
140.0
 20
35.103836
 30
0.0
 11
160.0
 21
35.103836
 31
0.0
  0
LINE
  8
LY_1
  6
CONTINUOUS
 62
     3
  5
B9
 10
140.0
 20
53.999985
 30
0.0
 11
140.0
 21
25.499985
 31
0.0
  0
LINE
  8
LY_1
  6
CONTINUOUS
 62
     3
  5
BA
 10
160.0
 20
53.999985
 30
0.0
 11
160.0
 21
25.499985
 31
0.0
  0
LINE
  8
LY_1
  6
CONTINUOUS
 62
     3
  5
BB
 10
140.0
 20
26.299988
 30
0.0
 11
160.0
 21
26.299988
 31
0.0
  0
LINE
  8
LY_1
  6
CONTINUOUS
 62
     3
  5
BC
 10
140.0
 20
25.499985
 30
0.0
 11
160.0
 21
25.499985
 31
0.0
  0
LINE
  8
LY_1
  6
CONTINUOUS
 62
     3
  5
BD
 10
142.0
 20
25.499985
 30
0.0
 11
142.0
 21
24.499985
 31
0.0
  0
LINE
  8
LY_1
  6
CONTINUOUS
 62
     3
  5
BE
 10
158.0
 20
25.499985
 30
0.0
 11
158.0
 21
24.499985
 31
0.0
  0
LINE
  8
LY_1
  6
CONTINUOUS
 62
     3
  5
BF
 10
140.0
 20
49.599991
 30
0.0
 11
160.0
 21
49.599991
 31
0.0
  0
LINE
  8
LY_1
  6
CONTINUOUS
 62
     3
  5
C0
 10
140.0
 20
53.999985
 30
0.0
 11
160.0
 21
53.999985
 31
0.0
  0
LINE
  8
LY_1
  6
CONTINUOUS
 62
     3
  5
C1
 10
-9.199997
 20
31.299988
 30
0.0
 11
-9.199997
 21
29.299988
 31
0.0
  0
LINE
  8
LY_1
  6
CONTINUOUS
 62
     3
  5
C2
 10
9.2
 20
31.299988
 30
0.0
 11
9.2
 21
29.299988
 31
0.0
  0
LINE
  8
LY_1
  6
CONTINUOUS
 62
     3
  5
C3
 10
-9.199997
 20
31.299988
 30
0.0
 11
9.2
 21
31.299988
 31
0.0
  0
LINE
  8
LY_1
  6
CONTINUOUS
 62
     3
  5
C4
 10
10.0
 20
26.299988
 30
0.0
 11
10.0
 21
25.499985
 31
0.0
  0
LINE
  8
LY_1
  6
CONTINUOUS
 62
     3
  5
C5
 10
5.5
 20
13.955096
 30
0.0
 11
5.5
 21
-19.322876
 31
0.0
  0
LINE
  8
LY_1
  6
CONTINUOUS
 62
     3
  5
C6
 10
-12.045639
 20
14.900182
 30
0.0
 11
-12.045639
 21
-19.479095
 31
0.0
  0
LINE
  8
LY_1
  6
CONTINUOUS
 62
     3
  5
C7
 10
-13.610657
 20
30.0
 30
0.0
 11
-13.610657
 21
24.5
 31
0.0
  0
LINE
  8
LY_1
  6
CONTINUOUS
 62
   110
  5
C8
 10
5.0
 20
38.600006
 30
0.0
 11
5.0
 21
37.299988
 31
0.0
  0
LINE
  8
LY_1
  6
CONTINUOUS
 62
     3
  5
C9
 10
-40.0
 20
157.449997
 30
0.0
 11
-40.0
 21
102.549988
 31
0.0
  0
LINE
  8
LY_1
  6
CONTINUOUS
 62
     3
  5
CA
 10
38.0
 20
119.300003
 30
0.0
 11
38.0
 21
102.549988
 31
0.0
  0
LINE
  8
LY_1
  6
CONTINUOUS
 62
     3
  5
CB
 10
-13.5
 20
137.0
 30
0.0
 11
-8.306625
 21
137.0
 31
0.0
  0
LINE
  8
LY_1
  6
CONTINUOUS
 62
     3
  5
CC
 10
-16.5
 20
134.0
 30
0.0
 11
-16.5
 21
130.0
 31
0.0
  0
LINE
  8
LY_1
  6
CONTINUOUS
 62
     3
  5
CD
 10
0.0
 20
120.0
 30
0.0
 11
17.13559
 21
120.0
 31
0.0
  0
LINE
  8
LY_1
  6
CONTINUOUS
 62
     3
  5
CE
 10
-4.0
 20
133.0
 30
0.0
 11
4.0
 21
133.0
 31
0.0
  0
LINE
  8
LY_1
  6
CONTINUOUS
 62
     3
  5
CF
 10
-4.0
 20
127.0
 30
0.0
 11
4.0
 21
127.0
 31
0.0
  0
LINE
  8
LY_1
  6
CONTINUOUS
 62
     3
  5
D0
 10
-16.5
 20
130.0
 30
0.0
 11
-10.0
 21
130.0
 31
0.0
  0
LINE
  8
LY_1
  6
CONTINUOUS
 62
     3
  5
D1
 10
-4.041444
 20
123.0
 30
0.0
 11
4.041449
 21
123.0
 31
0.0
  0
LINE
  8
LY_1
  6
CONTINUOUS
 62
     3
  5
D2
 10
-8.082905
 20
129.999999
 30
0.0
 11
-4.041455
 21
123.000002
 31
0.0
  0
LINE
  8
LY_1
  6
CONTINUOUS
 62
     3
  5
D3
 10
-4.04145
 20
136.999999
 30
0.0
 11
-8.082901
 21
130.000002
 31
0.0
  0
LINE
  8
LY_1
  6
CONTINUOUS
 62
     3
  5
D4
 10
4.041452
 20
137.0
 30
0.0
 11
-4.041444
 21
137.0
 31
0.0
  0
LINE
  8
LY_1
  6
CONTINUOUS
 62
     3
  5
D5
 10
8.082901
 20
130.000002
 30
0.0
 11
4.04145
 21
136.999999
 31
0.0
  0
LINE
  8
LY_1
  6
CONTINUOUS
 62
     3
  5
D6
 10
4.041455
 20
123.000002
 30
0.0
 11
8.082905
 21
129.999999
 31
0.0
  0
LINE
  8
LY_1
  6
CONTINUOUS
 62
     3
  5
D7
 10
-8.100006
 20
37.299988
 30
0.0
 11
-8.100006
 21
31.299988
 31
0.0
  0
LINE
  8
LY_1
  6
CONTINUOUS
 62
   110
  5
D8
 10
-5.0
 20
38.600006
 30
0.0
 11
-5.0
 21
37.299988
 31
0.0
  0
LINE
  8
LY_1
  6
CONTINUOUS
 62
     3
  5
D9
 10
8.1
 20
37.299988
 30
0.0
 11
8.1
 21
31.299988
 31
0.0
  0
LINE
  8
LY_1
  6
CONTINUOUS
 62
     3
  5
DA
 10
-8.100006
 20
37.299988
 30
0.0
 11
8.1
 21
37.299988
 31
0.0
  0
LINE
  8
LY_1
  6
CONTINUOUS
 62
     3
  5
DB
 10
100.0
 20
53.999985
 30
0.0
 11
100.0
 21
49.599991
 31
0.0
  0
LINE
  8
LY_1
  6
CONTINUOUS
 62
     3
  5
DC
 10
26.26741
 20
49.599991
 30
0.0
 11
100.0
 21
49.599991
 31
0.0
  0
LINE
  8
LY_1
  6
CONTINUOUS
 62
     3
  5
DD
 10
25.01171
 20
48.636452
 30
0.0
 11
21.385657
 21
35.103837
 31
0.0
  0
LINE
  8
LY_1
  6
CONTINUOUS
 62
     3
  5
DE
 10
26.267426
 20
53.999985
 30
0.0
 11
100.0
 21
53.999985
 31
0.0
  0
LINE
  8
LY_1
  6
CONTINUOUS
 62
     3
  5
DF
 10
20.761646
 20
49.775253
 30
0.0
 11
17.135593
 21
36.242638
 31
0.0
  0
LINE
  8
LY_1
  6
CONTINUOUS
 62
     3
  5
E0
 10
21.385657
 20
35.103837
 30
0.0
 11
17.135593
 21
36.242638
 31
0.0
  0
LINE
  8
LY_1
  6
CONTINUOUS
 62
     3
  5
E1
 10
20.747566
 20
35.274815
 30
0.0
 11
19.294995
 21
30.005923
 31
0.0
  0
LINE
  8
LY_1
  6
CONTINUOUS
 62
     3
  5
E2
 10
17.849784
 20
36.051271
 30
0.0
 11
16.397212
 21
30.782379
 31
0.0
  0
LINE
  8
LY_1
  6
CONTINUOUS
 62
     3
  5
E3
 10
-10.0
 20
29.299988
 30
0.0
 11
14.465353
 21
29.299988
 31
0.0
  0
LINE
  8
LY_1
  6
CONTINUOUS
 62
     3
  5
E4
 10
-10.0
 20
26.299988
 30
0.0
 11
14.46535
 21
26.299988
 31
0.0
  0
LINE
  8
LY_1
  6
CONTINUOUS
 62
     3
  5
E5
 10
-16.5
 20
30.0
 30
0.0
 11
-16.5
 21
24.5
 31
0.0
  0
LINE
  8
LY_1
  6
CONTINUOUS
 62
     3
  5
E6
 10
100.0
 20
133.820206
 30
0.0
 11
100.0
 21
126.179794
 31
0.0
  0
LINE
  8
LY_1
  6
CONTINUOUS
 62
     3
  5
E7
 10
64.348888
 20
119.301712
 30
0.0
 11
95.628197
 21
121.491262
 31
0.0
  0
LINE
  8
LY_1
  6
CONTINUOUS
 62
     3
  5
E8
 10
17.13559
 20
119.300003
 30
0.0
 11
64.324432
 21
119.300003
 31
0.0
  0
LINE
  8
LY_1
  6
CONTINUOUS
 62
     3
  5
E9
 10
95.628186
 20
138.508727
 30
0.0
 11
64.348877
 21
140.698276
 31
0.0
  0
LINE
  8
LY_1
  6
CONTINUOUS
 62
     3
  5
EA
 10
17.13559
 20
140.699997
 30
0.0
 11
64.324478
 21
140.699997
 31
0.0
  0
LINE
  8
LY_1
  6
CONTINUOUS
 62
     3
  5
EB
 10
17.13559
 20
140.699997
 30
0.0
 11
17.13559
 21
119.300003
 31
0.0
  0
LINE
  8
LY_1
  6
CONTINUOUS
 62
     3
  5
EC
 10
0.0
 20
140.0
 30
0.0
 11
17.13559
 21
140.0
 31
0.0
  0
LINE
  8
LY_1
  6
CONTINUOUS
 62
     3
  5
ED
 10
-16.5
 20
30.0
 30
0.0
 11
-9.999985
 21
30.0
 31
0.0
  0
LINE
  8
LY_1
  6
CONTINUOUS
 62
     3
  5
EE
 10
-10.0
 20
30.0
 30
0.0
 11
-10.0
 21
24.5
 31
0.0
  0
LINE
  8
LY_1
  6
CONTINUOUS
 62
     3
  5
EF
 10
-10.0
 20
25.499985
 30
0.0
 11
10.0
 21
25.499985
 31
0.0
  0
LINE
  8
LY_1
  6
CONTINUOUS
 62
     3
  5
F0
 10
-8.0
 20
25.499985
 30
0.0
 11
-8.0
 21
24.499985
 31
0.0
  0
LINE
  8
LY_1
  6
CONTINUOUS
 62
     3
  5
F1
 10
-40.0
 20
24.499985
 30
0.0
 11
8.0
 21
24.499985
 31
0.0
  0
LINE
  8
LY_1
  6
CONTINUOUS
 62
     3
  5
F2
 10
8.0
 20
25.499985
 30
0.0
 11
8.0
 21
24.499985
 31
0.0
  0
LINE
  8
LY_1
  6
CONTINUOUS
 62
     3
  5
F3
 10
-4.0
 20
38.600006
 30
0.0
 11
-4.0
 21
37.299988
 31
0.0
  0
LINE
  8
LY_1
  6
CONTINUOUS
 62
     3
  5
F4
 10
4.0
 20
38.600006
 30
0.0
 11
4.0
 21
37.299988
 31
0.0
  0
LINE
  8
LY_1
  6
CONTINUOUS
 62
     3
  5
F5
 10
-5.0
 20
38.600006
 30
0.0
 11
5.0
 21
38.600006
 31
0.0
  0
LINE
  8
LY_1
  6
CONTINUOUS
 62
     3
  5
F6
 10
139.0
 20
29.199997
 30
0.0
 11
139.0
 21
26.0
 31
0.0
  0
LINE
  8
LY_1
  6
CONTINUOUS
 62
     3
  5
F7
 10
121.709769
 20
0.00005
 30
0.0
 11
135.85488
 21
-24.500001
 31
0.0
  0
LINE
  8
LY_1
  6
CONTINUOUS
 62
     3
  5
F8
 10
164.145044
 20
24.499997
 30
0.0
 11
178.290086
 21
0.000065
 31
0.0
  0
LINE
  8
LY_1
  6
CONTINUOUS
 62
     3
  5
F9
 10
178.290096
 20
0.000051
 30
0.0
 11
164.144987
 21
-24.500001
 31
0.0
  0
LINE
  8
LY_1
  6
CONTINUOUS
 62
     3
  5
FA
 10
135.854819
 20
24.499996
 30
0.0
 11
121.709771
 21
0.000049
 31
0.0
  0
LINE
  8
LY_1
  6
CONTINUOUS
 62
     3
  5
FB
 10
135.854828
 20
24.5
 30
0.0
 11
164.14505
 21
24.5
 31
0.0
  0
LINE
  8
LY_1
  6
CONTINUOUS
 62
     3
  5
FC
 10
135.854889
 20
-24.5
 30
0.0
 11
164.144989
 21
-24.5
 31
0.0
  0
LINE
  8
LY_1
  6
CONTINUOUS
 62
     3
  5
FD
 10
0.0
 20
117.62001
 30
0.0
 11
-40.0
 21
117.62001
 31
0.0
  0
LINE
  8
LY_1
  6
CONTINUOUS
 62
     3
  5
FE
 10
38.0
 20
117.62001
 30
0.0
 11
0.0
 21
117.62001
 31
0.0
  0
LINE
  8
LY_1
  6
CONTINUOUS
 62
     3
  5
FF
 10
-40.0
 20
142.37999
 30
0.0
 11
38.0
 21
142.37999
 31
0.0
  0
LINE
  8
LY_1
  6
CONTINUOUS
 62
     3
  5
100
 10
-13.610657
 20
119.0
 30
0.0
 11
-10.799988
 21
119.0
 31
0.0
  0
LINE
  8
LY_1
  6
CONTINUOUS
 62
     3
  5
101
 10
-10.0
 20
125.417419
 30
0.0
 11
-10.0
 21
119.799988
 31
0.0
  0
LINE
  8
LY_1
  6
CONTINUOUS
 62
     3
  5
102
 10
-16.5
 20
130.0
 30
0.0
 11
-16.5
 21
124.169037
 31
0.0
  0
LINE
  8
LY_1
  6
CONTINUOUS
 62
     3
  5
103
 10
18.296799
 20
105.5
 30
0.0
 11
8.5
 21
105.5
 31
0.0
  0
LINE
  8
LY_1
  6
CONTINUOUS
 62
     3
  5
104
 10
8.5
 20
154.5
 30
0.0
 11
18.296814
 21
154.5
 31
0.0
  0
LINE
  8
LY_1
  6
CONTINUOUS
 62
     3
  5
105
 10
20.0
 20
157.449997
 30
0.0
 11
38.0
 21
157.449997
 31
0.0
  0
LINE
  8
LY_1
  6
CONTINUOUS
 62
     3
  5
106
 10
20.000015
 20
102.549988
 30
0.0
 11
38.0
 21
102.549988
 31
0.0
  0
LINE
  8
LY_1
  6
CONTINUOUS
 62
     3
  5
107
 10
3.045644
 20
151.0
 30
0.0
 11
-12.045639
 21
151.0
 31
0.0
  0
LINE
  8
LY_1
  6
CONTINUOUS
 62
     3
  5
108
 10
-12.045639
 20
109.0
 30
0.0
 11
3.045644
 21
109.0
 31
0.0
  0
LINE
  8
LY_1
  6
CONTINUOUS
 62
     3
  5
109
 10
-17.5
 20
105.5
 30
0.0
 11
-20.296814
 21
105.5
 31
0.0
  0
LINE
  8
LY_1
  6
CONTINUOUS
 62
     3
  5
10A
 10
-20.296814
 20
154.5
 30
0.0
 11
-17.5
 21
154.5
 31
0.0
  0
LINE
  8
LY_1
  6
CONTINUOUS
 62
     3
  5
10B
 10
38.0
 20
157.449997
 30
0.0
 11
38.0
 21
140.699997
 31
0.0
  0
LINE
  8
LY_1
  6
CONTINUOUS
 62
     3
  5
10C
 10
-40.0
 20
157.449997
 30
0.0
 11
-22.0
 21
157.449997
 31
0.0
  0
LINE
  8
LY_1
  6
CONTINUOUS
 62
     3
  5
10D
 10
-40.0
 20
102.549988
 30
0.0
 11
-22.0
 21
102.549988
 31
0.0
  0
LINE
  8
LY_1
  6
CONTINUOUS
 62
     3
  5
10E
 10
8.0
 20
24.5
 30
0.0
 11
38.0
 21
24.5
 31
0.0
  0
LINE
  8
LY_1
  6
CONTINUOUS
 62
     3
  5
10F
 10
8.5
 20
-24.5
 30
0.0
 11
38.0
 21
-24.5
 31
0.0
  0
LINE
  8
LY_1
  6
CONTINUOUS
 62
     3
  5
110
 10
-12.045639
 20
-21.0
 30
0.0
 11
3.045644
 21
-21.0
 31
0.0
  0
LINE
  8
LY_1
  6
CONTINUOUS
 62
     3
  5
111
 10
-40.0
 20
24.5
 30
0.0
 11
-40.0
 21
-24.5
 31
0.0
  0
LINE
  8
LY_1
  6
CONTINUOUS
 62
     3
  5
112
 10
38.0
 20
24.5
 30
0.0
 11
38.0
 21
-24.5
 31
0.0
  0
LINE
  8
LY_1
  6
CONTINUOUS
 62
     3
  5
113
 10
-40.0
 20
-24.5
 30
0.0
 11
-17.5
 21
-24.5
 31
0.0
  0
LINE
  8
LY_1
  6
CENTER
 62
   110
  5
115
 10
0.0
 20
153.583496
 30
0.0
 11
0.0
 21
89.440277
 31
0.0
  0
LINE
  8
LY_1
  6
CENTER
 62
   110
  5
116
 10
-43.640289
 20
130.0
 30
0.0
 11
104.485748
 21
130.0
 31
0.0
  0
LINE
  8
LY_1
  6
CENTER
 62
   110
  5
117
 10
150.0
 20
54.649536
 30
0.0
 11
150.0
 21
-30.0
 31
0.0
  0
LINE
  8
LY_1
  6
CENTER
 62
   110
  5
118
 10
120.0
 20
0.0
 30
0.0
 11
180.0
 21
0.0
 31
0.0
  0
LINE
  8
LY_1
  6
CENTER
 62
   110
  5
119
 10
0.0
 20
47.408646
 30
0.0
 11
0.0
 21
-25.997574
 31
0.0
  0
LINE
  8
LY_1
  6
CENTER
 62
   110
  5
11A
 10
-45.0
 20
0.0
 30
0.0
 11
43.0
 21
0.0
 31
0.0
  0
ENDSEC
  0
EOF
