  0
SECTION
  2
HEADER
  9
$ACADVER
  1
AC1009
  9
$DWGCODEPAGE
  3
dos932
  9
$INSBASE
 10
0.0
 20
0.0
 30
0.0
  9
$EXTMIN
 10
-49.251002
 20
-74.37539
 30
0.0
  9
$EXTMAX
 10
231.177765
 20
163.110977
 30
0.0
  9
$LIMMIN
 10
-49.251002
 20
-74.37539
  9
$LIMMAX
 10
231.177765
 20
163.110977
  9
$ORTHOMODE
 70
     0
  9
$REGENMODE
 70
     1
  9
$FILLMODE
 70
     1
  9
$QTEXTMODE
 70
     0
  9
$MIRRTEXT
 70
     1
  9
$DRAGMODE
 70
     2
  9
$LTSCALE
 40
1.0
  9
$OSMODE
 70
     0
  9
$ATTMODE
 70
     1
  9
$TEXTSIZE
 40
3.3
  9
$TRACEWID
 40
0.05
  9
$TEXTSTYLE
  7
MX_NOTE_STANDARD
  9
$CLAYER
  8
LY_1
  9
$CELTYPE
  6
CONTINUOUS
  9
$CECOLOR
 62
   256
  9
$DIMSCALE
 40
1.0
  9
$DIMASZ
 40
2.5
  9
$DIMEXO
 40
0.0
  9
$DIMDLI
 40
3.75
  9
$DIMRND
 40
0.0
  9
$DIMDLE
 40
0.0
  9
$DIMEXE
 40
1.1938
  9
$DIMTP
 40
0.0
  9
$DIMTM
 40
0.0
  9
$DIMTXT
 40
3.3
  9
$DIMCEN
 40
2.5
  9
$DIMTSZ
 40
0.0
  9
$DIMTOL
 70
     0
  9
$DIMLIM
 70
     0
  9
$DIMTIH
 70
     0
  9
$DIMTOH
 70
     0
  9
$DIMSE1
 70
     0
  9
$DIMSE2
 70
     0
  9
$DIMTAD
 70
     1
  9
$DIMZIN
 70
     8
  9
$DIMBLK
  1

  9
$DIMASO
 70
     1
  9
$DIMSHO
 70
     1
  9
$DIMPOST
  1

  9
$DIMAPOST
  1

  9
$DIMALT
 70
     0
  9
$DIMALTD
 70
     4
  9
$DIMALTF
 40
0.03937
  9
$DIMLFAC
 40
1.0
  9
$DIMTOFL
 70
     1
  9
$DIMTVP
 40
0.0
  9
$DIMTIX
 70
     0
  9
$DIMSOXD
 70
     0
  9
$DIMSAH
 70
     1
  9
$DIMBLK1
  1
_OPEN30
  9
$DIMBLK2
  1
_OPEN30
  9
$DIMSTYLE
  2
MXDIMSTYLE
  9
$DIMCLRD
 70
     0
  9
$DIMCLRE
 70
     0
  9
$DIMCLRT
 70
     0
  9
$DIMTFAC
 40
1.0
  9
$DIMGAP
 40
1.0
  9
$LUNITS
 70
     2
  9
$LUPREC
 70
     4
  9
$AXISMODE
 70
     0
  9
$AXISUNIT
 10
0.0
 20
0.0
  9
$SKETCHINC
 40
0.1
  9
$FILLETRAD
 40
0.0
  9
$AUNITS
 70
     0
  9
$AUPREC
 70
     0
  9
$MENU
  1
acad
  9
$ELEVATION
 40
0.0
  9
$PELEVATION
 40
0.0
  9
$THICKNESS
 40
0.0
  9
$LIMCHECK
 70
     0
  9
$BLIPMODE
 70
     1
  9
$CHAMFERA
 40
0.0
  9
$CHAMFERB
 40
0.0
  9
$SKPOLY
 70
     0
  9
$TDCREATE
 40
2454901.551793981
  9
$TDUPDATE
 40
2454901.551793981
  9
$TDINDWG
 40
0.0000000000
  9
$TDUSRTIMER
 40
0.0000000000
  9
$USRTIMER
 70
     1
  9
$ANGBASE
 50
0.0
  9
$ANGDIR
 70
     0
  9
$PDMODE
 70
     0
  9
$PDSIZE
 40
0.0
  9
$PLINEWID
 40
0.0
  9
$COORDS
 70
     1
  9
$SPLFRAME
 70
     0
  9
$SPLINETYPE
 70
     6
  9
$SPLINESEGS
 70
     8
  9
$ATTDIA
 70
     0
  9
$ATTREQ
 70
     1
  9
$HANDLING
 70
     1
  9
$HANDSEED
  5
11F
  9
$SURFTAB1
 70
     6
  9
$SURFTAB2
 70
     6
  9
$SURFTYPE
 70
     6
  9
$SURFU
 70
     6
  9
$SURFV
 70
     6
  9
$UCSNAME
  2

  9
$UCSORG
 10
0.0
 20
0.0
 30
0.0
  9
$UCSXDIR
 10
1.0
 20
0.0
 30
0.0
  9
$UCSYDIR
 10
0.0
 20
1.0
 30
0.0
  9
$PUCSNAME
  2

  9
$PUCSORG
 10
0.0
 20
0.0
 30
0.0
  9
$PUCSXDIR
 10
1.0
 20
0.0
 30
0.0
  9
$PUCSYDIR
 10
0.0
 20
1.0
 30
0.0
  9
$USERI1
 70
     0
  9
$USERI2
 70
     0
  9
$USERI3
 70
     0
  9
$USERI4
 70
     0
  9
$USERI5
 70
     0
  9
$USERR1
 40
0.0
  9
$USERR2
 40
0.0
  9
$USERR3
 40
0.0
  9
$USERR4
 40
0.0
  9
$USERR5
 40
0.0
  9
$WORLDVIEW
 70
     1
  9
$SHADEDGE
 70
     3
  9
$SHADEDIF
 70
    70
  9
$TILEMODE
 70
     1
  9
$MAXACTVP
 70
    16
  9
$PINSBASE
 10
0.0
 20
0.0
 30
0.0
  9
$PLIMCHECK
 70
     0
  9
$PEXTMIN
 10
1.000000E+20
 20
1.000000E+20
 30
1.000000E+20
  9
$PEXTMAX
 10
-1.000000E+20
 20
-1.000000E+20
 30
-1.000000E+20
  9
$PLIMMIN
 10
0.0
 20
0.0
  9
$PLIMMAX
 10
12.0
 20
9.0
  9
$UNITMODE
 70
     0
  9
$VISRETAIN
 70
     0
  9
$PLINEGEN
 70
     1
  9
$PSLTSCALE
 70
     0
  9
$TREEDEPTH
 70
  3020
  0
ENDSEC
  0
SECTION
  2
TABLES
  0
TABLE
  2
VPORT
 70
     1
  0
VPORT
  2
*ACTIVE
 70
     0
 10
0.0
 20
0.0
 11
1.0
 21
1.0
 12
90.963381
 22
44.367794
 13
0.0
 23
0.0
 14
1.0
 24
1.0
 15
0.0
 25
0.0
 16
0.0
 26
0.0
 36
1.0
 17
0.0
 27
0.0
 37
0.0
 40
239.861231
 41
1.732051
 42
50.0
 43
0.0
 44
0.0
 50
0.0
 51
0.0
 71
     0
 72
   100
 73
     1
 74
     1
 75
     0
 76
     0
 77
     0
 78
     0
  0
ENDTAB
  0
TABLE
  2
LTYPE
 70
     3
  0
LTYPE
  2
CONTINUOUS
 70
    64
  3
Solid line
 72
    65
 73
     0
 40
0.0
  0
LTYPE
  2
PHANTOM
 70
    64
  3
Phantom ______  __  __  ______  __  __  ______
 72
    65
 73
     6
 40
63.5
 49
31.75
 49
-6.35
 49
6.35
 49
-6.35
 49
6.35
 49
-6.35
  0
LTYPE
  2
CENTER
 70
    64
  3
Center ____ _ ____ _ ____ _ ____ _ ____ _ ____
 72
    65
 73
     4
 40
50.8
 49
31.75
 49
-6.35
 49
6.35
 49
-6.35
  0
ENDTAB
  0
TABLE
  2
LAYER
 70
     3
  0
LAYER
  2
0
 70
     0
 62
     7
  6
CONTINUOUS
  0
LAYER
  2
LY_1
 70
     0
 62
     7
  6
CONTINUOUS
  0
LAYER
  2
DEFPOINTS
 70
     0
 62
     7
  6
CONTINUOUS
  0
ENDTAB
  0
TABLE
  2
STYLE
 70
     2
  0
STYLE
  2
MX_NOTE_STANDARD
 70
     0
 40
0.0
 41
1.0
 50
0.0
 71
     0
 42
3.3
  3
txt.shx
  4
extfont.shx
  0
STYLE
  2
MX_DIMTXSTY_2
 70
     0
 40
0.0
 41
0.85
 50
0.0
 71
     0
 42
3.3
  3
txt.shx
  4
extfont.shx
  0
ENDTAB
  0
TABLE
  2
VIEW
 70
     0
  0
ENDTAB
  0
TABLE
  2
UCS
 70
     0
  0
ENDTAB
  0
TABLE
  2
APPID
 70
     1
  0
APPID
  2
ACAD
 70
     0
  0
ENDTAB
  0
TABLE
  2
DIMSTYLE
 70
     1
  0
DIMSTYLE
  2
MXDIMSTYLE
 70
     0
  3

  4

  5

  6
_OPEN30
  7
_OPEN30
 40
1.0
 41
2.5
 42
0.0
 43
3.75
 44
1.1938
 45
0.0
 46
0.0
 47
0.0
 48
0.0
 71
     0
 72
     0
 73
     0
 74
     0
 75
     0
 76
     0
 77
     1
 78
     8
140
3.3
141
2.5
142
0.0
143
0.03937
144
1.0
145
0.0
146
1.0
147
1.0
170
     0
171
     4
172
     1
173
     1
174
     0
175
     0
176
     0
177
     0
178
     0
  0
ENDTAB
  0
ENDSEC
  0
SECTION
  2
BLOCKS
  0
BLOCK
  8
0
  6
BYBLOCK
 62
     0
  5
20
  2
_OPEN30
 70
     2
 10
0.0
 20
0.0
 30
0.0
  3
_OPEN30
  0
LINE
  8
0
  6
BYBLOCK
 62
     0
  5
21
 10
-1.0
 20
0.267949
 30
0.0
 11
0.0
 21
0.0
 31
0.0
  0
LINE
  8
0
  6
BYBLOCK
 62
     0
  5
22
 10
0.0
 20
0.0
 30
0.0
 11
-1.0
 21
-0.267949
 31
0.0
  0
LINE
  8
0
  6
BYBLOCK
 62
     0
  5
23
 10
0.0
 20
0.0
 30
0.0
 11
-1.0
 21
0.0
 31
0.0
  0
ENDBLK
  8
0
  6
BYBLOCK
 62
     0
  5
24
  0
BLOCK
  8
0
  6
BYBLOCK
 62
     0
  5
26
  2
*D1
 70
     1
 10
0.0
 20
0.0
 30
0.0
  3
*D1
  0
LINE
  8
0
  6
CONTINUOUS
 62
   110
  5
27
 10
0.0
 20
73.0
 30
0.0
 11
125.0
 21
73.0
 31
0.0
  0
LINE
  8
0
  6
CONTINUOUS
 62
   110
  5
28
 10
0.0
 20
54.421021
 30
0.0
 11
0.0
 21
74.193787
 31
0.0
  0
LINE
  8
0
  6
CONTINUOUS
 62
   110
  5
29
 10
125.0
 20
65.0
 30
0.0
 11
125.0
 21
74.193787
 31
0.0
  0
INSERT
  8
0
  6
CONTINUOUS
 62
   110
  5
30
  2
_OPEN
 10
0.0
 20
73.0
 30
0.0
 41
2.19
 42
2.19
 50
180.0
 43
2.19
  0
INSERT
  8
0
  6
CONTINUOUS
 62
   110
  5
31
  2
_OPEN
 10
125.0
 20
73.0
 30
0.0
 41
2.19
 42
2.19
 43
2.19
  0
TEXT
  8
0
  6
CONTINUOUS
 62
   110
  5
32
 10
57.983436
 20
74.0
 30
0.0
 40
4.099999
  1
125
 41
0.94423
  7
MX_NOTE_STANDARD
 11
57.983436
 21
76.05
 31
0.0
 73
     2
  0
POINT
  8
DEFPOINTS
  6
CONTINUOUS
 62
     0
  5
33
 10
0.0
 20
54.421021
 30
0.0
  0
POINT
  8
DEFPOINTS
  6
CONTINUOUS
 62
     0
  5
34
 10
125.0
 20
65.0
 30
0.0
  0
POINT
  8
DEFPOINTS
  6
CONTINUOUS
 62
     0
  5
35
 10
125.0
 20
73.0
 30
0.0
  0
ENDBLK
  8
0
  6
BYBLOCK
 62
     0
  5
36
  0
BLOCK
  8
0
  6
BYBLOCK
 62
     0
  5
2B
  2
_OPEN
 70
     2
 10
0.0
 20
0.0
 30
0.0
  3
_OPEN
  0
LINE
  8
0
  6
BYBLOCK
 62
     0
  5
2C
 10
-1.0
 20
0.166667
 30
0.0
 11
0.0
 21
0.0
 31
0.0
  0
LINE
  8
0
  6
BYBLOCK
 62
     0
  5
2D
 10
0.0
 20
0.0
 30
0.0
 11
-1.0
 21
-0.166667
 31
0.0
  0
LINE
  8
0
  6
BYBLOCK
 62
     0
  5
2E
 10
0.0
 20
0.0
 30
0.0
 11
-1.0
 21
0.0
 31
0.0
  0
ENDBLK
  8
0
  6
BYBLOCK
 62
     0
  5
2F
  0
BLOCK
  8
0
  6
BYBLOCK
 62
     0
  5
39
  2
*D3
 70
     1
 10
0.0
 20
0.0
 30
0.0
  3
*D3
  0
LINE
  8
0
  6
CONTINUOUS
 62
   110
  5
3A
 10
40.5
 20
-37.25
 30
0.0
 11
-42.5
 21
-37.25
 31
0.0
  0
LINE
  8
0
  6
CONTINUOUS
 62
   110
  5
3B
 10
40.5
 20
-26.5
 30
0.0
 11
40.5
 21
-38.443787
 31
0.0
  0
LINE
  8
0
  6
CONTINUOUS
 62
   110
  5
3C
 10
-42.5
 20
-26.5
 30
0.0
 11
-42.5
 21
-38.443787
 31
0.0
  0
INSERT
  8
0
  6
CONTINUOUS
 62
   110
  5
3D
  2
_OPEN
 10
40.5
 20
-37.25
 30
0.0
 41
2.19
 42
2.19
 43
2.19
  0
INSERT
  8
0
  6
CONTINUOUS
 62
   110
  5
3E
  2
_OPEN
 10
-42.5
 20
-37.25
 30
0.0
 41
2.19
 42
2.19
 50
180.0
 43
2.19
  0
TEXT
  8
0
  6
CONTINUOUS
 62
   110
  5
40
 10
-3.766448
 20
-36.25
 30
0.0
 40
4.099999
  1
83
 41
0.98743
  7
MX_DIMTXSTY_2
 11
-3.766448
 21
-34.2
 31
0.0
 73
     2
  0
POINT
  8
DEFPOINTS
  6
CONTINUOUS
 62
     0
  5
41
 10
40.5
 20
-26.5
 30
0.0
  0
POINT
  8
DEFPOINTS
  6
CONTINUOUS
 62
     0
  5
42
 10
-42.5
 20
-26.5
 30
0.0
  0
POINT
  8
DEFPOINTS
  6
CONTINUOUS
 62
     0
  5
43
 10
-42.5
 20
-37.25
 30
0.0
  0
ENDBLK
  8
0
  6
BYBLOCK
 62
     0
  5
44
  0
BLOCK
  8
0
  6
BYBLOCK
 62
     0
  5
47
  2
*D4
 70
     1
 10
0.0
 20
0.0
 30
0.0
  3
*D4
  0
LINE
  8
0
  6
CONTINUOUS
 62
   110
  5
48
 10
133.0
 20
65.0
 30
0.0
 11
133.0
 21
0.0
 31
0.0
  0
LINE
  8
0
  6
CONTINUOUS
 62
   110
  5
49
 10
125.0
 20
65.0
 30
0.0
 11
134.193787
 21
65.0
 31
0.0
  0
LINE
  8
0
  6
CONTINUOUS
 62
   110
  5
4A
 10
53.127136
 20
0.0
 30
0.0
 11
134.193787
 21
0.0
 31
0.0
  0
INSERT
  8
0
  6
CONTINUOUS
 62
   110
  5
4B
  2
_OPEN
 10
133.0
 20
65.0
 30
0.0
 41
2.19
 42
2.19
 50
90.0
 43
2.19
  0
INSERT
  8
0
  6
CONTINUOUS
 62
   110
  5
4C
  2
_OPEN
 10
133.0
 20
0.0
 30
0.0
 41
2.19
 42
2.19
 50
270.0
 43
2.19
  0
TEXT
  8
0
  6
CONTINUOUS
 62
   110
  5
4D
 10
132.0
 20
29.733552
 30
0.0
 40
4.099999
  1
65
 50
90.0
 41
0.98743
  7
MX_DIMTXSTY_2
 11
129.95
 21
29.733552
 31
0.0
 73
     2
  0
POINT
  8
DEFPOINTS
  6
CONTINUOUS
 62
     0
  5
4E
 10
125.0
 20
65.0
 30
0.0
  0
POINT
  8
DEFPOINTS
  6
CONTINUOUS
 62
     0
  5
4F
 10
53.127136
 20
0.0
 30
0.0
  0
POINT
  8
DEFPOINTS
  6
CONTINUOUS
 62
     0
  5
50
 10
133.0
 20
0.0
 30
0.0
  0
ENDBLK
  8
0
  6
BYBLOCK
 62
     0
  5
51
  0
ENDSEC
  0
SECTION
  2
ENTITIES
  0
DIMENSION
  8
LY_1
  6
CONTINUOUS
 62
   110
  5
37
  2
*D1
 10
125.0
 20
73.0
 30
0.0
 11
62.5
 21
73.0
 31
0.0
 70
   128
  1
<>
 13
0.0
 23
54.421021
 33
0.0
 14
125.0
 24
65.0
 34
0.0
  3
MXDIMSTYLE
1001
ACAD
1000
DSTYLE
1002
{
1070
     6
1000
_OPEN
1070
     7
1000
_OPEN
1070
    41
1040
2.19
1070
    44
1040
1.193787
1070
   140
1040
4.099999
1070
   271
1070
     0
1070
   284
1070
     8
1070
   343
1005
2A
1070
   344
1005
2A
1002
}
  0
DIMENSION
  8
LY_1
  6
CONTINUOUS
 62
   110
  5
45
  2
*D3
 10
-42.5
 20
-37.25
 30
0.0
 11
-1.0
 21
-37.25
 31
0.0
 70
   128
  1
<>
 13
40.5
 23
-26.5
 33
0.0
 14
-42.5
 24
-26.5
 34
0.0
  3
MXDIMSTYLE
1001
ACAD
1000
DSTYLE
1002
{
1070
     6
1000
_OPEN
1070
     7
1000
_OPEN
1070
    41
1040
2.19
1070
    44
1040
1.193787
1070
   140
1040
4.099999
1070
   271
1070
     0
1070
   284
1070
     8
1070
   340
1005
3F
1070
   343
1005
2A
1070
   344
1005
2A
1002
}
  0
DIMENSION
  8
LY_1
  6
CONTINUOUS
 62
   110
  5
52
  2
*D4
 10
133.0
 20
0.0
 30
0.0
 11
133.0
 21
32.5
 31
0.0
 70
   128
  1
<>
 13
125.0
 23
65.0
 33
0.0
 14
53.127136
 24
0.0
 34
0.0
 50
90.0
  3
MXDIMSTYLE
1001
ACAD
1000
DSTYLE
1002
{
1070
     6
1000
_OPEN
1070
     7
1000
_OPEN
1070
    41
1040
2.19
1070
    44
1040
1.193787
1070
   140
1040
4.099999
1070
   271
1070
     0
1070
   284
1070
     8
1070
   340
1005
3F
1070
   343
1005
2A
1070
   344
1005
2A
1002
}
  0
TEXT
  8
LY_1
  6
CONTINUOUS
 62
   110
  5
53
 10
-48.615079
 20
-73.34074
 30
0.0
 40
4.181479
  1
KITZ
 41
0.912486
  7
MX_NOTE_STANDARD
 11
-48.615079
 21
-71.25
 31
0.0
 73
     2
  0
TEXT
  8
LY_1
  6
CONTINUOUS
 62
   110
  5
54
 10
-48.537211
 20
-65.34074
 30
0.0
 40
4.181479
  1
FIG   TK11/2
 41
1.024219
  7
MX_NOTE_STANDARD
 11
-48.537211
 21
-63.25
 31
0.0
 73
     2
  0
TEXT
  8
LY_1
  6
CONTINUOUS
 62
   110
  5
55
 10
-48.563276
 20
-57.34074
 30
0.0
 40
4.181479
  1
      BALL VALVE 11/2
 41
0.986818
  7
MX_NOTE_STANDARD
 11
-48.563276
 21
-55.25
 31
0.0
 73
     2
  0
TEXT
  8
LY_1
  6
CONTINUOUS
 62
   110
  5
56
 10
-48.61293
 20
-49.34074
 30
0.0
 40
4.181479
  1
NAME  TYPE 600 FORGED BRASS
 41
0.915569
  7
MX_NOTE_STANDARD
 11
-48.61293
 21
-47.25
 31
0.0
 73
     2
  0
ARC
  8
LY_1
  6
PHANTOM
 62
   110
  5
58
 10
5.5
 20
106.754044
 30
0.0
 40
16.49173
 50
250.518625
 51
296.776436
  0
ARC
  8
LY_1
  6
PHANTOM
 62
   110
  5
59
 10
-5.5
 20
75.65889
 30
0.0
 40
16.49173
 50
70.518643
 51
116.776455
  0
ARC
  8
LY_1
  6
CONTINUOUS
 62
     3
  5
5A
 10
79.270828
 20
-13.25
 30
0.0
 40
59.270828
 50
168.072213
 51
191.927769
  0
ARC
  8
LY_1
  6
CONTINUOUS
 62
     3
  5
5B
 10
79.270828
 20
13.25
 30
0.0
 40
59.270828
 50
168.072213
 51
191.927769
  0
ARC
  8
LY_1
  6
CONTINUOUS
 62
     3
  5
5C
 10
-81.270828
 20
-13.25
 30
0.0
 40
59.270828
 50
348.072232
 51
11.927768
  0
ARC
  8
LY_1
  6
CONTINUOUS
 62
     3
  5
5D
 10
-81.270828
 20
13.25
 30
0.0
 40
59.270828
 50
348.072232
 51
11.927768
  0
ARC
  8
LY_1
  6
CONTINUOUS
 62
     3
  5
5E
 10
33.339111
 20
58.300003
 30
0.0
 40
6.7
 50
89.999982
 51
164.999994
  0
ARC
  8
LY_1
  6
CONTINUOUS
 62
     3
  5
5F
 10
33.487717
 20
58.300003
 30
0.0
 40
2.3
 50
89.999982
 51
164.629416
  0
ARC
  8
LY_1
  6
CONTINUOUS
 62
     3
  5
60
 10
0.0
 20
130.0
 30
0.0
 40
11.0
 50
89.999982
 51
126.86989
  0
ARC
  8
LY_1
  6
CONTINUOUS
 62
     3
  5
61
 10
0.0
 20
130.0
 30
0.0
 40
11.0
 50
179.999981
 51
270.000018
  0
ARC
  8
LY_1
  6
PHANTOM
 62
   110
  5
62
 10
12.0
 20
139.0
 30
0.0
 40
4.0
 50
180.000036
 51
216.869889
  0
ARC
  8
LY_1
  6
PHANTOM
 62
   110
  5
63
 10
4.0
 20
145.0
 30
0.0
 40
4.0
 50
359.999982
 51
90.000037
  0
ARC
  8
LY_1
  6
CONTINUOUS
 62
     3
  5
64
 10
69.576675
 20
132.537491
 30
0.0
 40
0.962499
 50
89.999982
 51
10.546505
  0
ARC
  8
LY_1
  6
CONTINUOUS
 62
     3
  5
65
 10
69.230164
 20
127.462494
 30
0.0
 40
0.962499
 50
128.11894
 51
270.000055
  0
ARC
  8
LY_1
  6
CONTINUOUS
 62
     3
  5
66
 10
75.698166
 20
127.462494
 30
0.0
 40
0.962499
 50
270.000018
 51
89.999927
  0
ARC
  8
LY_1
  6
CONTINUOUS
 62
     3
  5
67
 10
75.698166
 20
132.537491
 30
0.0
 40
0.962499
 50
308.118873
 51
89.999927
  0
ARC
  8
LY_1
  6
CONTINUOUS
 62
     3
  5
68
 10
66.280823
 20
132.537491
 30
0.0
 40
0.962499
 50
270.000018
 51
89.999982
  0
ARC
  8
LY_1
  6
CONTINUOUS
 62
     3
  5
69
 10
59.848312
 20
132.537491
 30
0.0
 40
0.962499
 50
89.999982
 51
10.546505
  0
ARC
  8
LY_1
  6
CONTINUOUS
 62
     3
  5
6A
 10
63.221939
 20
127.462494
 30
0.0
 40
0.962499
 50
180.000036
 51
0.000019
  0
ARC
  8
LY_1
  6
CONTINUOUS
 62
     3
  5
6B
 10
56.552475
 20
127.462494
 30
0.0
 40
0.962499
 50
180.000036
 51
0.000019
  0
ARC
  8
LY_1
  6
CONTINUOUS
 62
     3
  5
6C
 10
56.552475
 20
132.537491
 30
0.0
 40
0.962499
 50
359.999964
 51
179.999964
  0
ARC
  8
LY_1
  6
CONTINUOUS
 62
     3
  5
6D
 10
53.256653
 20
127.462494
 30
0.0
 40
0.962499
 50
235.167474
 51
359.999964
  0
ARC
  8
LY_1
  6
CONTINUOUS
 62
     3
  5
6E
 10
53.256653
 20
127.462494
 30
0.0
 40
0.962499
 50
359.999964
 51
55.167346
  0
ARC
  8
LY_1
  6
CONTINUOUS
 62
     3
  5
6F
 10
53.256653
 20
132.537491
 30
0.0
 40
0.962499
 50
214.83646
 51
124.832471
  0
ARC
  8
LY_1
  6
CONTINUOUS
 62
     3
  5
70
 10
46.962479
 20
127.462494
 30
0.0
 40
0.962499
 50
180.000036
 51
0.000019
  0
ARC
  8
LY_1
  6
CONTINUOUS
 62
     3
  5
71
 10
46.962479
 20
132.537491
 30
0.0
 40
0.962499
 50
359.999964
 51
179.999964
  0
ARC
  8
LY_1
  6
CONTINUOUS
 62
     3
  5
72
 10
0.0
 20
130.0
 30
0.0
 40
5.0
 50
233.13011
 51
306.869908
  0
ARC
  8
LY_1
  6
CONTINUOUS
 62
   110
  5
73
 10
0.0
 20
130.0
 30
0.0
 40
5.0
 50
126.86989
 51
233.130093
  0
ARC
  8
LY_1
  6
CONTINUOUS
 62
   110
  5
74
 10
0.0
 20
130.0
 30
0.0
 40
6.0
 50
221.810301
 51
318.189663
  0
ARC
  8
LY_1
  6
CONTINUOUS
 62
   110
  5
75
 10
0.0
 20
130.0
 30
0.0
 40
6.0
 50
41.810317
 51
138.189699
  0
CIRCLE
  8
LY_1
  6
CONTINUOUS
 62
     3
  5
76
 10
0.0
 20
130.0
 30
0.0
 40
8.25
  0
CIRCLE
  8
LY_1
  6
CONTINUOUS
 62
     3
  5
77
 10
0.0
 20
130.0
 30
0.0
 40
10.75
  0
ARC
  8
LY_1
  6
CONTINUOUS
 62
   110
  5
78
 10
0.0
 20
130.0
 30
0.0
 40
5.0
 50
306.869898
 51
53.130102
  0
ARC
  8
LY_1
  6
CONTINUOUS
 62
     3
  5
79
 10
0.0
 20
130.0
 30
0.0
 40
5.0
 50
53.130102
 51
126.86989
  0
ARC
  8
LY_1
  6
CONTINUOUS
 62
     3
  5
7A
 10
0.0
 20
130.0
 30
0.0
 40
6.0
 50
318.189663
 51
41.810317
  0
ARC
  8
LY_1
  6
CONTINUOUS
 62
     3
  5
7B
 10
0.0
 20
130.0
 30
0.0
 40
6.0
 50
138.189699
 51
221.810339
  0
ARC
  8
LY_1
  6
CONTINUOUS
 62
     3
  5
7C
 10
119.300003
 20
133.19072
 30
0.0
 40
5.7
 50
0.000078
 51
86.000005
  0
ARC
  8
LY_1
  6
CONTINUOUS
 62
     3
  5
7D
 10
119.300003
 20
126.809265
 30
0.0
 40
5.7
 50
273.999995
 51
359.999934
  0
ARC
  8
LY_1
  6
CONTINUOUS
 62
     3
  5
7E
 10
-9.0
 20
142.0
 30
0.0
 40
4.0
 50
270.000018
 51
306.869898
  0
ARC
  8
LY_1
  6
CONTINUOUS
 62
     3
  5
7F
 10
-15.0
 20
134.0
 30
0.0
 40
4.0
 50
89.999982
 51
180.000019
  0
ARC
  8
LY_1
  6
PHANTOM
 62
   110
  5
80
 10
0.0
 20
130.0
 30
0.0
 40
11.0
 50
0.0
 51
36.869897
  0
ARC
  8
LY_1
  6
PHANTOM
 62
   110
  5
81
 10
0.0
 20
130.0
 30
0.0
 40
11.0
 50
126.86989
 51
180.000019
  0
ARC
  8
LY_1
  6
CONTINUOUS
 62
     3
  5
82
 10
17.698029
 20
34.700027
 30
0.0
 40
6.0
 50
270.000018
 51
345.0
  0
ARC
  8
LY_1
  6
CONTINUOUS
 62
     3
  5
83
 10
17.698029
 20
34.700027
 30
0.0
 40
3.0
 50
270.000018
 51
345.0
  0
ARC
  8
LY_1
  6
CONTINUOUS
 62
     3
  5
84
 10
-18.199997
 20
31.199997
 30
0.0
 40
0.8
 50
89.999982
 51
180.000019
  0
ARC
  8
LY_1
  6
CONTINUOUS
 62
     3
  5
85
 10
4.316254
 20
-27.25
 30
0.0
 40
3.0
 50
38.682189
 51
89.999982
  0
ARC
  8
LY_1
  6
CONTINUOUS
 62
     3
  5
86
 10
9.0
 20
-23.5
 30
0.0
 40
3.0
 50
218.682184
 51
270.000018
  0
ARC
  8
LY_1
  6
CONTINUOUS
 62
     3
  5
87
 10
-14.816238
 20
-27.25
 30
0.0
 40
3.0
 50
89.999982
 51
141.317761
  0
ARC
  8
LY_1
  6
CONTINUOUS
 62
     3
  5
88
 10
-19.5
 20
-23.5
 30
0.0
 40
3.0
 50
270.000018
 51
321.317818
  0
ARC
  8
LY_1
  6
CONTINUOUS
 62
     3
  5
89
 10
0.0
 20
130.0
 30
0.0
 40
12.0
 50
180.000036
 51
203.556484
  0
ARC
  8
LY_1
  6
CONTINUOUS
 62
     3
  5
8A
 10
0.0
 20
130.0
 30
0.0
 40
21.0
 50
205.208734
 51
221.810356
  0
ARC
  8
LY_1
  6
CONTINUOUS
 62
     3
  5
8B
 10
-11.799988
 20
116.799988
 30
0.0
 40
0.8
 50
270.000018
 51
0.0
  0
ARC
  8
LY_1
  6
CONTINUOUS
 62
     3
  5
8C
 10
4.316254
 20
102.75
 30
0.0
 40
3.0
 50
38.682189
 51
89.999982
  0
ARC
  8
LY_1
  6
CONTINUOUS
 62
     3
  5
8D
 10
9.0
 20
106.5
 30
0.0
 40
3.0
 50
218.639236
 51
270.000018
  0
ARC
  8
LY_1
  6
CONTINUOUS
 62
     3
  5
8E
 10
4.316254
 20
157.25
 30
0.0
 40
3.0
 50
270.000018
 51
321.317818
  0
ARC
  8
LY_1
  6
CONTINUOUS
 62
     3
  5
8F
 10
9.0
 20
153.5
 30
0.0
 40
3.0
 50
89.999982
 51
141.360764
  0
ARC
  8
LY_1
  6
CONTINUOUS
 62
     3
  5
90
 10
-14.816238
 20
102.75
 30
0.0
 40
3.0
 50
89.999982
 51
141.317761
  0
ARC
  8
LY_1
  6
CONTINUOUS
 62
     3
  5
91
 10
-19.5
 20
106.5
 30
0.0
 40
3.0
 50
270.000018
 51
321.31789
  0
ARC
  8
LY_1
  6
CONTINUOUS
 62
     3
  5
92
 10
-14.816238
 20
157.25
 30
0.0
 40
3.0
 50
218.682184
 51
270.000018
  0
ARC
  8
LY_1
  6
CONTINUOUS
 62
     3
  5
93
 10
-19.5
 20
153.5
 30
0.0
 40
3.0
 50
38.68211
 51
89.999982
  0
ARC
  8
LY_1
  6
CONTINUOUS
 62
     3
  5
94
 10
176.799988
 20
31.199997
 30
0.0
 40
0.8
 50
89.999982
 51
179.999964
  0
CIRCLE
  8
LY_1
  6
CONTINUOUS
 62
   110
  5
95
 10
190.0
 20
0.0
 30
0.0
 40
23.901489
  0
CIRCLE
  8
LY_1
  6
CONTINUOUS
 62
     3
  5
96
 10
190.0
 20
0.0
 30
0.0
 40
22.401489
  0
LINE
  8
LY_1
  6
CONTINUOUS
 62
     3
  5
97
 10
-23.500005
 20
159.649997
 30
0.0
 11
-21.681349
 21
156.49999
 31
0.0
  0
LINE
  8
LY_1
  6
CONTINUOUS
 62
     3
  5
98
 10
21.500009
 20
159.650005
 30
0.0
 11
19.681353
 21
156.499998
 31
0.0
  0
LINE
  8
LY_1
  6
CONTINUOUS
 62
     3
  5
99
 10
-23.500002
 20
100.350003
 30
0.0
 11
-21.681346
 21
103.50001
 31
0.0
  0
LINE
  8
LY_1
  6
CONTINUOUS
 62
     3
  5
9A
 10
21.5
 20
100.349979
 30
0.0
 11
19.681344
 21
103.499985
 31
0.0
  0
LINE
  8
LY_1
  6
CONTINUOUS
 62
     3
  5
9B
 10
-23.5
 20
0.0
 30
0.0
 11
-42.5
 21
0.0
 31
0.0
  0
LINE
  8
LY_1
  6
CONTINUOUS
 62
     3
  5
9C
 10
21.5
 20
0.0
 30
0.0
 11
40.5
 21
0.0
 31
0.0
  0
LINE
  8
LY_1
  6
CONTINUOUS
 62
     3
  5
9D
 10
28.198013
 20
139.395218
 30
0.0
 11
28.198013
 21
119.861526
 31
0.0
  0
LINE
  8
LY_1
  6
CONTINUOUS
 62
     3
  5
9E
 10
17.698029
 20
139.320801
 30
0.0
 11
17.698029
 21
120.121979
 31
0.0
  0
LINE
  8
LY_1
  6
PHANTOM
 62
   110
  5
9F
 10
11.0
 20
130.0
 30
0.0
 11
11.0
 21
91.206467
 31
0.0
  0
LINE
  8
LY_1
  6
PHANTOM
 62
   110
  5
A0
 10
8.0
 20
145.0
 30
0.0
 11
8.0
 21
139.0
 31
0.0
  0
LINE
  8
LY_1
  6
PHANTOM
 62
   110
  5
A1
 10
4.0
 20
149.0
 30
0.0
 11
0.0
 21
149.0
 31
0.0
  0
LINE
  8
LY_1
  6
PHANTOM
 62
   110
  5
A2
 10
-11.0
 20
130.0
 30
0.0
 11
-11.0
 21
91.206467
 31
0.0
  0
LINE
  8
LY_1
  6
CONTINUOUS
 62
     3
  5
A3
 10
70.522903
 20
132.713669
 30
0.0
 11
74.363464
 21
132.713669
 31
0.0
  0
LINE
  8
LY_1
  6
CONTINUOUS
 62
     3
  5
A4
 10
69.230164
 20
126.5
 30
0.0
 11
75.698166
 21
126.5
 31
0.0
  0
LINE
  8
LY_1
  6
CONTINUOUS
 62
     3
  5
A5
 10
75.698166
 20
128.425003
 30
0.0
 11
72.016068
 21
128.425003
 31
0.0
  0
LINE
  8
LY_1
  6
CONTINUOUS
 62
     3
  5
A6
 10
76.292111
 20
131.780209
 30
0.0
 11
72.01589
 21
128.424948
 31
0.0
  0
LINE
  8
LY_1
  6
CONTINUOUS
 62
     3
  5
A7
 10
74.363273
 20
132.713577
 30
0.0
 11
68.635867
 21
128.21967
 31
0.0
  0
LINE
  8
LY_1
  6
CONTINUOUS
 62
     3
  5
A8
 10
69.576675
 20
133.5
 30
0.0
 11
75.698166
 21
133.5
 31
0.0
  0
LINE
  8
LY_1
  6
CONTINUOUS
 62
     3
  5
A9
 10
60.79454
 20
132.713669
 30
0.0
 11
62.25943
 21
132.713669
 31
0.0
  0
LINE
  8
LY_1
  6
CONTINUOUS
 62
     3
  5
AA
 10
64.184418
 20
131.574997
 30
0.0
 11
66.280823
 21
131.574997
 31
0.0
  0
LINE
  8
LY_1
  6
CONTINUOUS
 62
     3
  5
AB
 10
64.184418
 20
131.574997
 30
0.0
 11
64.184418
 21
127.462494
 31
0.0
  0
LINE
  8
LY_1
  6
CONTINUOUS
 62
     3
  5
AC
 10
62.25943
 20
132.713669
 30
0.0
 11
62.25943
 21
127.462494
 31
0.0
  0
LINE
  8
LY_1
  6
CONTINUOUS
 62
     3
  5
AD
 10
55.589966
 20
127.462494
 30
0.0
 11
55.589966
 21
132.537491
 31
0.0
  0
LINE
  8
LY_1
  6
CONTINUOUS
 62
     3
  5
AE
 10
57.514969
 20
132.537491
 30
0.0
 11
57.514969
 21
127.462494
 31
0.0
  0
LINE
  8
LY_1
  6
CONTINUOUS
 62
     3
  5
AF
 10
50.452657
 20
130.586223
 30
0.0
 11
52.466618
 21
131.987661
 31
0.0
  0
LINE
  8
LY_1
  6
CONTINUOUS
 62
     3
  5
B0
 10
50.452651
 20
130.586205
 30
0.0
 11
53.806389
 21
128.252468
 31
0.0
  0
LINE
  8
LY_1
  6
CONTINUOUS
 62
     3
  5
B1
 10
47.925001
 20
129.999937
 30
0.0
 11
52.706878
 21
133.327461
 31
0.0
  0
LINE
  8
LY_1
  6
CONTINUOUS
 62
     3
  5
B2
 10
47.924997
 20
129.999914
 30
0.0
 11
52.706862
 21
126.672399
 31
0.0
  0
LINE
  8
LY_1
  6
CONTINUOUS
 62
     3
  5
B3
 10
47.924988
 20
132.537491
 30
0.0
 11
47.924988
 21
127.462494
 31
0.0
  0
LINE
  8
LY_1
  6
CONTINUOUS
 62
     3
  5
B4
 10
46.0
 20
132.537491
 30
0.0
 11
46.0
 21
127.462494
 31
0.0
  0
LINE
  8
LY_1
  6
CONTINUOUS
 62
     3
  5
B5
 10
59.848312
 20
133.5
 30
0.0
 11
66.280823
 21
133.5
 31
0.0
  0
LINE
  8
LY_1
  6
CONTINUOUS
 62
     3
  5
B6
 10
6.0
 20
19.429581
 30
0.0
 11
6.0
 21
-21.051651
 31
0.0
  0
LINE
  8
LY_1
  6
CONTINUOUS
 62
     3
  5
B7
 10
-16.5
 20
22.155884
 30
0.0
 11
-16.5
 21
-20.679581
 31
0.0
  0
LINE
  8
LY_1
  6
CONTINUOUS
 62
     3
  5
B8
 10
180.5
 20
27.5
 30
0.0
 11
199.5
 21
27.5
 31
0.0
  0
LINE
  8
LY_1
  6
CONTINUOUS
 62
     3
  5
B9
 10
180.5
 20
28.699997
 30
0.0
 11
180.5
 21
27.100006
 31
0.0
  0
LINE
  8
LY_1
  6
CONTINUOUS
 62
     3
  5
BA
 10
199.5
 20
28.699997
 30
0.0
 11
199.5
 21
26.5
 31
0.0
  0
LINE
  8
LY_1
  6
CONTINUOUS
 62
     3
  5
BB
 10
179.0
 20
37.50383
 30
0.0
 11
201.0
 21
37.50383
 31
0.0
  0
LINE
  8
LY_1
  6
CONTINUOUS
 62
     3
  5
BC
 10
179.0
 20
28.699997
 30
0.0
 11
201.0
 21
28.699997
 31
0.0
  0
LINE
  8
LY_1
  6
CONTINUOUS
 62
     3
  5
BD
 10
179.0
 20
60.600006
 30
0.0
 11
201.0
 21
60.600006
 31
0.0
  0
LINE
  8
LY_1
  6
CONTINUOUS
 62
     3
  5
BE
 10
179.0
 20
28.699997
 30
0.0
 11
179.0
 21
65.0
 31
0.0
  0
LINE
  8
LY_1
  6
CONTINUOUS
 62
     3
  5
BF
 10
179.0
 20
65.0
 30
0.0
 11
201.0
 21
65.0
 31
0.0
  0
LINE
  8
LY_1
  6
CONTINUOUS
 62
     3
  5
C0
 10
201.0
 20
28.699997
 30
0.0
 11
201.0
 21
65.0
 31
0.0
  0
LINE
  8
LY_1
  6
CONTINUOUS
 62
     3
  5
C1
 10
-4.899994
 20
41.700027
 30
0.0
 11
-4.899994
 21
34.700027
 31
0.0
  0
LINE
  8
LY_1
  6
CONTINUOUS
 62
     3
  5
C2
 10
4.899994
 20
41.700027
 30
0.0
 11
4.899994
 21
34.700027
 31
0.0
  0
LINE
  8
LY_1
  6
CONTINUOUS
 62
     3
  5
C3
 10
-15.652481
 20
32.0
 30
0.0
 11
-15.652481
 21
26.5
 31
0.0
  0
LINE
  8
LY_1
  6
CONTINUOUS
 62
     3
  5
C4
 10
9.8
 20
130.000004
 30
0.0
 11
4.899998
 21
121.512952
 31
0.0
  0
LINE
  8
LY_1
  6
CONTINUOUS
 62
     3
  5
C5
 10
4.899993
 20
121.512955
 30
0.0
 11
-4.899995
 21
121.512955
 31
0.0
  0
LINE
  8
LY_1
  6
CONTINUOUS
 62
     3
  5
C6
 10
-4.899998
 20
121.512952
 30
0.0
 11
-9.799992
 21
129.999991
 31
0.0
  0
LINE
  8
LY_1
  6
CONTINUOUS
 62
     3
  5
C7
 10
-9.799995
 20
129.999998
 30
0.0
 11
-4.899993
 21
138.487049
 31
0.0
  0
LINE
  8
LY_1
  6
CONTINUOUS
 62
     3
  5
C8
 10
-4.899995
 20
138.487045
 30
0.0
 11
4.900008
 21
138.487045
 31
0.0
  0
LINE
  8
LY_1
  6
CONTINUOUS
 62
     3
  5
C9
 10
4.900001
 20
138.487036
 30
0.0
 11
9.799995
 21
129.999998
 31
0.0
  0
LINE
  8
LY_1
  6
CONTINUOUS
 62
     3
  5
CA
 10
-10.75
 20
34.700027
 30
0.0
 11
-10.75
 21
31.700027
 31
0.0
  0
LINE
  8
LY_1
  6
CONTINUOUS
 62
     3
  5
CB
 10
-10.75
 20
34.700027
 30
0.0
 11
10.75
 21
34.700027
 31
0.0
  0
LINE
  8
LY_1
  6
CONTINUOUS
 62
     3
  5
CC
 10
10.75
 20
34.700027
 30
0.0
 11
10.75
 21
31.700027
 31
0.0
  0
LINE
  8
LY_1
  6
CONTINUOUS
 62
     3
  5
CD
 10
-10.999985
 20
28.699997
 30
0.0
 11
17.698029
 21
28.699997
 31
0.0
  0
LINE
  8
LY_1
  6
CONTINUOUS
 62
     3
  5
CE
 10
-9.5
 20
27.5
 30
0.0
 11
9.5
 21
27.5
 31
0.0
  0
LINE
  8
LY_1
  6
CONTINUOUS
 62
     3
  5
CF
 10
-42.5
 20
26.5
 30
0.0
 11
9.5
 21
26.5
 31
0.0
  0
LINE
  8
LY_1
  6
CONTINUOUS
 62
     3
  5
D0
 10
-6.0
 20
45.199997
 30
0.0
 11
6.0
 21
45.199997
 31
0.0
  0
LINE
  8
LY_1
  6
CONTINUOUS
 62
     3
  5
D1
 10
40.5
 20
118.300003
 30
0.0
 11
40.5
 21
100.349991
 31
0.0
  0
LINE
  8
LY_1
  6
CONTINUOUS
 62
     3
  5
D2
 10
0.0
 20
141.0
 30
0.0
 11
21.13559
 21
141.0
 31
0.0
  0
LINE
  8
LY_1
  6
CONTINUOUS
 62
     3
  5
D3
 10
-4.472137
 20
134.0
 30
0.0
 11
4.451736
 21
134.0
 31
0.0
  0
LINE
  8
LY_1
  6
CONTINUOUS
 62
     3
  5
D4
 10
-4.472137
 20
126.0
 30
0.0
 11
4.451767
 21
126.0
 31
0.0
  0
LINE
  8
LY_1
  6
CONTINUOUS
 62
     3
  5
D5
 10
21.13559
 20
141.699997
 30
0.0
 11
79.324692
 21
141.699997
 31
0.0
  0
LINE
  8
LY_1
  6
CONTINUOUS
 62
     3
  5
D6
 10
79.348849
 20
141.698305
 30
0.0
 11
119.697616
 21
138.876838
 31
0.0
  0
LINE
  8
LY_1
  6
CONTINUOUS
 62
     3
  5
D7
 10
125.0
 20
133.19072
 30
0.0
 11
125.0
 21
126.809265
 31
0.0
  0
LINE
  8
LY_1
  6
CONTINUOUS
 62
     3
  5
D8
 10
79.348844
 20
118.301707
 30
0.0
 11
119.697629
 21
121.123165
 31
0.0
  0
LINE
  8
LY_1
  6
CONTINUOUS
 62
     3
  5
D9
 10
21.13559
 20
118.300003
 30
0.0
 11
79.324615
 21
118.300003
 31
0.0
  0
LINE
  8
LY_1
  6
CONTINUOUS
 62
     3
  5
DA
 10
21.13559
 20
141.699997
 30
0.0
 11
21.13559
 21
118.300003
 31
0.0
  0
LINE
  8
LY_1
  6
CONTINUOUS
 62
     3
  5
DB
 10
-15.0
 20
138.0
 30
0.0
 11
-9.0
 21
138.0
 31
0.0
  0
LINE
  8
LY_1
  6
CONTINUOUS
 62
     3
  5
DC
 10
-19.0
 20
134.0
 30
0.0
 11
-19.0
 21
130.0
 31
0.0
  0
LINE
  8
LY_1
  6
CONTINUOUS
 62
     3
  5
DD
 10
0.0
 20
119.0
 30
0.0
 11
21.13559
 21
119.0
 31
0.0
  0
LINE
  8
LY_1
  6
CONTINUOUS
 62
     3
  5
DE
 10
-19.0
 20
130.0
 30
0.0
 11
-11.0
 21
130.0
 31
0.0
  0
LINE
  8
LY_1
  6
CONTINUOUS
 62
     3
  5
DF
 10
9.800003
 20
41.700027
 30
0.0
 11
9.800003
 21
34.700027
 31
0.0
  0
LINE
  8
LY_1
  6
CONTINUOUS
 62
   110
  5
E0
 10
6.0
 20
45.199997
 30
0.0
 11
6.0
 21
41.700027
 31
0.0
  0
LINE
  8
LY_1
  6
CONTINUOUS
 62
     3
  5
E1
 10
-9.800003
 20
41.700027
 30
0.0
 11
9.800003
 21
41.700027
 31
0.0
  0
LINE
  8
LY_1
  6
CONTINUOUS
 62
     3
  5
E2
 10
-9.800003
 20
41.700027
 30
0.0
 11
-9.800003
 21
34.700027
 31
0.0
  0
LINE
  8
LY_1
  6
CONTINUOUS
 62
   110
  5
E3
 10
-6.0
 20
45.199997
 30
0.0
 11
-6.0
 21
41.700027
 31
0.0
  0
LINE
  8
LY_1
  6
CONTINUOUS
 62
     3
  5
E4
 10
-19.0
 20
31.199997
 30
0.0
 11
-19.0
 21
26.5
 31
0.0
  0
LINE
  8
LY_1
  6
CONTINUOUS
 62
     3
  5
E5
 10
125.0
 20
65.0
 30
0.0
 11
125.0
 21
60.600006
 31
0.0
  0
LINE
  8
LY_1
  6
CONTINUOUS
 62
     3
  5
E6
 10
33.487717
 20
60.600006
 30
0.0
 11
125.0
 21
60.600006
 31
0.0
  0
LINE
  8
LY_1
  6
CONTINUOUS
 62
     3
  5
E7
 10
31.269989
 20
58.909645
 30
0.0
 11
25.385662
 21
37.50384
 31
0.0
  0
LINE
  8
LY_1
  6
CONTINUOUS
 62
     3
  5
E8
 10
33.339111
 20
65.0
 30
0.0
 11
125.0
 21
65.0
 31
0.0
  0
LINE
  8
LY_1
  6
CONTINUOUS
 62
     3
  5
E9
 10
26.867405
 20
60.034091
 30
0.0
 11
21.006794
 21
38.161994
 31
0.0
  0
LINE
  8
LY_1
  6
CONTINUOUS
 62
     3
  5
EA
 10
25.385654
 20
37.503813
 30
0.0
 11
21.135584
 21
38.142615
 31
0.0
  0
LINE
  8
LY_1
  6
CONTINUOUS
 62
     3
  5
EB
 10
24.713121
 20
37.604916
 30
0.0
 11
23.493588
 21
33.147093
 31
0.0
  0
LINE
  8
LY_1
  6
CONTINUOUS
 62
     3
  5
EC
 10
21.725772
 20
38.053939
 30
0.0
 11
20.595814
 21
33.923547
 31
0.0
  0
LINE
  8
LY_1
  6
CONTINUOUS
 62
     3
  5
ED
 10
-10.999985
 20
31.700027
 30
0.0
 11
17.698029
 21
31.700027
 31
0.0
  0
LINE
  8
LY_1
  6
CONTINUOUS
 62
     3
  5
EE
 10
-9.5
 20
28.699997
 30
0.0
 11
-9.5
 21
27.100006
 31
0.0
  0
LINE
  8
LY_1
  6
CONTINUOUS
 62
     3
  5
EF
 10
9.5
 20
28.699997
 30
0.0
 11
9.5
 21
26.5
 31
0.0
  0
LINE
  8
LY_1
  6
CONTINUOUS
 62
     3
  5
F0
 10
-9.5
 20
27.100006
 30
0.0
 11
-9.5
 21
26.5
 31
0.0
  0
LINE
  8
LY_1
  6
CONTINUOUS
 62
     3
  5
F1
 10
4.472137
 20
45.199997
 30
0.0
 11
4.472137
 21
41.700027
 31
0.0
  0
LINE
  8
LY_1
  6
CONTINUOUS
 62
     3
  5
F2
 10
-4.472137
 20
45.199997
 30
0.0
 11
-4.472137
 21
41.700027
 31
0.0
  0
LINE
  8
LY_1
  6
CONTINUOUS
 62
     3
  5
F3
 10
-10.999985
 20
32.0
 30
0.0
 11
-10.999985
 21
26.5
 31
0.0
  0
LINE
  8
LY_1
  6
CONTINUOUS
 62
     3
  5
F4
 10
-18.199997
 20
32.0
 30
0.0
 11
-10.999985
 21
32.0
 31
0.0
  0
LINE
  8
LY_1
  6
CONTINUOUS
 62
     3
  5
F5
 10
9.5
 20
26.5
 30
0.0
 11
40.5
 21
26.5
 31
0.0
  0
LINE
  8
LY_1
  6
CONTINUOUS
 62
     3
  5
F6
 10
9.0
 20
-26.5
 30
0.0
 11
40.5
 21
-26.5
 31
0.0
  0
LINE
  8
LY_1
  6
CONTINUOUS
 62
     3
  5
F7
 10
-14.816238
 20
-24.25
 30
0.0
 11
4.316254
 21
-24.25
 31
0.0
  0
LINE
  8
LY_1
  6
CONTINUOUS
 62
     3
  5
F8
 10
-42.5
 20
26.5
 30
0.0
 11
-42.5
 21
-26.5
 31
0.0
  0
LINE
  8
LY_1
  6
CONTINUOUS
 62
     3
  5
F9
 10
40.5
 20
26.5
 30
0.0
 11
40.5
 21
-26.5
 31
0.0
  0
LINE
  8
LY_1
  6
CONTINUOUS
 62
     3
  5
FA
 10
-42.5
 20
-26.5
 30
0.0
 11
-19.5
 21
-26.5
 31
0.0
  0
LINE
  8
LY_1
  6
CONTINUOUS
 62
     3
  5
FB
 10
-16.251465
 20
116.700012
 30
0.0
 11
-42.5
 21
116.700012
 31
0.0
  0
LINE
  8
LY_1
  6
CONTINUOUS
 62
     3
  5
FC
 10
40.5
 20
116.700012
 30
0.0
 11
-11.0
 21
116.700012
 31
0.0
  0
LINE
  8
LY_1
  6
CONTINUOUS
 62
     3
  5
FD
 10
0.0
 20
143.299988
 30
0.0
 11
40.5
 21
143.299988
 31
0.0
  0
LINE
  8
LY_1
  6
CONTINUOUS
 62
     3
  5
FE
 10
-42.5
 20
143.299988
 30
0.0
 11
0.0
 21
143.299988
 31
0.0
  0
LINE
  8
LY_1
  6
CONTINUOUS
 62
     3
  5
FF
 10
-11.0
 20
125.204163
 30
0.0
 11
-11.0
 21
116.799988
 31
0.0
  0
LINE
  8
LY_1
  6
CONTINUOUS
 62
     3
  5
100
 10
-19.0
 20
130.0
 30
0.0
 11
-19.0
 21
121.055725
 31
0.0
  0
LINE
  8
LY_1
  6
CONTINUOUS
 62
     3
  5
101
 10
-15.652466
 20
116.0
 30
0.0
 11
-11.799988
 21
116.0
 31
0.0
  0
LINE
  8
LY_1
  6
CONTINUOUS
 62
     3
  5
102
 10
4.316254
 20
105.75
 30
0.0
 11
-14.816238
 21
105.75
 31
0.0
  0
LINE
  8
LY_1
  6
CONTINUOUS
 62
     3
  5
103
 10
-14.816238
 20
154.25
 30
0.0
 11
4.316254
 21
154.25
 31
0.0
  0
LINE
  8
LY_1
  6
CONTINUOUS
 62
     3
  5
104
 10
19.681351
 20
103.5
 30
0.0
 11
9.0
 21
103.5
 31
0.0
  0
LINE
  8
LY_1
  6
CONTINUOUS
 62
     3
  5
105
 10
9.0
 20
156.5
 30
0.0
 11
19.681351
 21
156.5
 31
0.0
  0
LINE
  8
LY_1
  6
CONTINUOUS
 62
     3
  5
106
 10
21.5
 20
100.349991
 30
0.0
 11
40.5
 21
100.349991
 31
0.0
  0
LINE
  8
LY_1
  6
CONTINUOUS
 62
     3
  5
107
 10
21.5
 20
159.649994
 30
0.0
 11
40.5
 21
159.649994
 31
0.0
  0
LINE
  8
LY_1
  6
CONTINUOUS
 62
     3
  5
108
 10
-19.5
 20
103.5
 30
0.0
 11
-21.681335
 21
103.5
 31
0.0
  0
LINE
  8
LY_1
  6
CONTINUOUS
 62
     3
  5
109
 10
-21.681351
 20
156.5
 30
0.0
 11
-19.5
 21
156.5
 31
0.0
  0
LINE
  8
LY_1
  6
CONTINUOUS
 62
     3
  5
10A
 10
-42.5
 20
100.349991
 30
0.0
 11
-23.5
 21
100.349991
 31
0.0
  0
LINE
  8
LY_1
  6
CONTINUOUS
 62
     3
  5
10B
 10
-42.5
 20
159.649994
 30
0.0
 11
-23.5
 21
159.649994
 31
0.0
  0
LINE
  8
LY_1
  6
CONTINUOUS
 62
     3
  5
10C
 10
-42.5
 20
159.649994
 30
0.0
 11
-42.5
 21
100.349991
 31
0.0
  0
LINE
  8
LY_1
  6
CONTINUOUS
 62
     3
  5
10D
 10
40.5
 20
159.649994
 30
0.0
 11
40.5
 21
141.699997
 31
0.0
  0
LINE
  8
LY_1
  6
CONTINUOUS
 62
     3
  5
10E
 10
176.0
 20
31.199997
 30
0.0
 11
176.0
 21
26.5
 31
0.0
  0
LINE
  8
LY_1
  6
CONTINUOUS
 62
     3
  5
10F
 10
176.799988
 20
32.0
 30
0.0
 11
179.0
 21
32.0
 31
0.0
  0
LINE
  8
LY_1
  6
CONTINUOUS
 62
     3
  5
110
 10
174.700203
 20
26.500012
 30
0.0
 11
159.400416
 21
-0.000002
 31
0.0
  0
LINE
  8
LY_1
  6
CONTINUOUS
 62
     3
  5
111
 10
220.599544
 20
0.000002
 30
0.0
 11
205.299764
 21
-26.499999
 31
0.0
  0
LINE
  8
LY_1
  6
CONTINUOUS
 62
     3
  5
112
 10
205.299752
 20
26.499994
 30
0.0
 11
220.599534
 21
-0.000005
 31
0.0
  0
LINE
  8
LY_1
  6
CONTINUOUS
 62
     3
  5
113
 10
159.400407
 20
-0.000006
 30
0.0
 11
174.700188
 21
-26.500005
 31
0.0
  0
LINE
  8
LY_1
  6
CONTINUOUS
 62
     3
  5
114
 10
174.700195
 20
-26.5
 30
0.0
 11
205.299759
 21
-26.5
 31
0.0
  0
LINE
  8
LY_1
  6
CONTINUOUS
 62
     3
  5
115
 10
174.700195
 20
26.5
 30
0.0
 11
205.299759
 21
26.5
 31
0.0
  0
LINE
  8
LY_1
  6
CENTER
 62
   110
  5
117
 10
-47.160248
 20
0.0
 30
0.0
 11
53.127136
 21
0.0
 31
0.0
  0
LINE
  8
LY_1
  6
CENTER
 62
   110
  5
118
 10
0.0
 20
54.421021
 30
0.0
 11
0.0
 21
-29.25
 31
0.0
  0
LINE
  8
LY_1
  6
CENTER
 62
   110
  5
119
 10
0.0
 20
89.600327
 30
0.0
 11
0.0
 21
163.110977
 31
0.0
  0
LINE
  8
LY_1
  6
CENTER
 62
   110
  5
11A
 10
-47.160248
 20
130.0
 30
0.0
 11
127.878128
 21
130.0
 31
0.0
  0
LINE
  8
LY_1
  6
CENTER
 62
   110
  5
11B
 10
190.0
 20
68.568008
 30
0.0
 11
190.0
 21
-36.377426
 31
0.0
  0
LINE
  8
LY_1
  6
CENTER
 62
   110
  5
11C
 10
147.429413
 20
0.0
 30
0.0
 11
231.177765
 21
0.0
 31
0.0
  0
ENDSEC
  0
EOF
