  0
SECTION
  2
HEADER
  9
$ACADVER
  1
AC1009
  9
$DWGCODEPAGE
  3
dos932
  9
$INSBASE
 10
0.0
 20
0.0
 30
0.0
  9
$EXTMIN
 10
-104.24281
 20
-125.114703
 30
0.0
  9
$EXTMAX
 10
283.323975
 20
313.547852
 30
0.0
  9
$LIMMIN
 10
-104.24281
 20
-125.114703
  9
$LIMMAX
 10
283.323975
 20
313.547852
  9
$ORTHOMODE
 70
     0
  9
$REGENMODE
 70
     1
  9
$FILLMODE
 70
     1
  9
$QTEXTMODE
 70
     0
  9
$MIRRTEXT
 70
     1
  9
$DRAGMODE
 70
     2
  9
$LTSCALE
 40
1.0
  9
$OSMODE
 70
     0
  9
$ATTMODE
 70
     1
  9
$TEXTSIZE
 40
3.3
  9
$TRACEWID
 40
0.05
  9
$TEXTSTYLE
  7
MX_NOTE_STANDARD
  9
$CLAYER
  8
LY_1
  9
$CELTYPE
  6
CONTINUOUS
  9
$CECOLOR
 62
   256
  9
$DIMSCALE
 40
1.0
  9
$DIMASZ
 40
2.5
  9
$DIMEXO
 40
0.0
  9
$DIMDLI
 40
3.75
  9
$DIMRND
 40
0.0
  9
$DIMDLE
 40
0.0
  9
$DIMEXE
 40
1.1938
  9
$DIMTP
 40
0.0
  9
$DIMTM
 40
0.0
  9
$DIMTXT
 40
3.3
  9
$DIMCEN
 40
2.5
  9
$DIMTSZ
 40
0.0
  9
$DIMTOL
 70
     0
  9
$DIMLIM
 70
     0
  9
$DIMTIH
 70
     0
  9
$DIMTOH
 70
     0
  9
$DIMSE1
 70
     0
  9
$DIMSE2
 70
     0
  9
$DIMTAD
 70
     1
  9
$DIMZIN
 70
     8
  9
$DIMBLK
  1

  9
$DIMASO
 70
     1
  9
$DIMSHO
 70
     1
  9
$DIMPOST
  1

  9
$DIMAPOST
  1

  9
$DIMALT
 70
     0
  9
$DIMALTD
 70
     4
  9
$DIMALTF
 40
0.03937
  9
$DIMLFAC
 40
1.0
  9
$DIMTOFL
 70
     1
  9
$DIMTVP
 40
0.0
  9
$DIMTIX
 70
     0
  9
$DIMSOXD
 70
     0
  9
$DIMSAH
 70
     1
  9
$DIMBLK1
  1
_OPEN30
  9
$DIMBLK2
  1
_OPEN30
  9
$DIMSTYLE
  2
MXDIMSTYLE
  9
$DIMCLRD
 70
     0
  9
$DIMCLRE
 70
     0
  9
$DIMCLRT
 70
     0
  9
$DIMTFAC
 40
1.0
  9
$DIMGAP
 40
1.0
  9
$LUNITS
 70
     2
  9
$LUPREC
 70
     4
  9
$AXISMODE
 70
     0
  9
$AXISUNIT
 10
0.0
 20
0.0
  9
$SKETCHINC
 40
0.1
  9
$FILLETRAD
 40
0.0
  9
$AUNITS
 70
     0
  9
$AUPREC
 70
     0
  9
$MENU
  1
acad
  9
$ELEVATION
 40
0.0
  9
$PELEVATION
 40
0.0
  9
$THICKNESS
 40
0.0
  9
$LIMCHECK
 70
     0
  9
$BLIPMODE
 70
     1
  9
$CHAMFERA
 40
0.0
  9
$CHAMFERB
 40
0.0
  9
$SKPOLY
 70
     0
  9
$TDCREATE
 40
2454901.550254630
  9
$TDUPDATE
 40
2454901.550254630
  9
$TDINDWG
 40
0.0000000000
  9
$TDUSRTIMER
 40
0.0000000000
  9
$USRTIMER
 70
     1
  9
$ANGBASE
 50
0.0
  9
$ANGDIR
 70
     0
  9
$PDMODE
 70
     0
  9
$PDSIZE
 40
0.0
  9
$PLINEWID
 40
0.0
  9
$COORDS
 70
     1
  9
$SPLFRAME
 70
     0
  9
$SPLINETYPE
 70
     6
  9
$SPLINESEGS
 70
     8
  9
$ATTDIA
 70
     0
  9
$ATTREQ
 70
     1
  9
$HANDLING
 70
     1
  9
$HANDSEED
  5
136
  9
$SURFTAB1
 70
     6
  9
$SURFTAB2
 70
     6
  9
$SURFTYPE
 70
     6
  9
$SURFU
 70
     6
  9
$SURFV
 70
     6
  9
$UCSNAME
  2

  9
$UCSORG
 10
0.0
 20
0.0
 30
0.0
  9
$UCSXDIR
 10
1.0
 20
0.0
 30
0.0
  9
$UCSYDIR
 10
0.0
 20
1.0
 30
0.0
  9
$PUCSNAME
  2

  9
$PUCSORG
 10
0.0
 20
0.0
 30
0.0
  9
$PUCSXDIR
 10
1.0
 20
0.0
 30
0.0
  9
$PUCSYDIR
 10
0.0
 20
1.0
 30
0.0
  9
$USERI1
 70
     0
  9
$USERI2
 70
     0
  9
$USERI3
 70
     0
  9
$USERI4
 70
     0
  9
$USERI5
 70
     0
  9
$USERR1
 40
0.0
  9
$USERR2
 40
0.0
  9
$USERR3
 40
0.0
  9
$USERR4
 40
0.0
  9
$USERR5
 40
0.0
  9
$WORLDVIEW
 70
     1
  9
$SHADEDGE
 70
     3
  9
$SHADEDIF
 70
    70
  9
$TILEMODE
 70
     1
  9
$MAXACTVP
 70
    16
  9
$PINSBASE
 10
0.0
 20
0.0
 30
0.0
  9
$PLIMCHECK
 70
     0
  9
$PEXTMIN
 10
1.000000E+20
 20
1.000000E+20
 30
1.000000E+20
  9
$PEXTMAX
 10
-1.000000E+20
 20
-1.000000E+20
 30
-1.000000E+20
  9
$PLIMMIN
 10
0.0
 20
0.0
  9
$PLIMMAX
 10
12.0
 20
9.0
  9
$UNITMODE
 70
     0
  9
$VISRETAIN
 70
     0
  9
$PLINEGEN
 70
     1
  9
$PSLTSCALE
 70
     0
  9
$TREEDEPTH
 70
  3020
  0
ENDSEC
  0
SECTION
  2
TABLES
  0
TABLE
  2
VPORT
 70
     1
  0
VPORT
  2
*ACTIVE
 70
     0
 10
0.0
 20
0.0
 11
1.0
 21
1.0
 12
89.540582
 22
94.216574
 13
0.0
 23
0.0
 14
1.0
 24
1.0
 15
0.0
 25
0.0
 16
0.0
 26
0.0
 36
1.0
 17
0.0
 27
0.0
 37
0.0
 40
443.04918
 41
1.732051
 42
50.0
 43
0.0
 44
0.0
 50
0.0
 51
0.0
 71
     0
 72
   100
 73
     1
 74
     1
 75
     0
 76
     0
 77
     0
 78
     0
  0
ENDTAB
  0
TABLE
  2
LTYPE
 70
     2
  0
LTYPE
  2
CONTINUOUS
 70
    64
  3
Solid line
 72
    65
 73
     0
 40
0.0
  0
LTYPE
  2
CENTER
 70
    64
  3
Center ____ _ ____ _ ____ _ ____ _ ____ _ ____
 72
    65
 73
     4
 40
50.8
 49
31.75
 49
-6.35
 49
6.35
 49
-6.35
  0
ENDTAB
  0
TABLE
  2
LAYER
 70
     3
  0
LAYER
  2
0
 70
     0
 62
     7
  6
CONTINUOUS
  0
LAYER
  2
LY_1
 70
     0
 62
     7
  6
CONTINUOUS
  0
LAYER
  2
DEFPOINTS
 70
     0
 62
     7
  6
CONTINUOUS
  0
ENDTAB
  0
TABLE
  2
STYLE
 70
     2
  0
STYLE
  2
MX_NOTE_STANDARD
 70
     0
 40
0.0
 41
1.0
 50
0.0
 71
     0
 42
3.3
  3
txt.shx
  4
extfont.shx
  0
STYLE
  2
MX_DIMTXSTY_2
 70
     0
 40
0.0
 41
1.05
 50
0.0
 71
     0
 42
3.3
  3
txt.shx
  4
extfont.shx
  0
ENDTAB
  0
TABLE
  2
VIEW
 70
     0
  0
ENDTAB
  0
TABLE
  2
UCS
 70
     0
  0
ENDTAB
  0
TABLE
  2
APPID
 70
     1
  0
APPID
  2
ACAD
 70
     0
  0
ENDTAB
  0
TABLE
  2
DIMSTYLE
 70
     1
  0
DIMSTYLE
  2
MXDIMSTYLE
 70
     0
  3

  4

  5

  6
_OPEN30
  7
_OPEN30
 40
1.0
 41
2.5
 42
0.0
 43
3.75
 44
1.1938
 45
0.0
 46
0.0
 47
0.0
 48
0.0
 71
     0
 72
     0
 73
     0
 74
     0
 75
     0
 76
     0
 77
     1
 78
     8
140
3.3
141
2.5
142
0.0
143
0.03937
144
1.0
145
0.0
146
1.0
147
1.0
170
     0
171
     4
172
     1
173
     1
174
     0
175
     0
176
     0
177
     0
178
     0
  0
ENDTAB
  0
ENDSEC
  0
SECTION
  2
BLOCKS
  0
BLOCK
  8
0
  6
BYBLOCK
 62
     0
  5
20
  2
_OPEN30
 70
     2
 10
0.0
 20
0.0
 30
0.0
  3
_OPEN30
  0
LINE
  8
0
  6
BYBLOCK
 62
     0
  5
21
 10
-1.0
 20
0.267949
 30
0.0
 11
0.0
 21
0.0
 31
0.0
  0
LINE
  8
0
  6
BYBLOCK
 62
     0
  5
22
 10
0.0
 20
0.0
 30
0.0
 11
-1.0
 21
-0.267949
 31
0.0
  0
LINE
  8
0
  6
BYBLOCK
 62
     0
  5
23
 10
0.0
 20
0.0
 30
0.0
 11
-1.0
 21
0.0
 31
0.0
  0
ENDBLK
  8
0
  6
BYBLOCK
 62
     0
  5
24
  0
BLOCK
  8
0
  6
BYBLOCK
 62
     0
  5
26
  2
*D1
 70
     1
 10
0.0
 20
0.0
 30
0.0
  3
*D1
  0
LINE
  8
0
  6
CONTINUOUS
 62
   110
  5
27
 10
110.5
 20
119.0
 30
0.0
 11
110.5
 21
0.0
 31
0.0
  0
LINE
  8
0
  6
CONTINUOUS
 62
   110
  5
28
 10
45.0
 20
119.0
 30
0.0
 11
111.693787
 21
119.0
 31
0.0
  0
LINE
  8
0
  6
CONTINUOUS
 62
   110
  5
29
 10
102.5
 20
0.0
 30
0.0
 11
111.693787
 21
0.0
 31
0.0
  0
INSERT
  8
0
  6
CONTINUOUS
 62
   110
  5
30
  2
_OPEN
 10
110.5
 20
119.0
 30
0.0
 41
2.19
 42
2.19
 50
90.0
 43
2.19
  0
INSERT
  8
0
  6
CONTINUOUS
 62
   110
  5
31
  2
_OPEN
 10
110.5
 20
0.0
 30
0.0
 41
2.19
 42
2.19
 50
270.0
 43
2.19
  0
TEXT
  8
0
  6
CONTINUOUS
 62
   110
  5
33
 10
109.5
 20
55.910643
 30
0.0
 40
3.3
  1
119
 50
90.0
 41
1.027733
  7
MX_DIMTXSTY_2
 11
107.85
 21
55.910643
 31
0.0
 73
     2
  0
POINT
  8
DEFPOINTS
  6
CONTINUOUS
 62
     0
  5
34
 10
45.0
 20
119.0
 30
0.0
  0
POINT
  8
DEFPOINTS
  6
CONTINUOUS
 62
     0
  5
35
 10
102.5
 20
0.0
 30
0.0
  0
POINT
  8
DEFPOINTS
  6
CONTINUOUS
 62
     0
  5
36
 10
110.5
 20
0.0
 30
0.0
  0
ENDBLK
  8
0
  6
BYBLOCK
 62
     0
  5
37
  0
BLOCK
  8
0
  6
BYBLOCK
 62
     0
  5
2B
  2
_OPEN
 70
     2
 10
0.0
 20
0.0
 30
0.0
  3
_OPEN
  0
LINE
  8
0
  6
BYBLOCK
 62
     0
  5
2C
 10
-1.0
 20
0.166667
 30
0.0
 11
0.0
 21
0.0
 31
0.0
  0
LINE
  8
0
  6
BYBLOCK
 62
     0
  5
2D
 10
0.0
 20
0.0
 30
0.0
 11
-1.0
 21
-0.166667
 31
0.0
  0
LINE
  8
0
  6
BYBLOCK
 62
     0
  5
2E
 10
0.0
 20
0.0
 30
0.0
 11
-1.0
 21
0.0
 31
0.0
  0
ENDBLK
  8
0
  6
BYBLOCK
 62
     0
  5
2F
  0
BLOCK
  8
0
  6
BYBLOCK
 62
     0
  5
3A
  2
*D3
 70
     1
 10
0.0
 20
0.0
 30
0.0
  3
*D3
  0
LINE
  8
0
  6
CONTINUOUS
 62
   110
  5
3B
 10
97.5
 20
-88.0
 30
0.0
 11
-97.5
 21
-88.0
 31
0.0
  0
LINE
  8
0
  6
CONTINUOUS
 62
   110
  5
3C
 10
97.5
 20
-71.149994
 30
0.0
 11
97.5
 21
-89.193787
 31
0.0
  0
LINE
  8
0
  6
CONTINUOUS
 62
   110
  5
3D
 10
-97.5
 20
-71.149994
 30
0.0
 11
-97.5
 21
-89.193787
 31
0.0
  0
INSERT
  8
0
  6
CONTINUOUS
 62
   110
  5
3E
  2
_OPEN
 10
97.5
 20
-88.0
 30
0.0
 41
2.19
 42
2.19
 43
2.19
  0
INSERT
  8
0
  6
CONTINUOUS
 62
   110
  5
3F
  2
_OPEN
 10
-97.5
 20
-88.0
 30
0.0
 41
2.19
 42
2.19
 50
180.0
 43
2.19
  0
TEXT
  8
0
  6
CONTINUOUS
 62
   110
  5
40
 10
-3.635284
 20
-87.0
 30
0.0
 40
3.3
  1
195
 41
0.94423
  7
MX_NOTE_STANDARD
 11
-3.635284
 21
-85.35
 31
0.0
 73
     2
  0
POINT
  8
DEFPOINTS
  6
CONTINUOUS
 62
     0
  5
41
 10
97.5
 20
-71.149994
 30
0.0
  0
POINT
  8
DEFPOINTS
  6
CONTINUOUS
 62
     0
  5
42
 10
-97.5
 20
-71.149994
 30
0.0
  0
POINT
  8
DEFPOINTS
  6
CONTINUOUS
 62
     0
  5
43
 10
-97.5
 20
-88.0
 30
0.0
  0
ENDBLK
  8
0
  6
BYBLOCK
 62
     0
  5
44
  0
ENDSEC
  0
SECTION
  2
ENTITIES
  0
DIMENSION
  8
LY_1
  6
CONTINUOUS
 62
   110
  5
38
  2
*D1
 10
110.5
 20
0.0
 30
0.0
 11
110.5
 21
59.5
 31
0.0
 70
   128
  1
<>
 13
45.0
 23
119.0
 33
0.0
 14
102.5
 24
0.0
 34
0.0
 50
90.0
  3
MXDIMSTYLE
1001
ACAD
1000
DSTYLE
1002
{
1070
     6
1000
_OPEN
1070
     7
1000
_OPEN
1070
    41
1040
2.19
1070
    44
1040
1.193787
1070
   271
1070
     0
1070
   284
1070
     8
1070
   340
1005
32
1070
   343
1005
2A
1070
   344
1005
2A
1002
}
  0
DIMENSION
  8
LY_1
  6
CONTINUOUS
 62
   110
  5
45
  2
*D3
 10
-97.5
 20
-88.0
 30
0.0
 11
0.0
 21
-88.0
 31
0.0
 70
   128
  1
<>
 13
97.5
 23
-71.149994
 33
0.0
 14
-97.5
 24
-71.149994
 34
0.0
  3
MXDIMSTYLE
1001
ACAD
1000
DSTYLE
1002
{
1070
     6
1000
_OPEN
1070
     7
1000
_OPEN
1070
    41
1040
2.19
1070
    44
1040
1.193787
1070
   271
1070
     0
1070
   284
1070
     8
1070
   343
1005
2A
1070
   344
1005
2A
1002
}
  0
TEXT
  8
LY_1
  6
CONTINUOUS
 62
   110
  5
46
 10
-103.584649
 20
-108.083591
 30
0.0
 40
4.167181
  1
      SWING CHECK VALVE 4
 41
0.947635
  7
MX_NOTE_STANDARD
 11
-103.584649
 21
-106.0
 31
0.0
 73
     2
  0
TEXT
  8
LY_1
  6
CONTINUOUS
 62
   110
  5
47
 10
-103.609061
 20
-124.083591
 30
0.0
 40
4.167181
  1
KITZ
 41
0.912486
  7
MX_NOTE_STANDARD
 11
-103.609061
 21
-122.0
 31
0.0
 73
     2
  0
TEXT
  8
LY_1
  6
CONTINUOUS
 62
   110
  5
48
 10
-103.524125
 20
-116.083591
 30
0.0
 40
4.167181
  1
FIG   R4
 41
1.034778
  7
MX_NOTE_STANDARD
 11
-103.524125
 21
-114.0
 31
0.0
 73
     2
  0
TEXT
  8
LY_1
  6
CONTINUOUS
 62
   110
  5
49
 10
-103.60692
 20
-100.083591
 30
0.0
 40
4.167181
  1
NAME  CLASS 125 CAST BRONZE
 41
0.915569
  7
MX_NOTE_STANDARD
 11
-103.60692
 21
-98.0
 31
0.0
 73
     2
  0
POLYLINE
  8
LY_1
  6
CONTINUOUS
 62
     3
  5
4A
 66
     1
 10
0.0
 20
0.0
 30
0.0
  0
VERTEX
  8
LY_1
  6
CONTINUOUS
 62
     3
  5
FD
 10
24.08596
 20
-3.312356
 30
0.0
  0
VERTEX
  8
LY_1
  6
CONTINUOUS
 62
     3
  5
FE
 10
24.077979
 20
-3.319409
 30
0.0
  0
VERTEX
  8
LY_1
  6
CONTINUOUS
 62
     3
  5
FF
 10
24.071062
 20
-3.327467
 30
0.0
  0
VERTEX
  8
LY_1
  6
CONTINUOUS
 62
     3
  5
100
 10
24.065339
 20
-3.336378
 30
0.0
  0
VERTEX
  8
LY_1
  6
CONTINUOUS
 62
     3
  5
101
 10
24.060918
 20
-3.345972
 30
0.0
  0
VERTEX
  8
LY_1
  6
CONTINUOUS
 62
     3
  5
102
 10
24.057883
 20
-3.356069
 30
0.0
  0
VERTEX
  8
LY_1
  6
CONTINUOUS
 62
     3
  5
103
 10
24.056291
 20
-3.366478
 30
0.0
  0
VERTEX
  8
LY_1
  6
CONTINUOUS
 62
     3
  5
104
 10
24.056172
 20
-3.377002
 30
0.0
  0
VERTEX
  8
LY_1
  6
CONTINUOUS
 62
     3
  5
105
 10
24.057529
 20
-3.387443
 30
0.0
  0
VERTEX
  8
LY_1
  6
CONTINUOUS
 62
     3
  5
106
 10
24.060335
 20
-3.397603
 30
0.0
  0
VERTEX
  8
LY_1
  6
CONTINUOUS
 62
     3
  5
107
 10
24.064539
 20
-3.40729
 30
0.0
  0
VERTEX
  8
LY_1
  6
CONTINUOUS
 62
     3
  5
108
 10
24.070059
 20
-3.416322
 30
0.0
  0
VERTEX
  8
LY_1
  6
CONTINUOUS
 62
     3
  5
109
 10
24.076793
 20
-3.424528
 30
0.0
  0
VERTEX
  8
LY_1
  6
CONTINUOUS
 62
     3
  5
10A
 10
24.084613
 20
-3.431752
 30
0.0
  0
VERTEX
  8
LY_1
  6
CONTINUOUS
 62
     3
  5
10B
 10
24.093371
 20
-3.437859
 30
0.0
  0
VERTEX
  8
LY_1
  6
CONTINUOUS
 62
     3
  5
10C
 10
24.102902
 20
-3.442732
 30
0.0
  0
VERTEX
  8
LY_1
  6
CONTINUOUS
 62
     3
  5
10D
 10
24.113025
 20
-3.446281
 30
0.0
  0
VERTEX
  8
LY_1
  6
CONTINUOUS
 62
     3
  5
10E
 10
24.12355
 20
-3.448437
 30
0.0
  0
VERTEX
  8
LY_1
  6
CONTINUOUS
 62
     3
  5
10F
 10
24.134277
 20
-3.44916
 30
0.0
  0
SEQEND
  8
LY_1
  6
CONTINUOUS
 62
     3
  5
110
  0
POLYLINE
  8
LY_1
  6
CONTINUOUS
 62
     3
  5
4B
 66
     1
 10
0.0
 20
0.0
 30
0.0
  0
VERTEX
  8
LY_1
  6
CONTINUOUS
 62
     3
  5
111
 10
28.981549
 20
5.806102
 30
0.0
  0
VERTEX
  8
LY_1
  6
CONTINUOUS
 62
     3
  5
112
 10
28.990014
 20
5.813628
 30
0.0
  0
VERTEX
  8
LY_1
  6
CONTINUOUS
 62
     3
  5
113
 10
28.997268
 20
5.822282
 30
0.0
  0
VERTEX
  8
LY_1
  6
CONTINUOUS
 62
     3
  5
114
 10
29.003155
 20
5.831878
 30
0.0
  0
VERTEX
  8
LY_1
  6
CONTINUOUS
 62
     3
  5
115
 10
29.00755
 20
5.842212
 30
0.0
  0
VERTEX
  8
LY_1
  6
CONTINUOUS
 62
     3
  5
116
 10
29.010359
 20
5.853062
 30
0.0
  0
VERTEX
  8
LY_1
  6
CONTINUOUS
 62
     3
  5
117
 10
29.011522
 20
5.864197
 30
0.0
  0
VERTEX
  8
LY_1
  6
CONTINUOUS
 62
     3
  5
118
 10
29.011015
 20
5.87538
 30
0.0
  0
VERTEX
  8
LY_1
  6
CONTINUOUS
 62
     3
  5
119
 10
29.008847
 20
5.88637
 30
0.0
  0
VERTEX
  8
LY_1
  6
CONTINUOUS
 62
     3
  5
11A
 10
29.005065
 20
5.896934
 30
0.0
  0
VERTEX
  8
LY_1
  6
CONTINUOUS
 62
     3
  5
11B
 10
28.99975
 20
5.906845
 30
0.0
  0
VERTEX
  8
LY_1
  6
CONTINUOUS
 62
     3
  5
11C
 10
28.993016
 20
5.915892
 30
0.0
  0
VERTEX
  8
LY_1
  6
CONTINUOUS
 62
     3
  5
11D
 10
28.985007
 20
5.923881
 30
0.0
  0
VERTEX
  8
LY_1
  6
CONTINUOUS
 62
     3
  5
11E
 10
28.975893
 20
5.930642
 30
0.0
  0
VERTEX
  8
LY_1
  6
CONTINUOUS
 62
     3
  5
11F
 10
28.96587
 20
5.936031
 30
0.0
  0
VERTEX
  8
LY_1
  6
CONTINUOUS
 62
     3
  5
120
 10
28.955151
 20
5.939932
 30
0.0
  0
VERTEX
  8
LY_1
  6
CONTINUOUS
 62
     3
  5
121
 10
28.943965
 20
5.942261
 30
0.0
  0
VERTEX
  8
LY_1
  6
CONTINUOUS
 62
     3
  5
122
 10
28.938577
 20
5.9428
 30
0.0
  0
VERTEX
  8
LY_1
  6
CONTINUOUS
 62
     3
  5
123
 10
28.933164
 20
5.942973
 30
0.0
  0
SEQEND
  8
LY_1
  6
CONTINUOUS
 62
     3
  5
124
  0
POLYLINE
  8
LY_1
  6
CONTINUOUS
 62
     3
  5
4C
 66
     1
 10
0.0
 20
0.0
 30
0.0
  0
VERTEX
  8
LY_1
  6
CONTINUOUS
 62
     3
  5
125
 10
-29.900682
 20
0.062756
 30
0.0
  0
VERTEX
  8
LY_1
  6
CONTINUOUS
 62
     3
  5
126
 10
-29.909048
 20
0.056162
 30
0.0
  0
VERTEX
  8
LY_1
  6
CONTINUOUS
 62
     3
  5
127
 10
-29.916412
 20
0.048509
 30
0.0
  0
VERTEX
  8
LY_1
  6
CONTINUOUS
 62
     3
  5
128
 10
-29.922636
 20
0.039941
 30
0.0
  0
VERTEX
  8
LY_1
  6
CONTINUOUS
 62
     3
  5
129
 10
-29.927602
 20
0.030619
 30
0.0
  0
VERTEX
  8
LY_1
  6
CONTINUOUS
 62
     3
  5
12A
 10
-29.931217
 20
0.020719
 30
0.0
  0
VERTEX
  8
LY_1
  6
CONTINUOUS
 62
     3
  5
12B
 10
-29.933412
 20
0.010428
 30
0.0
  0
VERTEX
  8
LY_1
  6
CONTINUOUS
 62
     3
  5
12C
 10
-29.934147
 20
-0.000061
 30
0.0
  0
VERTEX
  8
LY_1
  6
CONTINUOUS
 62
     3
  5
12D
 10
-29.933407
 20
-0.010549
 30
0.0
  0
VERTEX
  8
LY_1
  6
CONTINUOUS
 62
     3
  5
12E
 10
-29.931207
 20
-0.020839
 30
0.0
  0
VERTEX
  8
LY_1
  6
CONTINUOUS
 62
     3
  5
12F
 10
-29.927587
 20
-0.030737
 30
0.0
  0
VERTEX
  8
LY_1
  6
CONTINUOUS
 62
     3
  5
130
 10
-29.922616
 20
-0.040057
 30
0.0
  0
VERTEX
  8
LY_1
  6
CONTINUOUS
 62
     3
  5
131
 10
-29.916389
 20
-0.048622
 30
0.0
  0
VERTEX
  8
LY_1
  6
CONTINUOUS
 62
     3
  5
132
 10
-29.909021
 20
-0.056272
 30
0.0
  0
VERTEX
  8
LY_1
  6
CONTINUOUS
 62
     3
  5
133
 10
-29.900652
 20
-0.062862
 30
0.0
  0
SEQEND
  8
LY_1
  6
CONTINUOUS
 62
     3
  5
134
  0
ARC
  8
LY_1
  6
CONTINUOUS
 62
     3
  5
4D
 10
32.201233
 20
5.566203
 30
0.0
 40
2.098582
 50
307.524111
 51
89.999982
  0
ARC
  8
LY_1
  6
CONTINUOUS
 62
     3
  5
4E
 10
32.192261
 20
-5.556843
 30
0.0
 40
2.107803
 50
270.000018
 51
89.999982
  0
ARC
  8
LY_1
  6
CONTINUOUS
 62
     3
  5
4F
 10
17.620407
 20
-5.565947
 30
0.0
 40
2.098946
 50
127.524112
 51
270.000001
  0
ARC
  8
LY_1
  6
CONTINUOUS
 62
     3
  5
50
 10
18.449921
 20
5.511282
 30
0.0
 40
2.153489
 50
89.999982
 51
359.999983
  0
ARC
  8
LY_1
  6
CONTINUOUS
 62
     3
  5
51
 10
11.135985
 20
5.556514
 30
0.0
 40
2.107714
 50
270.000018
 51
89.999982
  0
ARC
  8
LY_1
  6
CONTINUOUS
 62
     3
  5
52
 10
4.24719
 20
-5.511271
 30
0.0
 40
2.153552
 50
180.000036
 51
0.000001
  0
ARC
  8
LY_1
  6
CONTINUOUS
 62
     3
  5
53
 10
-3.300829
 20
5.510696
 30
0.0
 40
2.153369
 50
89.999982
 51
359.999983
  0
ARC
  8
LY_1
  6
CONTINUOUS
 62
     3
  5
54
 10
-10.689975
 20
-5.511271
 30
0.0
 40
2.153523
 50
180.000036
 51
0.000001
  0
ARC
  8
LY_1
  6
CONTINUOUS
 62
     3
  5
55
 10
-10.689975
 20
5.511282
 30
0.0
 40
2.153523
 50
0.000018
 51
180.000019
  0
ARC
  8
LY_1
  6
CONTINUOUS
 62
     3
  5
56
 10
-17.951813
 20
5.110694
 30
0.0
 40
2.554255
 50
90.778951
 51
124.259063
  0
ARC
  8
LY_1
  6
CONTINUOUS
 62
     3
  5
57
 10
-18.018173
 20
5.55768
 30
0.0
 40
2.107287
 50
213.574514
 51
89.143203
  0
ARC
  8
LY_1
  6
CONTINUOUS
 62
     3
  5
58
 10
-18.056976
 20
-5.56191
 30
0.0
 40
2.122281
 50
235.740937
 51
55.740955
  0
ARC
  8
LY_1
  6
CONTINUOUS
 62
     3
  5
59
 10
-32.146698
 20
-5.511516
 30
0.0
 40
2.153394
 50
179.999964
 51
359.999983
  0
ARC
  8
LY_1
  6
CONTINUOUS
 62
     3
  5
5A
 10
-32.146698
 20
5.511522
 30
0.0
 40
2.153394
 50
0.000018
 51
180.000019
  0
ARC
  8
LY_1
  6
CONTINUOUS
 62
     3
  5
5B
 10
-71.062057
 20
302.053223
 30
0.0
 40
6.5
 50
230.357764
 51
290.725653
  0
ARC
  8
LY_1
  6
CONTINUOUS
 62
     3
  5
5C
 10
-71.062057
 20
165.042572
 30
0.0
 40
6.5
 50
69.274347
 51
129.642236
  0
ARC
  8
LY_1
  6
CONTINUOUS
 62
     3
  5
5D
 10
71.062057
 20
302.053223
 30
0.0
 40
6.5
 50
249.274328
 51
309.642248
  0
ARC
  8
LY_1
  6
CONTINUOUS
 62
     3
  5
5E
 10
0.0
 20
114.247803
 30
0.0
 40
194.300003
 50
69.274237
 51
110.72742
  0
ARC
  8
LY_1
  6
CONTINUOUS
 62
     3
  5
5F
 10
71.062057
 20
165.042572
 30
0.0
 40
6.5
 50
50.357752
 51
110.725672
  0
ARC
  8
LY_1
  6
CONTINUOUS
 62
     3
  5
60
 10
0.0
 20
352.8479
 30
0.0
 40
194.300003
 50
249.27258
 51
290.725763
  0
CIRCLE
  8
LY_1
  6
CONTINUOUS
 62
     3
  5
61
 10
0.0
 20
233.547852
 30
0.0
 40
63.0
  0
CIRCLE
  8
LY_1
  6
CONTINUOUS
 62
     3
  5
62
 10
0.0
 20
233.547852
 30
0.0
 40
45.0
  0
ARC
  8
LY_1
  6
CONTINUOUS
 62
     3
  5
63
 10
10.813416
 20
70.489365
 30
0.0
 40
130.0
 50
339.888354
 51
0.000002
  0
ARC
  8
LY_1
  6
CONTINUOUS
 62
     3
  5
64
 10
395.813477
 20
70.489197
 30
0.0
 40
130.0
 50
180.000019
 51
200.111593
  0
ARC
  8
LY_1
  6
CONTINUOUS
 62
     3
  5
65
 10
203.313416
 20
0.0
 30
0.0
 40
75.0
 50
159.888335
 51
20.111611
  0
CIRCLE
  8
LY_1
  6
CONTINUOUS
 62
     3
  5
66
 10
203.313416
 20
0.0
 30
0.0
 40
55.035995
  0
CIRCLE
  8
LY_1
  6
CONTINUOUS
 62
   110
  5
67
 10
203.313416
 20
0.0
 30
0.0
 40
56.514999
  0
CIRCLE
  8
LY_1
  6
CONTINUOUS
 62
     3
  5
68
 10
-42.0
 20
67.0
 30
0.0
 40
11.5
  0
CIRCLE
  8
LY_1
  6
CONTINUOUS
 62
     3
  5
69
 10
-42.0
 20
67.0
 30
0.0
 40
8.0
  0
ARC
  8
LY_1
  6
CONTINUOUS
 62
     3
  5
6A
 10
-68.5
 20
68.922852
 30
0.0
 40
6.0
 50
289.997992
 51
0.000036
  0
ARC
  8
LY_1
  6
CONTINUOUS
 62
     3
  5
6B
 10
0.0
 20
-119.300003
 30
0.0
 40
194.300003
 50
109.998011
 51
110.725781
  0
ARC
  8
LY_1
  6
CONTINUOUS
 62
     3
  5
6C
 10
68.5
 20
68.922852
 30
0.0
 40
6.0
 50
179.999964
 51
250.002026
  0
ARC
  8
LY_1
  6
CONTINUOUS
 62
     3
  5
6D
 10
-71.062057
 20
68.50528
 30
0.0
 40
6.5
 50
195.000006
 51
290.725653
  0
ARC
  8
LY_1
  6
CONTINUOUS
 62
     3
  5
6E
 10
71.062057
 20
68.50528
 30
0.0
 40
6.5
 50
249.274328
 51
345.0
  0
ARC
  8
LY_1
  6
CONTINUOUS
 62
     3
  5
6F
 10
0.0
 20
-119.300003
 30
0.0
 40
194.300003
 50
69.274237
 51
70.002008
  0
ARC
  8
LY_1
  6
CONTINUOUS
 62
     3
  5
70
 10
-71.062057
 20
-68.50528
 30
0.0
 40
6.5
 50
69.274347
 51
164.999994
  0
ARC
  8
LY_1
  6
CONTINUOUS
 62
     3
  5
71
 10
71.062057
 20
-68.50528
 30
0.0
 40
6.5
 50
15.0
 51
110.725672
  0
ARC
  8
LY_1
  6
CONTINUOUS
 62
     3
  5
72
 10
0.0
 20
119.300003
 30
0.0
 40
194.300003
 50
249.27258
 51
290.725763
  0
LINE
  8
LY_1
  6
CONTINUOUS
 62
     3
  5
73
 10
20.603317
 20
5.942938
 30
0.0
 11
20.603317
 21
5.511282
 31
0.0
  0
LINE
  8
LY_1
  6
CONTINUOUS
 62
     3
  5
74
 10
-1.147289
 20
5.942253
 30
0.0
 11
-1.147289
 21
5.510696
 31
0.0
  0
LINE
  8
LY_1
  6
CONTINUOUS
 62
     3
  5
75
 10
-1.147289
 20
5.942253
 30
0.0
 11
2.093748
 21
5.942253
 31
0.0
  0
LINE
  8
LY_1
  6
CONTINUOUS
 62
     3
  5
76
 10
6.40082
 20
3.448689
 30
0.0
 11
11.135985
 21
3.448689
 31
0.0
  0
LINE
  8
LY_1
  6
CONTINUOUS
 62
     3
  5
77
 10
6.40082
 20
3.448689
 30
0.0
 11
6.40082
 21
-5.511271
 31
0.0
  0
LINE
  8
LY_1
  6
CONTINUOUS
 62
     3
  5
78
 10
2.093748
 20
5.942253
 30
0.0
 11
2.093748
 21
-5.511271
 31
0.0
  0
LINE
  8
LY_1
  6
CONTINUOUS
 62
     3
  5
79
 10
-3.300829
 20
7.66399
 30
0.0
 11
11.135985
 21
7.66399
 31
0.0
  0
LINE
  8
LY_1
  6
CONTINUOUS
 62
     3
  5
7A
 10
20.603317
 20
5.942938
 30
0.0
 11
28.933167
 21
5.942938
 31
0.0
  0
LINE
  8
LY_1
  6
CONTINUOUS
 62
     3
  5
7B
 10
17.620407
 20
-7.664754
 30
0.0
 11
32.192261
 21
-7.664754
 31
0.0
  0
LINE
  8
LY_1
  6
CONTINUOUS
 62
     3
  5
7C
 10
32.192261
 20
-3.449167
 30
0.0
 11
24.134323
 21
-3.449167
 31
0.0
  0
LINE
  8
LY_1
  6
CONTINUOUS
 62
     3
  5
7D
 10
33.479596
 20
3.901843
 30
0.0
 11
24.085927
 21
-3.312451
 31
0.0
  0
LINE
  8
LY_1
  6
CONTINUOUS
 62
     3
  5
7E
 10
28.981644
 20
5.80595
 30
0.0
 11
16.3421
 21
-3.901161
 31
0.0
  0
LINE
  8
LY_1
  6
CONTINUOUS
 62
     3
  5
7F
 10
18.449921
 20
7.664771
 30
0.0
 11
32.201233
 21
7.664771
 31
0.0
  0
LINE
  8
LY_1
  6
CONTINUOUS
 62
     3
  5
80
 10
-12.843613
 20
-5.511271
 30
0.0
 11
-12.843613
 21
5.511282
 31
0.0
  0
LINE
  8
LY_1
  6
CONTINUOUS
 62
     3
  5
81
 10
-8.536441
 20
5.511282
 30
0.0
 11
-8.536441
 21
-5.511271
 31
0.0
  0
LINE
  8
LY_1
  6
CONTINUOUS
 62
     3
  5
82
 10
-24.337619
 20
1.283886
 30
0.0
 11
-19.773881
 21
4.392279
 31
0.0
  0
LINE
  8
LY_1
  6
CONTINUOUS
 62
     3
  5
83
 10
-24.337675
 20
1.283759
 30
0.0
 11
-16.862046
 21
-3.807943
 31
0.0
  0
LINE
  8
LY_1
  6
CONTINUOUS
 62
     3
  5
84
 10
-29.900641
 20
0.06267
 30
0.0
 11
-19.389724
 21
7.221727
 31
0.0
  0
LINE
  8
LY_1
  6
CONTINUOUS
 62
     3
  5
85
 10
-29.900489
 20
-0.063069
 30
0.0
 11
-19.251515
 21
-7.316158
 31
0.0
  0
LINE
  8
LY_1
  6
CONTINUOUS
 62
     3
  5
86
 10
-29.993439
 20
5.511522
 30
0.0
 11
-29.993439
 21
-5.511516
 31
0.0
  0
LINE
  8
LY_1
  6
CONTINUOUS
 62
     3
  5
87
 10
-34.300079
 20
5.511522
 30
0.0
 11
-34.300079
 21
-5.511516
 31
0.0
  0
LINE
  8
LY_1
  6
CONTINUOUS
 62
     3
  5
88
 10
140.313416
 20
101.007523
 30
0.0
 11
266.313477
 21
101.007523
 31
0.0
  0
LINE
  8
LY_1
  6
CONTINUOUS
 62
     3
  5
89
 10
-63.0
 20
101.007523
 30
0.0
 11
63.0
 21
101.007523
 31
0.0
  0
LINE
  8
LY_1
  6
CONTINUOUS
 62
     3
  5
8A
 10
203.313416
 20
116.806061
 30
0.0
 11
203.313416
 21
102.5
 31
0.0
  0
LINE
  8
LY_1
  6
CONTINUOUS
 62
     3
  5
8B
 10
168.106476
 20
116.806061
 30
0.0
 11
168.106476
 21
102.5
 31
0.0
  0
LINE
  8
LY_1
  6
CONTINUOUS
 62
     3
  5
8C
 10
238.520279
 20
116.806061
 30
0.0
 11
238.520279
 21
102.5
 31
0.0
  0
LINE
  8
LY_1
  6
CONTINUOUS
 62
     3
  5
8D
 10
0.0
 20
116.806061
 30
0.0
 11
0.0
 21
102.5
 31
0.0
  0
LINE
  8
LY_1
  6
CONTINUOUS
 62
     3
  5
8E
 10
-35.20694
 20
116.806061
 30
0.0
 11
-35.20694
 21
102.5
 31
0.0
  0
LINE
  8
LY_1
  6
CONTINUOUS
 62
     3
  5
8F
 10
35.206863
 20
116.806061
 30
0.0
 11
35.206863
 21
102.5
 31
0.0
  0
LINE
  8
LY_1
  6
CONTINUOUS
 62
     3
  5
90
 10
-30.50006
 20
176.547793
 30
0.0
 11
-30.404549
 21
178.370243
 31
0.0
  0
LINE
  8
LY_1
  6
CONTINUOUS
 62
     3
  5
91
 10
-53.499945
 20
176.547797
 30
0.0
 11
-54.864326
 21
202.581725
 31
0.0
  0
LINE
  8
LY_1
  6
CONTINUOUS
 62
     3
  5
92
 10
-75.209
 20
233.547852
 30
0.0
 11
-97.5
 21
233.547852
 31
0.0
  0
LINE
  8
LY_1
  6
CONTINUOUS
 62
     3
  5
93
 10
-75.209
 20
170.047852
 30
0.0
 11
-75.209
 21
297.047852
 31
0.0
  0
LINE
  8
LY_1
  6
CONTINUOUS
 62
     3
  5
94
 10
-75.209
 20
297.047852
 30
0.0
 11
-97.5
 21
297.047852
 31
0.0
  0
LINE
  8
LY_1
  6
CONTINUOUS
 62
     3
  5
95
 10
-75.209
 20
170.047852
 30
0.0
 11
-97.5
 21
170.047852
 31
0.0
  0
LINE
  8
LY_1
  6
CONTINUOUS
 62
     3
  5
96
 10
-97.5
 20
297.047852
 30
0.0
 11
-97.5
 21
170.047852
 31
0.0
  0
LINE
  8
LY_1
  6
CONTINUOUS
 62
     3
  5
97
 10
75.209
 20
233.547852
 30
0.0
 11
97.5
 21
233.547852
 31
0.0
  0
LINE
  8
LY_1
  6
CONTINUOUS
 62
     3
  5
98
 10
75.209
 20
170.047852
 30
0.0
 11
75.209
 21
297.047852
 31
0.0
  0
LINE
  8
LY_1
  6
CONTINUOUS
 62
     3
  5
99
 10
75.209
 20
297.047852
 30
0.0
 11
97.5
 21
297.047852
 31
0.0
  0
LINE
  8
LY_1
  6
CONTINUOUS
 62
     3
  5
9A
 10
75.209
 20
170.047852
 30
0.0
 11
97.5
 21
170.047852
 31
0.0
  0
LINE
  8
LY_1
  6
CONTINUOUS
 62
     3
  5
9B
 10
97.5
 20
297.047852
 30
0.0
 11
97.5
 21
170.047852
 31
0.0
  0
LINE
  8
LY_1
  6
CONTINUOUS
 62
     3
  5
9C
 10
-0.000131
 20
183.757732
 30
0.0
 11
-35.206912
 21
198.340857
 31
0.0
  0
LINE
  8
LY_1
  6
CONTINUOUS
 62
     3
  5
9D
 10
35.206887
 20
268.754923
 30
0.0
 11
0.000035
 21
283.338076
 31
0.0
  0
LINE
  8
LY_1
  6
CONTINUOUS
 62
     3
  5
9E
 10
-35.206962
 20
198.340846
 30
0.0
 11
-49.790159
 21
233.547794
 31
0.0
  0
LINE
  8
LY_1
  6
CONTINUOUS
 62
     3
  5
9F
 10
49.790008
 20
233.54783
 30
0.0
 11
35.206747
 21
268.754933
 31
0.0
  0
LINE
  8
LY_1
  6
CONTINUOUS
 62
     3
  5
A0
 10
-49.790124
 20
233.54784
 30
0.0
 11
-35.206947
 21
268.754748
 31
0.0
  0
LINE
  8
LY_1
  6
CONTINUOUS
 62
     3
  5
A1
 10
35.206893
 20
198.340961
 30
0.0
 11
49.790058
 21
233.547841
 31
0.0
  0
LINE
  8
LY_1
  6
CONTINUOUS
 62
     3
  5
A2
 10
-35.207019
 20
268.754864
 30
0.0
 11
-0.000085
 21
283.338055
 31
0.0
  0
LINE
  8
LY_1
  6
CONTINUOUS
 62
     3
  5
A3
 10
-0.000178
 20
183.75772
 30
0.0
 11
35.20684
 21
198.340946
 31
0.0
  0
LINE
  8
LY_1
  6
CENTER
 62
   110
  5
A5
 10
-102.5
 20
233.547852
 30
0.0
 11
102.5
 21
233.547852
 31
0.0
  0
LINE
  8
LY_1
  6
CONTINUOUS
 62
     3
  5
A6
 10
-78.5
 20
36.661743
 30
0.0
 11
-97.5
 21
36.661743
 31
0.0
  0
LINE
  8
LY_1
  6
CONTINUOUS
 62
     3
  5
A7
 10
78.5
 20
36.661743
 30
0.0
 11
97.5
 21
36.661743
 31
0.0
  0
LINE
  8
LY_1
  6
CONTINUOUS
 62
     3
  5
A8
 10
-78.5
 20
-36.661743
 30
0.0
 11
-97.5
 21
-36.661743
 31
0.0
  0
LINE
  8
LY_1
  6
CONTINUOUS
 62
     3
  5
A9
 10
78.5
 20
-36.661743
 30
0.0
 11
97.5
 21
-36.661743
 31
0.0
  0
LINE
  8
LY_1
  6
CENTER
 62
   110
  5
AA
 10
0.0
 20
124.0
 30
0.0
 11
0.0
 21
-80.0
 31
0.0
  0
LINE
  8
LY_1
  6
CENTER
 62
   110
  5
AB
 10
123.302124
 20
0.0
 30
0.0
 11
283.323975
 21
0.0
 31
0.0
  0
LINE
  8
LY_1
  6
CONTINUOUS
 62
     3
  5
AC
 10
154.513412
 20
116.806061
 30
0.0
 11
252.113525
 21
116.806061
 31
0.0
  0
LINE
  8
LY_1
  6
CONTINUOUS
 62
     3
  5
AD
 10
154.513424
 20
102.500007
 30
0.0
 11
140.313412
 21
101.007525
 31
0.0
  0
LINE
  8
LY_1
  6
CONTINUOUS
 62
     3
  5
AE
 10
158.313413
 20
118.999999
 30
0.0
 11
154.513412
 21
116.806067
 31
0.0
  0
LINE
  8
LY_1
  6
CONTINUOUS
 62
     3
  5
AF
 10
154.513412
 20
116.806061
 30
0.0
 11
154.513412
 21
102.5
 31
0.0
  0
LINE
  8
LY_1
  6
CONTINUOUS
 62
     3
  5
B0
 10
140.313416
 20
101.007523
 30
0.0
 11
140.313416
 21
90.0
 31
0.0
  0
LINE
  8
LY_1
  6
CONTINUOUS
 62
     3
  5
B1
 10
252.113423
 20
102.500009
 30
0.0
 11
266.313495
 21
101.007521
 31
0.0
  0
LINE
  8
LY_1
  6
CONTINUOUS
 62
     3
  5
B2
 10
248.313417
 20
118.999993
 30
0.0
 11
252.113418
 21
116.806062
 31
0.0
  0
LINE
  8
LY_1
  6
CONTINUOUS
 62
     3
  5
B3
 10
252.113525
 20
116.806061
 30
0.0
 11
252.113525
 21
102.5
 31
0.0
  0
LINE
  8
LY_1
  6
CONTINUOUS
 62
     3
  5
B4
 10
158.313416
 20
119.0
 30
0.0
 11
248.313477
 21
119.0
 31
0.0
  0
LINE
  8
LY_1
  6
CONTINUOUS
 62
     3
  5
B5
 10
154.513412
 20
102.5
 30
0.0
 11
252.113525
 21
102.5
 31
0.0
  0
LINE
  8
LY_1
  6
CONTINUOUS
 62
     3
  5
B6
 10
140.813416
 20
90.0
 30
0.0
 11
140.813416
 21
70.489365
 31
0.0
  0
LINE
  8
LY_1
  6
CONTINUOUS
 62
     3
  5
B7
 10
265.813477
 20
90.0
 30
0.0
 11
265.813477
 21
70.489197
 31
0.0
  0
LINE
  8
LY_1
  6
CONTINUOUS
 62
     3
  5
B8
 10
266.313477
 20
101.007523
 30
0.0
 11
266.313477
 21
90.0
 31
0.0
  0
LINE
  8
LY_1
  6
CONTINUOUS
 62
     3
  5
B9
 10
140.313416
 20
90.0
 30
0.0
 11
266.313477
 21
90.0
 31
0.0
  0
LINE
  8
LY_1
  6
CONTINUOUS
 62
     3
  5
BA
 10
140.313416
 20
96.0
 30
0.0
 11
266.313477
 21
96.0
 31
0.0
  0
LINE
  8
LY_1
  6
CONTINUOUS
 62
     3
  5
BB
 10
-48.800003
 20
116.806061
 30
0.0
 11
48.800003
 21
116.806061
 31
0.0
  0
LINE
  8
LY_1
  6
CONTINUOUS
 62
     3
  5
BC
 10
-48.8
 20
102.500008
 30
0.0
 11
-62.999996
 21
101.007528
 31
0.0
  0
LINE
  8
LY_1
  6
CONTINUOUS
 62
     3
  5
BD
 10
-45.000002
 20
118.999996
 30
0.0
 11
-48.800003
 21
116.806064
 31
0.0
  0
LINE
  8
LY_1
  6
CONTINUOUS
 62
     3
  5
BE
 10
-48.800003
 20
116.806061
 30
0.0
 11
-48.800003
 21
102.5
 31
0.0
  0
LINE
  8
LY_1
  6
CONTINUOUS
 62
     3
  5
BF
 10
-63.0
 20
101.007523
 30
0.0
 11
-63.0
 21
90.0
 31
0.0
  0
LINE
  8
LY_1
  6
CONTINUOUS
 62
     3
  5
C0
 10
48.8
 20
102.500008
 30
0.0
 11
62.999996
 21
101.007528
 31
0.0
  0
LINE
  8
LY_1
  6
CONTINUOUS
 62
     3
  5
C1
 10
45.000002
 20
118.999996
 30
0.0
 11
48.800003
 21
116.806064
 31
0.0
  0
LINE
  8
LY_1
  6
CONTINUOUS
 62
     3
  5
C2
 10
48.800003
 20
116.806061
 30
0.0
 11
48.800003
 21
102.5
 31
0.0
  0
LINE
  8
LY_1
  6
CONTINUOUS
 62
     3
  5
C3
 10
-45.0
 20
119.0
 30
0.0
 11
45.0
 21
119.0
 31
0.0
  0
LINE
  8
LY_1
  6
CONTINUOUS
 62
     3
  5
C4
 10
-48.800003
 20
102.5
 30
0.0
 11
48.800003
 21
102.5
 31
0.0
  0
LINE
  8
LY_1
  6
CONTINUOUS
 62
     3
  5
C5
 10
139.813423
 20
36.661819
 30
0.0
 11
203.313424
 21
73.323562
 31
0.0
  0
LINE
  8
LY_1
  6
CONTINUOUS
 62
     3
  5
C6
 10
203.313414
 20
-73.323481
 30
0.0
 11
266.813481
 21
-36.6617
 31
0.0
  0
LINE
  8
LY_1
  6
CONTINUOUS
 62
     3
  5
C7
 10
203.313418
 20
73.323549
 30
0.0
 11
266.813472
 21
36.661775
 31
0.0
  0
LINE
  8
LY_1
  6
CONTINUOUS
 62
     3
  5
C8
 10
139.813414
 20
-36.661743
 30
0.0
 11
203.313415
 21
-73.323486
 31
0.0
  0
LINE
  8
LY_1
  6
CONTINUOUS
 62
     3
  5
C9
 10
266.813477
 20
36.661774
 30
0.0
 11
266.813477
 21
-36.661713
 31
0.0
  0
LINE
  8
LY_1
  6
CONTINUOUS
 62
     3
  5
CA
 10
139.813416
 20
36.661819
 30
0.0
 11
139.813416
 21
-36.661743
 31
0.0
  0
LINE
  8
LY_1
  6
CENTER
 62
   110
  5
CB
 10
203.313416
 20
124.0
 30
0.0
 11
203.313416
 21
-80.0
 31
0.0
  0
LINE
  8
LY_1
  6
CONTINUOUS
 62
     3
  5
CC
 10
137.552063
 20
67.0
 30
0.0
 11
140.766571
 21
67.0
 31
0.0
  0
LINE
  8
LY_1
  6
CONTINUOUS
 62
     3
  5
CD
 10
-46.907471
 20
173.982895
 30
0.0
 11
-46.907471
 21
168.545685
 31
0.0
  0
LINE
  8
LY_1
  6
CONTINUOUS
 62
     3
  5
CE
 10
-51.814941
 20
168.545685
 30
0.0
 11
-32.185059
 21
168.545685
 31
0.0
  0
LINE
  8
LY_1
  6
CONTINUOUS
 62
     3
  5
CF
 10
-51.814941
 20
173.982895
 30
0.0
 11
-32.185059
 21
173.982895
 31
0.0
  0
LINE
  8
LY_1
  6
CONTINUOUS
 62
     3
  5
D0
 10
-51.814941
 20
173.982895
 30
0.0
 11
-51.814941
 21
168.545685
 31
0.0
  0
LINE
  8
LY_1
  6
CONTINUOUS
 62
     3
  5
D1
 10
-51.814927
 20
173.982835
 30
0.0
 11
-49.250004
 21
176.547759
 31
0.0
  0
LINE
  8
LY_1
  6
CONTINUOUS
 62
     3
  5
D2
 10
-51.814925
 20
168.545691
 30
0.0
 11
-49.999966
 21
167.497824
 31
0.0
  0
LINE
  8
LY_1
  6
CONTINUOUS
 62
     3
  5
D3
 10
-32.185059
 20
173.982895
 30
0.0
 11
-32.185059
 21
168.545685
 31
0.0
  0
LINE
  8
LY_1
  6
CONTINUOUS
 62
     3
  5
D4
 10
-37.092529
 20
173.982895
 30
0.0
 11
-37.092529
 21
168.545685
 31
0.0
  0
LINE
  8
LY_1
  6
CONTINUOUS
 62
     3
  5
D5
 10
-32.185054
 20
173.982835
 30
0.0
 11
-34.749978
 21
176.547759
 31
0.0
  0
LINE
  8
LY_1
  6
CONTINUOUS
 62
     3
  5
D6
 10
-32.185053
 20
168.545703
 30
0.0
 11
-34.000011
 21
167.497836
 31
0.0
  0
LINE
  8
LY_1
  6
CONTINUOUS
 62
     3
  5
D7
 10
-50.0
 20
167.497818
 30
0.0
 11
-34.0
 21
167.497818
 31
0.0
  0
LINE
  8
LY_1
  6
CENTER
 62
   110
  5
D8
 10
-42.0
 20
162.497818
 30
0.0
 11
-42.0
 21
182.797821
 31
0.0
  0
LINE
  8
LY_1
  6
CONTINUOUS
 62
     3
  5
D9
 10
-53.5
 20
176.547806
 30
0.0
 11
-30.500015
 21
176.547806
 31
0.0
  0
LINE
  8
LY_1
  6
CONTINUOUS
 62
     3
  5
DA
 10
137.552063
 20
75.5
 30
0.0
 11
137.552063
 21
58.5
 31
0.0
  0
LINE
  8
LY_1
  6
CONTINUOUS
 62
     3
  5
DB
 10
137.552111
 20
58.500035
 30
0.0
 11
137.26343
 21
59.000045
 31
0.0
  0
LINE
  8
LY_1
  6
CONTINUOUS
 62
     3
  5
DC
 10
137.552063
 20
58.5
 30
0.0
 11
140.259369
 21
58.5
 31
0.0
  0
LINE
  8
LY_1
  6
CONTINUOUS
 62
     3
  5
DD
 10
137.552115
 20
75.499968
 30
0.0
 11
137.263434
 21
74.999957
 31
0.0
  0
LINE
  8
LY_1
  6
CONTINUOUS
 62
     3
  5
DE
 10
137.552063
 20
75.5
 30
0.0
 11
140.813416
 21
75.5
 31
0.0
  0
LINE
  8
LY_1
  6
CONTINUOUS
 62
     3
  5
DF
 10
137.263382
 20
75.0
 30
0.0
 11
137.263382
 21
59.0
 31
0.0
  0
LINE
  8
LY_1
  6
CENTER
 62
   110
  5
E0
 10
132.263382
 20
67.0
 30
0.0
 11
152.563385
 21
67.0
 31
0.0
  0
LINE
  8
LY_1
  6
CONTINUOUS
 62
     3
  5
E1
 10
-46.907484
 20
58.499996
 30
0.0
 11
-51.814963
 21
66.999998
 31
0.0
  0
LINE
  8
LY_1
  6
CONTINUOUS
 62
     3
  5
E2
 10
-32.185053
 20
66.999996
 30
0.0
 11
-37.092531
 21
75.499998
 31
0.0
  0
LINE
  8
LY_1
  6
CONTINUOUS
 62
     3
  5
E3
 10
-51.814962
 20
67.000006
 30
0.0
 11
-46.907491
 21
75.499994
 31
0.0
  0
LINE
  8
LY_1
  6
CONTINUOUS
 62
     3
  5
E4
 10
-37.09253
 20
58.500006
 30
0.0
 11
-32.185059
 21
66.999994
 31
0.0
  0
LINE
  8
LY_1
  6
CONTINUOUS
 62
     3
  5
E5
 10
-46.907486
 20
75.5
 30
0.0
 11
-37.092529
 21
75.5
 31
0.0
  0
LINE
  8
LY_1
  6
CONTINUOUS
 62
     3
  5
E6
 10
-46.907486
 20
58.5
 30
0.0
 11
-37.092529
 21
58.5
 31
0.0
  0
LINE
  8
LY_1
  6
CENTER
 62
   110
  5
E7
 10
-42.0
 20
81.954666
 30
0.0
 11
-42.0
 21
52.045334
 31
0.0
  0
LINE
  8
LY_1
  6
CENTER
 62
   110
  5
E8
 10
-56.93959
 20
67.0
 30
0.0
 11
-27.0
 21
67.0
 31
0.0
  0
LINE
  8
LY_1
  6
CONTINUOUS
 62
     3
  5
E9
 10
-62.5
 20
90.0
 30
0.0
 11
-62.5
 21
68.922852
 31
0.0
  0
LINE
  8
LY_1
  6
CONTINUOUS
 62
     3
  5
EA
 10
62.5
 20
90.0
 30
0.0
 11
62.5
 21
68.922852
 31
0.0
  0
LINE
  8
LY_1
  6
CONTINUOUS
 62
     3
  5
EB
 10
63.0
 20
101.007523
 30
0.0
 11
63.0
 21
90.0
 31
0.0
  0
LINE
  8
LY_1
  6
CONTINUOUS
 62
     3
  5
EC
 10
-63.0
 20
90.0
 30
0.0
 11
63.0
 21
90.0
 31
0.0
  0
LINE
  8
LY_1
  6
CONTINUOUS
 62
     3
  5
ED
 10
-63.0
 20
96.0
 30
0.0
 11
63.0
 21
96.0
 31
0.0
  0
LINE
  8
LY_1
  6
CONTINUOUS
 62
     3
  5
EE
 10
-77.340571
 20
66.822955
 30
0.0
 11
-78.499996
 21
71.149989
 31
0.0
  0
LINE
  8
LY_1
  6
CONTINUOUS
 62
     3
  5
EF
 10
-78.5
 20
71.149994
 30
0.0
 11
-97.5
 21
71.149994
 31
0.0
  0
LINE
  8
LY_1
  6
CONTINUOUS
 62
     3
  5
F0
 10
77.340571
 20
66.822955
 30
0.0
 11
78.499996
 21
71.149989
 31
0.0
  0
LINE
  8
LY_1
  6
CONTINUOUS
 62
     3
  5
F1
 10
78.5
 20
71.149994
 30
0.0
 11
97.5
 21
71.149994
 31
0.0
  0
LINE
  8
LY_1
  6
CONTINUOUS
 62
     3
  5
F2
 10
-77.340571
 20
-66.822955
 30
0.0
 11
-78.499996
 21
-71.149989
 31
0.0
  0
LINE
  8
LY_1
  6
CONTINUOUS
 62
     3
  5
F3
 10
-78.5
 20
-71.149994
 30
0.0
 11
-97.5
 21
-71.149994
 31
0.0
  0
LINE
  8
LY_1
  6
CONTINUOUS
 62
     3
  5
F4
 10
-78.5
 20
71.149994
 30
0.0
 11
-78.5
 21
-71.149994
 31
0.0
  0
LINE
  8
LY_1
  6
CONTINUOUS
 62
     3
  5
F5
 10
-97.5
 20
71.149994
 30
0.0
 11
-97.5
 21
-71.149994
 31
0.0
  0
LINE
  8
LY_1
  6
CONTINUOUS
 62
     3
  5
F6
 10
77.340571
 20
-66.822955
 30
0.0
 11
78.499996
 21
-71.149989
 31
0.0
  0
LINE
  8
LY_1
  6
CONTINUOUS
 62
     3
  5
F7
 10
78.5
 20
-71.149994
 30
0.0
 11
97.5
 21
-71.149994
 31
0.0
  0
LINE
  8
LY_1
  6
CONTINUOUS
 62
     3
  5
F8
 10
78.5
 20
71.149994
 30
0.0
 11
78.5
 21
-71.149994
 31
0.0
  0
LINE
  8
LY_1
  6
CONTINUOUS
 62
     3
  5
F9
 10
97.5
 20
71.149994
 30
0.0
 11
97.5
 21
-71.149994
 31
0.0
  0
LINE
  8
LY_1
  6
CENTER
 62
   110
  5
FA
 10
0.0
 20
313.547852
 30
0.0
 11
0.0
 21
153.547897
 31
0.0
  0
LINE
  8
LY_1
  6
CENTER
 62
   110
  5
FB
 10
-102.5
 20
0.0
 30
0.0
 11
102.5
 21
0.0
 31
0.0
  0
ENDSEC
  0
EOF
