  0
SECTION
  2
HEADER
  9
$ACADVER
  1
AC1009
  9
$DWGCODEPAGE
  3
dos932
  9
$INSBASE
 10
0.0
 20
0.0
 30
0.0
  9
$EXTMIN
 10
-89.24281
 20
-111.114703
 30
0.0
  9
$EXTMAX
 10
239.159103
 20
252.047852
 30
0.0
  9
$LIMMIN
 10
-89.24281
 20
-111.114703
  9
$LIMMAX
 10
239.159103
 20
252.047852
  9
$ORTHOMODE
 70
     0
  9
$REGENMODE
 70
     1
  9
$FILLMODE
 70
     1
  9
$QTEXTMODE
 70
     0
  9
$MIRRTEXT
 70
     1
  9
$DRAGMODE
 70
     2
  9
$LTSCALE
 40
1.0
  9
$OSMODE
 70
     0
  9
$ATTMODE
 70
     1
  9
$TEXTSIZE
 40
3.3
  9
$TRACEWID
 40
0.05
  9
$TEXTSTYLE
  7
MX_NOTE_STANDARD
  9
$CLAYER
  8
LY_1
  9
$CELTYPE
  6
CONTINUOUS
  9
$CECOLOR
 62
   256
  9
$DIMSCALE
 40
1.0
  9
$DIMASZ
 40
2.5
  9
$DIMEXO
 40
0.0
  9
$DIMDLI
 40
3.75
  9
$DIMRND
 40
0.0
  9
$DIMDLE
 40
0.0
  9
$DIMEXE
 40
1.1938
  9
$DIMTP
 40
0.0
  9
$DIMTM
 40
0.0
  9
$DIMTXT
 40
3.3
  9
$DIMCEN
 40
2.5
  9
$DIMTSZ
 40
0.0
  9
$DIMTOL
 70
     0
  9
$DIMLIM
 70
     0
  9
$DIMTIH
 70
     0
  9
$DIMTOH
 70
     0
  9
$DIMSE1
 70
     0
  9
$DIMSE2
 70
     0
  9
$DIMTAD
 70
     1
  9
$DIMZIN
 70
     8
  9
$DIMBLK
  1

  9
$DIMASO
 70
     1
  9
$DIMSHO
 70
     1
  9
$DIMPOST
  1

  9
$DIMAPOST
  1

  9
$DIMALT
 70
     0
  9
$DIMALTD
 70
     4
  9
$DIMALTF
 40
0.03937
  9
$DIMLFAC
 40
1.0
  9
$DIMTOFL
 70
     1
  9
$DIMTVP
 40
0.0
  9
$DIMTIX
 70
     0
  9
$DIMSOXD
 70
     0
  9
$DIMSAH
 70
     1
  9
$DIMBLK1
  1
_OPEN30
  9
$DIMBLK2
  1
_OPEN30
  9
$DIMSTYLE
  2
MXDIMSTYLE
  9
$DIMCLRD
 70
     0
  9
$DIMCLRE
 70
     0
  9
$DIMCLRT
 70
     0
  9
$DIMTFAC
 40
1.0
  9
$DIMGAP
 40
1.0
  9
$LUNITS
 70
     2
  9
$LUPREC
 70
     4
  9
$AXISMODE
 70
     0
  9
$AXISUNIT
 10
0.0
 20
0.0
  9
$SKETCHINC
 40
0.1
  9
$FILLETRAD
 40
0.0
  9
$AUNITS
 70
     0
  9
$AUPREC
 70
     0
  9
$MENU
  1
acad
  9
$ELEVATION
 40
0.0
  9
$PELEVATION
 40
0.0
  9
$THICKNESS
 40
0.0
  9
$LIMCHECK
 70
     0
  9
$BLIPMODE
 70
     1
  9
$CHAMFERA
 40
0.0
  9
$CHAMFERB
 40
0.0
  9
$SKPOLY
 70
     0
  9
$TDCREATE
 40
2454901.550254630
  9
$TDUPDATE
 40
2454901.550254630
  9
$TDINDWG
 40
0.0000000000
  9
$TDUSRTIMER
 40
0.0000000000
  9
$USRTIMER
 70
     1
  9
$ANGBASE
 50
0.0
  9
$ANGDIR
 70
     0
  9
$PDMODE
 70
     0
  9
$PDSIZE
 40
0.0
  9
$PLINEWID
 40
0.0
  9
$COORDS
 70
     1
  9
$SPLFRAME
 70
     0
  9
$SPLINETYPE
 70
     6
  9
$SPLINESEGS
 70
     8
  9
$ATTDIA
 70
     0
  9
$ATTREQ
 70
     1
  9
$HANDLING
 70
     1
  9
$HANDSEED
  5
134
  9
$SURFTAB1
 70
     6
  9
$SURFTAB2
 70
     6
  9
$SURFTYPE
 70
     6
  9
$SURFU
 70
     6
  9
$SURFV
 70
     6
  9
$UCSNAME
  2

  9
$UCSORG
 10
0.0
 20
0.0
 30
0.0
  9
$UCSXDIR
 10
1.0
 20
0.0
 30
0.0
  9
$UCSYDIR
 10
0.0
 20
1.0
 30
0.0
  9
$PUCSNAME
  2

  9
$PUCSORG
 10
0.0
 20
0.0
 30
0.0
  9
$PUCSXDIR
 10
1.0
 20
0.0
 30
0.0
  9
$PUCSYDIR
 10
0.0
 20
1.0
 30
0.0
  9
$USERI1
 70
     0
  9
$USERI2
 70
     0
  9
$USERI3
 70
     0
  9
$USERI4
 70
     0
  9
$USERI5
 70
     0
  9
$USERR1
 40
0.0
  9
$USERR2
 40
0.0
  9
$USERR3
 40
0.0
  9
$USERR4
 40
0.0
  9
$USERR5
 40
0.0
  9
$WORLDVIEW
 70
     1
  9
$SHADEDGE
 70
     3
  9
$SHADEDIF
 70
    70
  9
$TILEMODE
 70
     1
  9
$MAXACTVP
 70
    16
  9
$PINSBASE
 10
0.0
 20
0.0
 30
0.0
  9
$PLIMCHECK
 70
     0
  9
$PEXTMIN
 10
1.000000E+20
 20
1.000000E+20
 30
1.000000E+20
  9
$PEXTMAX
 10
-1.000000E+20
 20
-1.000000E+20
 30
-1.000000E+20
  9
$PLIMMIN
 10
0.0
 20
0.0
  9
$PLIMMAX
 10
12.0
 20
9.0
  9
$UNITMODE
 70
     0
  9
$VISRETAIN
 70
     0
  9
$PLINEGEN
 70
     1
  9
$PSLTSCALE
 70
     0
  9
$TREEDEPTH
 70
  3020
  0
ENDSEC
  0
SECTION
  2
TABLES
  0
TABLE
  2
VPORT
 70
     1
  0
VPORT
  2
*ACTIVE
 70
     0
 10
0.0
 20
0.0
 11
1.0
 21
1.0
 12
74.958147
 22
70.466574
 13
0.0
 23
0.0
 14
1.0
 24
1.0
 15
0.0
 25
0.0
 16
0.0
 26
0.0
 36
1.0
 17
0.0
 27
0.0
 37
0.0
 40
366.79418
 41
1.732051
 42
50.0
 43
0.0
 44
0.0
 50
0.0
 51
0.0
 71
     0
 72
   100
 73
     1
 74
     1
 75
     0
 76
     0
 77
     0
 78
     0
  0
ENDTAB
  0
TABLE
  2
LTYPE
 70
     2
  0
LTYPE
  2
CONTINUOUS
 70
    64
  3
Solid line
 72
    65
 73
     0
 40
0.0
  0
LTYPE
  2
CENTER
 70
    64
  3
Center ____ _ ____ _ ____ _ ____ _ ____ _ ____
 72
    65
 73
     4
 40
50.8
 49
31.75
 49
-6.35
 49
6.35
 49
-6.35
  0
ENDTAB
  0
TABLE
  2
LAYER
 70
     3
  0
LAYER
  2
0
 70
     0
 62
     7
  6
CONTINUOUS
  0
LAYER
  2
LY_1
 70
     0
 62
     7
  6
CONTINUOUS
  0
LAYER
  2
DEFPOINTS
 70
     0
 62
     7
  6
CONTINUOUS
  0
ENDTAB
  0
TABLE
  2
STYLE
 70
     1
  0
STYLE
  2
MX_NOTE_STANDARD
 70
     0
 40
0.0
 41
1.0
 50
0.0
 71
     0
 42
3.3
  3
txt.shx
  4
extfont.shx
  0
ENDTAB
  0
TABLE
  2
VIEW
 70
     0
  0
ENDTAB
  0
TABLE
  2
UCS
 70
     0
  0
ENDTAB
  0
TABLE
  2
APPID
 70
     1
  0
APPID
  2
ACAD
 70
     0
  0
ENDTAB
  0
TABLE
  2
DIMSTYLE
 70
     1
  0
DIMSTYLE
  2
MXDIMSTYLE
 70
     0
  3

  4

  5

  6
_OPEN30
  7
_OPEN30
 40
1.0
 41
2.5
 42
0.0
 43
3.75
 44
1.1938
 45
0.0
 46
0.0
 47
0.0
 48
0.0
 71
     0
 72
     0
 73
     0
 74
     0
 75
     0
 76
     0
 77
     1
 78
     8
140
3.3
141
2.5
142
0.0
143
0.03937
144
1.0
145
0.0
146
1.0
147
1.0
170
     0
171
     4
172
     1
173
     1
174
     0
175
     0
176
     0
177
     0
178
     0
  0
ENDTAB
  0
ENDSEC
  0
SECTION
  2
BLOCKS
  0
BLOCK
  8
0
  6
BYBLOCK
 62
     0
  5
20
  2
_OPEN30
 70
     2
 10
0.0
 20
0.0
 30
0.0
  3
_OPEN30
  0
LINE
  8
0
  6
BYBLOCK
 62
     0
  5
21
 10
-1.0
 20
0.267949
 30
0.0
 11
0.0
 21
0.0
 31
0.0
  0
LINE
  8
0
  6
BYBLOCK
 62
     0
  5
22
 10
0.0
 20
0.0
 30
0.0
 11
-1.0
 21
-0.267949
 31
0.0
  0
LINE
  8
0
  6
BYBLOCK
 62
     0
  5
23
 10
0.0
 20
0.0
 30
0.0
 11
-1.0
 21
0.0
 31
0.0
  0
ENDBLK
  8
0
  6
BYBLOCK
 62
     0
  5
24
  0
BLOCK
  8
0
  6
BYBLOCK
 62
     0
  5
26
  2
*D1
 70
     1
 10
0.0
 20
0.0
 30
0.0
  3
*D1
  0
LINE
  8
0
  6
CONTINUOUS
 62
   110
  5
27
 10
95.5
 20
102.0
 30
0.0
 11
95.5
 21
0.0
 31
0.0
  0
LINE
  8
0
  6
CONTINUOUS
 62
   110
  5
28
 10
33.500015
 20
102.0
 30
0.0
 11
96.693787
 21
102.0
 31
0.0
  0
LINE
  8
0
  6
CONTINUOUS
 62
   110
  5
29
 10
87.5
 20
0.0
 30
0.0
 11
96.693787
 21
0.0
 31
0.0
  0
INSERT
  8
0
  6
CONTINUOUS
 62
   110
  5
30
  2
_OPEN
 10
95.5
 20
102.0
 30
0.0
 41
2.19
 42
2.19
 50
90.0
 43
2.19
  0
INSERT
  8
0
  6
CONTINUOUS
 62
   110
  5
31
  2
_OPEN
 10
95.5
 20
0.0
 30
0.0
 41
2.19
 42
2.19
 50
270.0
 43
2.19
  0
TEXT
  8
0
  6
CONTINUOUS
 62
   110
  5
32
 10
94.5
 20
47.399338
 30
0.0
 40
3.3
  1
102
 50
90.0
 41
1.007178
  7
MX_NOTE_STANDARD
 11
92.85
 21
47.399338
 31
0.0
 73
     2
  0
POINT
  8
DEFPOINTS
  6
CONTINUOUS
 62
     0
  5
33
 10
33.500015
 20
102.0
 30
0.0
  0
POINT
  8
DEFPOINTS
  6
CONTINUOUS
 62
     0
  5
34
 10
87.5
 20
0.0
 30
0.0
  0
POINT
  8
DEFPOINTS
  6
CONTINUOUS
 62
     0
  5
35
 10
95.5
 20
0.0
 30
0.0
  0
ENDBLK
  8
0
  6
BYBLOCK
 62
     0
  5
36
  0
BLOCK
  8
0
  6
BYBLOCK
 62
     0
  5
2B
  2
_OPEN
 70
     2
 10
0.0
 20
0.0
 30
0.0
  3
_OPEN
  0
LINE
  8
0
  6
BYBLOCK
 62
     0
  5
2C
 10
-1.0
 20
0.166667
 30
0.0
 11
0.0
 21
0.0
 31
0.0
  0
LINE
  8
0
  6
BYBLOCK
 62
     0
  5
2D
 10
0.0
 20
0.0
 30
0.0
 11
-1.0
 21
-0.166667
 31
0.0
  0
LINE
  8
0
  6
BYBLOCK
 62
     0
  5
2E
 10
0.0
 20
0.0
 30
0.0
 11
-1.0
 21
0.0
 31
0.0
  0
ENDBLK
  8
0
  6
BYBLOCK
 62
     0
  5
2F
  0
BLOCK
  8
0
  6
BYBLOCK
 62
     0
  5
39
  2
*D3
 70
     1
 10
0.0
 20
0.0
 30
0.0
  3
*D3
  0
LINE
  8
0
  6
CONTINUOUS
 62
   110
  5
3A
 10
82.5
 20
-74.0
 30
0.0
 11
-82.5
 21
-74.0
 31
0.0
  0
LINE
  8
0
  6
CONTINUOUS
 62
   110
  5
3B
 10
82.5
 20
-57.149994
 30
0.0
 11
82.5
 21
-75.193787
 31
0.0
  0
LINE
  8
0
  6
CONTINUOUS
 62
   110
  5
3C
 10
-82.5
 20
-57.149994
 30
0.0
 11
-82.5
 21
-75.193787
 31
0.0
  0
INSERT
  8
0
  6
CONTINUOUS
 62
   110
  5
3D
  2
_OPEN
 10
82.5
 20
-74.0
 30
0.0
 41
2.19
 42
2.19
 43
2.19
  0
INSERT
  8
0
  6
CONTINUOUS
 62
   110
  5
3E
  2
_OPEN
 10
-82.5
 20
-74.0
 30
0.0
 41
2.19
 42
2.19
 50
180.0
 43
2.19
  0
TEXT
  8
0
  6
CONTINUOUS
 62
   110
  5
3F
 10
-3.635284
 20
-73.0
 30
0.0
 40
3.3
  1
165
 41
0.94423
  7
MX_NOTE_STANDARD
 11
-3.635284
 21
-71.35
 31
0.0
 73
     2
  0
POINT
  8
DEFPOINTS
  6
CONTINUOUS
 62
     0
  5
40
 10
82.5
 20
-57.149994
 30
0.0
  0
POINT
  8
DEFPOINTS
  6
CONTINUOUS
 62
     0
  5
41
 10
-82.5
 20
-57.149994
 30
0.0
  0
POINT
  8
DEFPOINTS
  6
CONTINUOUS
 62
     0
  5
42
 10
-82.5
 20
-74.0
 30
0.0
  0
ENDBLK
  8
0
  6
BYBLOCK
 62
     0
  5
43
  0
ENDSEC
  0
SECTION
  2
ENTITIES
  0
DIMENSION
  8
LY_1
  6
CONTINUOUS
 62
   110
  5
37
  2
*D1
 10
95.5
 20
0.0
 30
0.0
 11
95.5
 21
51.0
 31
0.0
 70
   128
  1
<>
 13
33.500015
 23
102.0
 33
0.0
 14
87.5
 24
0.0
 34
0.0
 50
90.0
  3
MXDIMSTYLE
1001
ACAD
1000
DSTYLE
1002
{
1070
     6
1000
_OPEN
1070
     7
1000
_OPEN
1070
    41
1040
2.19
1070
    44
1040
1.193787
1070
   271
1070
     0
1070
   284
1070
     8
1070
   343
1005
2A
1070
   344
1005
2A
1002
}
  0
DIMENSION
  8
LY_1
  6
CONTINUOUS
 62
   110
  5
44
  2
*D3
 10
-82.5
 20
-74.0
 30
0.0
 11
0.0
 21
-74.0
 31
0.0
 70
   128
  1
<>
 13
82.5
 23
-57.149994
 33
0.0
 14
-82.5
 24
-57.149994
 34
0.0
  3
MXDIMSTYLE
1001
ACAD
1000
DSTYLE
1002
{
1070
     6
1000
_OPEN
1070
     7
1000
_OPEN
1070
    41
1040
2.19
1070
    44
1040
1.193787
1070
   271
1070
     0
1070
   284
1070
     8
1070
   343
1005
2A
1070
   344
1005
2A
1002
}
  0
TEXT
  8
LY_1
  6
CONTINUOUS
 62
   110
  5
45
 10
-88.584649
 20
-94.083591
 30
0.0
 40
4.167181
  1
      SWING CHECK VALVE 3
 41
0.947635
  7
MX_NOTE_STANDARD
 11
-88.584649
 21
-92.0
 31
0.0
 73
     2
  0
TEXT
  8
LY_1
  6
CONTINUOUS
 62
   110
  5
46
 10
-88.609061
 20
-110.083591
 30
0.0
 40
4.167181
  1
KITZ
 41
0.912486
  7
MX_NOTE_STANDARD
 11
-88.609061
 21
-108.0
 31
0.0
 73
     2
  0
TEXT
  8
LY_1
  6
CONTINUOUS
 62
   110
  5
47
 10
-88.524125
 20
-102.083591
 30
0.0
 40
4.167181
  1
FIG   R3
 41
1.034778
  7
MX_NOTE_STANDARD
 11
-88.524125
 21
-100.0
 31
0.0
 73
     2
  0
TEXT
  8
LY_1
  6
CONTINUOUS
 62
   110
  5
48
 10
-88.60692
 20
-86.083591
 30
0.0
 40
4.167181
  1
NAME  CLASS 125 CAST BRONZE
 41
0.915569
  7
MX_NOTE_STANDARD
 11
-88.60692
 21
-84.0
 31
0.0
 73
     2
  0
POLYLINE
  8
LY_1
  6
CONTINUOUS
 62
     3
  5
49
 66
     1
 10
0.0
 20
0.0
 30
0.0
  0
VERTEX
  8
LY_1
  6
CONTINUOUS
 62
     3
  5
FB
 10
21.206878
 20
-2.916418
 30
0.0
  0
VERTEX
  8
LY_1
  6
CONTINUOUS
 62
     3
  5
FC
 10
21.199851
 20
-2.922628
 30
0.0
  0
VERTEX
  8
LY_1
  6
CONTINUOUS
 62
     3
  5
FD
 10
21.193761
 20
-2.929723
 30
0.0
  0
VERTEX
  8
LY_1
  6
CONTINUOUS
 62
     3
  5
FE
 10
21.188722
 20
-2.937568
 30
0.0
  0
VERTEX
  8
LY_1
  6
CONTINUOUS
 62
     3
  5
FF
 10
21.184829
 20
-2.946016
 30
0.0
  0
VERTEX
  8
LY_1
  6
CONTINUOUS
 62
     3
  5
100
 10
21.182157
 20
-2.954906
 30
0.0
  0
VERTEX
  8
LY_1
  6
CONTINUOUS
 62
     3
  5
101
 10
21.180756
 20
-2.964071
 30
0.0
  0
VERTEX
  8
LY_1
  6
CONTINUOUS
 62
     3
  5
102
 10
21.180651
 20
-2.973337
 30
0.0
  0
VERTEX
  8
LY_1
  6
CONTINUOUS
 62
     3
  5
103
 10
21.181846
 20
-2.98253
 30
0.0
  0
VERTEX
  8
LY_1
  6
CONTINUOUS
 62
     3
  5
104
 10
21.184317
 20
-2.991475
 30
0.0
  0
VERTEX
  8
LY_1
  6
CONTINUOUS
 62
     3
  5
105
 10
21.188018
 20
-3.000005
 30
0.0
  0
VERTEX
  8
LY_1
  6
CONTINUOUS
 62
     3
  5
106
 10
21.192878
 20
-3.007957
 30
0.0
  0
VERTEX
  8
LY_1
  6
CONTINUOUS
 62
     3
  5
107
 10
21.198807
 20
-3.015182
 30
0.0
  0
VERTEX
  8
LY_1
  6
CONTINUOUS
 62
     3
  5
108
 10
21.205692
 20
-3.021542
 30
0.0
  0
VERTEX
  8
LY_1
  6
CONTINUOUS
 62
     3
  5
109
 10
21.213403
 20
-3.026919
 30
0.0
  0
VERTEX
  8
LY_1
  6
CONTINUOUS
 62
     3
  5
10A
 10
21.221795
 20
-3.03121
 30
0.0
  0
VERTEX
  8
LY_1
  6
CONTINUOUS
 62
     3
  5
10B
 10
21.230708
 20
-3.034334
 30
0.0
  0
VERTEX
  8
LY_1
  6
CONTINUOUS
 62
     3
  5
10C
 10
21.239975
 20
-3.036233
 30
0.0
  0
VERTEX
  8
LY_1
  6
CONTINUOUS
 62
     3
  5
10D
 10
21.24942
 20
-3.03687
 30
0.0
  0
SEQEND
  8
LY_1
  6
CONTINUOUS
 62
     3
  5
10E
  0
POLYLINE
  8
LY_1
  6
CONTINUOUS
 62
     3
  5
4A
 66
     1
 10
0.0
 20
0.0
 30
0.0
  0
VERTEX
  8
LY_1
  6
CONTINUOUS
 62
     3
  5
10F
 10
25.517288
 20
5.112078
 30
0.0
  0
VERTEX
  8
LY_1
  6
CONTINUOUS
 62
     3
  5
110
 10
25.524744
 20
5.118707
 30
0.0
  0
VERTEX
  8
LY_1
  6
CONTINUOUS
 62
     3
  5
111
 10
25.531132
 20
5.12633
 30
0.0
  0
VERTEX
  8
LY_1
  6
CONTINUOUS
 62
     3
  5
112
 10
25.536316
 20
5.134782
 30
0.0
  0
VERTEX
  8
LY_1
  6
CONTINUOUS
 62
     3
  5
113
 10
25.540186
 20
5.143885
 30
0.0
  0
VERTEX
  8
LY_1
  6
CONTINUOUS
 62
     3
  5
114
 10
25.542657
 20
5.153442
 30
0.0
  0
VERTEX
  8
LY_1
  6
CONTINUOUS
 62
     3
  5
115
 10
25.543679
 20
5.16325
 30
0.0
  0
VERTEX
  8
LY_1
  6
CONTINUOUS
 62
     3
  5
116
 10
25.543228
 20
5.173099
 30
0.0
  0
VERTEX
  8
LY_1
  6
CONTINUOUS
 62
     3
  5
117
 10
25.541315
 20
5.182778
 30
0.0
  0
VERTEX
  8
LY_1
  6
CONTINUOUS
 62
     3
  5
118
 10
25.53798
 20
5.192081
 30
0.0
  0
VERTEX
  8
LY_1
  6
CONTINUOUS
 62
     3
  5
119
 10
25.533295
 20
5.200808
 30
0.0
  0
VERTEX
  8
LY_1
  6
CONTINUOUS
 62
     3
  5
11A
 10
25.52736
 20
5.208773
 30
0.0
  0
VERTEX
  8
LY_1
  6
CONTINUOUS
 62
     3
  5
11B
 10
25.520301
 20
5.215806
 30
0.0
  0
VERTEX
  8
LY_1
  6
CONTINUOUS
 62
     3
  5
11C
 10
25.51227
 20
5.221756
 30
0.0
  0
VERTEX
  8
LY_1
  6
CONTINUOUS
 62
     3
  5
11D
 10
25.503438
 20
5.226497
 30
0.0
  0
VERTEX
  8
LY_1
  6
CONTINUOUS
 62
     3
  5
11E
 10
25.493994
 20
5.229925
 30
0.0
  0
VERTEX
  8
LY_1
  6
CONTINUOUS
 62
     3
  5
11F
 10
25.484141
 20
5.23197
 30
0.0
  0
VERTEX
  8
LY_1
  6
CONTINUOUS
 62
     3
  5
120
 10
25.47947
 20
5.232436
 30
0.0
  0
VERTEX
  8
LY_1
  6
CONTINUOUS
 62
     3
  5
121
 10
25.474777
 20
5.232589
 30
0.0
  0
SEQEND
  8
LY_1
  6
CONTINUOUS
 62
     3
  5
122
  0
POLYLINE
  8
LY_1
  6
CONTINUOUS
 62
     3
  5
4B
 66
     1
 10
0.0
 20
0.0
 30
0.0
  0
VERTEX
  8
LY_1
  6
CONTINUOUS
 62
     3
  5
123
 10
-26.326544
 20
0.055254
 30
0.0
  0
VERTEX
  8
LY_1
  6
CONTINUOUS
 62
     3
  5
124
 10
-26.33391
 20
0.049449
 30
0.0
  0
VERTEX
  8
LY_1
  6
CONTINUOUS
 62
     3
  5
125
 10
-26.340394
 20
0.04271
 30
0.0
  0
VERTEX
  8
LY_1
  6
CONTINUOUS
 62
     3
  5
126
 10
-26.345873
 20
0.035166
 30
0.0
  0
VERTEX
  8
LY_1
  6
CONTINUOUS
 62
     3
  5
127
 10
-26.350246
 20
0.026959
 30
0.0
  0
VERTEX
  8
LY_1
  6
CONTINUOUS
 62
     3
  5
128
 10
-26.353429
 20
0.018242
 30
0.0
  0
VERTEX
  8
LY_1
  6
CONTINUOUS
 62
     3
  5
129
 10
-26.355362
 20
0.009181
 30
0.0
  0
VERTEX
  8
LY_1
  6
CONTINUOUS
 62
     3
  5
12A
 10
-26.356009
 20
-0.000053
 30
0.0
  0
VERTEX
  8
LY_1
  6
CONTINUOUS
 62
     3
  5
12B
 10
-26.355357
 20
-0.009288
 30
0.0
  0
VERTEX
  8
LY_1
  6
CONTINUOUS
 62
     3
  5
12C
 10
-26.35342
 20
-0.018348
 30
0.0
  0
VERTEX
  8
LY_1
  6
CONTINUOUS
 62
     3
  5
12D
 10
-26.350233
 20
-0.027063
 30
0.0
  0
VERTEX
  8
LY_1
  6
CONTINUOUS
 62
     3
  5
12E
 10
-26.345856
 20
-0.035268
 30
0.0
  0
VERTEX
  8
LY_1
  6
CONTINUOUS
 62
     3
  5
12F
 10
-26.340373
 20
-0.04281
 30
0.0
  0
VERTEX
  8
LY_1
  6
CONTINUOUS
 62
     3
  5
130
 10
-26.333886
 20
-0.049545
 30
0.0
  0
VERTEX
  8
LY_1
  6
CONTINUOUS
 62
     3
  5
131
 10
-26.326518
 20
-0.055348
 30
0.0
  0
SEQEND
  8
LY_1
  6
CONTINUOUS
 62
     3
  5
132
  0
ARC
  8
LY_1
  6
CONTINUOUS
 62
     3
  5
4C
 10
28.352112
 20
4.900855
 30
0.0
 40
1.847732
 50
307.524111
 51
89.999982
  0
ARC
  8
LY_1
  6
CONTINUOUS
 62
     3
  5
4D
 10
28.344208
 20
-4.892613
 30
0.0
 40
1.85585
 50
270.000018
 51
89.999982
  0
ARC
  8
LY_1
  6
CONTINUOUS
 62
     3
  5
4E
 10
15.514179
 20
-4.900629
 30
0.0
 40
1.848051
 50
127.524112
 51
270.000001
  0
ARC
  8
LY_1
  6
CONTINUOUS
 62
     3
  5
4F
 10
16.244537
 20
4.852499
 30
0.0
 40
1.896075
 50
89.999982
 51
359.999983
  0
ARC
  8
LY_1
  6
CONTINUOUS
 62
     3
  5
50
 10
9.804862
 20
4.892324
 30
0.0
 40
1.855771
 50
270.000018
 51
89.999982
  0
ARC
  8
LY_1
  6
CONTINUOUS
 62
     3
  5
51
 10
3.739508
 20
-4.852489
 30
0.0
 40
1.896131
 50
180.000036
 51
0.000001
  0
ARC
  8
LY_1
  6
CONTINUOUS
 62
     3
  5
52
 10
-2.906269
 20
4.851983
 30
0.0
 40
1.895969
 50
89.999982
 51
359.999983
  0
ARC
  8
LY_1
  6
CONTINUOUS
 62
     3
  5
53
 10
-9.412165
 20
-4.852489
 30
0.0
 40
1.896105
 50
180.000036
 51
0.000001
  0
ARC
  8
LY_1
  6
CONTINUOUS
 62
     3
  5
54
 10
-9.412165
 20
4.852499
 30
0.0
 40
1.896105
 50
0.000018
 51
180.000019
  0
ARC
  8
LY_1
  6
CONTINUOUS
 62
     3
  5
55
 10
-15.805969
 20
4.499795
 30
0.0
 40
2.248936
 50
90.778951
 51
124.259063
  0
ARC
  8
LY_1
  6
CONTINUOUS
 62
     3
  5
56
 10
-15.864399
 20
4.893351
 30
0.0
 40
1.855396
 50
213.574514
 51
89.143203
  0
ARC
  8
LY_1
  6
CONTINUOUS
 62
     3
  5
57
 10
-15.898563
 20
-4.897075
 30
0.0
 40
1.868597
 50
235.740937
 51
55.740955
  0
ARC
  8
LY_1
  6
CONTINUOUS
 62
     3
  5
58
 10
-28.304092
 20
-4.852705
 30
0.0
 40
1.895991
 50
179.999964
 51
359.999983
  0
ARC
  8
LY_1
  6
CONTINUOUS
 62
     3
  5
59
 10
-28.304092
 20
4.852711
 30
0.0
 40
1.895991
 50
0.000018
 51
180.000019
  0
ARC
  8
LY_1
  6
CONTINUOUS
 62
     3
  5
5A
 10
0.0
 20
264.547852
 30
0.0
 40
139.5
 50
246.009443
 51
293.990538
  0
ARC
  8
LY_1
  6
CONTINUOUS
 62
     3
  5
5B
 10
-58.954941
 20
240.021729
 30
0.0
 40
5.5
 50
212.731067
 51
293.990484
  0
ARC
  8
LY_1
  6
CONTINUOUS
 62
     3
  5
5C
 10
-58.954941
 20
132.073975
 30
0.0
 40
5.5
 50
66.009516
 51
147.268933
  0
ARC
  8
LY_1
  6
CONTINUOUS
 62
     3
  5
5D
 10
58.954941
 20
240.021729
 30
0.0
 40
5.5
 50
246.009498
 51
327.268931
  0
ARC
  8
LY_1
  6
CONTINUOUS
 62
     3
  5
5E
 10
0.0
 20
107.54776
 30
0.0
 40
139.5
 50
66.009462
 51
113.990557
  0
ARC
  8
LY_1
  6
CONTINUOUS
 62
     3
  5
5F
 10
58.954941
 20
132.073975
 30
0.0
 40
5.5
 50
32.731069
 51
113.990502
  0
CIRCLE
  8
LY_1
  6
CONTINUOUS
 62
     3
  5
60
 10
0.0
 20
186.047806
 30
0.0
 40
52.5
  0
CIRCLE
  8
LY_1
  6
CONTINUOUS
 62
     3
  5
61
 10
0.0
 20
186.047806
 30
0.0
 40
33.5
  0
ARC
  8
LY_1
  6
CONTINUOUS
 62
     3
  5
62
 10
26.313416
 20
52.220688
 30
0.0
 40
95.0
 50
340.442788
 51
0.000001
  0
ARC
  8
LY_1
  6
CONTINUOUS
 62
     3
  5
63
 10
320.313477
 20
52.22052
 30
0.0
 40
95.0
 50
180.000019
 51
199.557145
  0
ARC
  8
LY_1
  6
CONTINUOUS
 62
     3
  5
64
 10
173.313416
 20
0.0
 30
0.0
 40
61.0
 50
160.442783
 51
19.557164
  0
CIRCLE
  8
LY_1
  6
CONTINUOUS
 62
     3
  5
65
 10
173.313416
 20
0.0
 30
0.0
 40
42.462997
  0
CIRCLE
  8
LY_1
  6
CONTINUOUS
 62
   110
  5
66
 10
173.313416
 20
0.0
 30
0.0
 40
43.942001
  0
CIRCLE
  8
LY_1
  6
CONTINUOUS
 62
     3
  5
67
 10
-35.0
 20
56.5
 30
0.0
 40
8.0
  0
CIRCLE
  8
LY_1
  6
CONTINUOUS
 62
     3
  5
68
 10
-35.0
 20
56.5
 30
0.0
 40
10.0
  0
ARC
  8
LY_1
  6
CONTINUOUS
 62
     3
  5
69
 10
0.0
 20
-78.5
 30
0.0
 40
139.5
 50
113.23257
 51
113.990557
  0
ARC
  8
LY_1
  6
CONTINUOUS
 62
     3
  5
6A
 10
-57.0
 20
54.282715
 30
0.0
 40
5.0
 50
293.232497
 51
359.999964
  0
ARC
  8
LY_1
  6
CONTINUOUS
 62
     3
  5
6B
 10
57.0
 20
54.282715
 30
0.0
 40
5.0
 50
180.000036
 51
246.767485
  0
ARC
  8
LY_1
  6
CONTINUOUS
 62
     3
  5
6C
 10
-58.954941
 20
53.973831
 30
0.0
 40
5.5
 50
194.999951
 51
293.990484
  0
ARC
  8
LY_1
  6
CONTINUOUS
 62
     3
  5
6D
 10
58.954941
 20
53.973831
 30
0.0
 40
5.5
 50
246.009498
 51
345.000047
  0
ARC
  8
LY_1
  6
CONTINUOUS
 62
     3
  5
6E
 10
0.0
 20
-78.5
 30
0.0
 40
139.5
 50
66.009462
 51
66.767449
  0
ARC
  8
LY_1
  6
CONTINUOUS
 62
     3
  5
6F
 10
-58.954941
 20
-53.973831
 30
0.0
 40
5.5
 50
66.009516
 51
165.000049
  0
ARC
  8
LY_1
  6
CONTINUOUS
 62
     3
  5
70
 10
58.954941
 20
-53.973831
 30
0.0
 40
5.5
 50
14.999953
 51
113.990502
  0
ARC
  8
LY_1
  6
CONTINUOUS
 62
     3
  5
71
 10
0.0
 20
78.5
 30
0.0
 40
139.5
 50
246.009443
 51
293.990538
  0
LINE
  8
LY_1
  6
CONTINUOUS
 62
     3
  5
72
 10
18.140533
 20
5.232557
 30
0.0
 11
18.140533
 21
4.852499
 31
0.0
  0
LINE
  8
LY_1
  6
CONTINUOUS
 62
     3
  5
73
 10
-1.01015
 20
5.231955
 30
0.0
 11
-1.01015
 21
4.851983
 31
0.0
  0
LINE
  8
LY_1
  6
CONTINUOUS
 62
     3
  5
74
 10
-1.01015
 20
5.231955
 30
0.0
 11
1.843475
 21
5.231955
 31
0.0
  0
LINE
  8
LY_1
  6
CONTINUOUS
 62
     3
  5
75
 10
5.635707
 20
3.036455
 30
0.0
 11
9.804862
 21
3.036455
 31
0.0
  0
LINE
  8
LY_1
  6
CONTINUOUS
 62
     3
  5
76
 10
5.635707
 20
3.036455
 30
0.0
 11
5.635707
 21
-4.852489
 31
0.0
  0
LINE
  8
LY_1
  6
CONTINUOUS
 62
     3
  5
77
 10
1.843475
 20
5.231955
 30
0.0
 11
1.843475
 21
-4.852489
 31
0.0
  0
LINE
  8
LY_1
  6
CONTINUOUS
 62
     3
  5
78
 10
-2.906269
 20
6.747887
 30
0.0
 11
9.804862
 21
6.747887
 31
0.0
  0
LINE
  8
LY_1
  6
CONTINUOUS
 62
     3
  5
79
 10
18.140533
 20
5.232557
 30
0.0
 11
25.474686
 21
5.232557
 31
0.0
  0
LINE
  8
LY_1
  6
CONTINUOUS
 62
     3
  5
7A
 10
15.514179
 20
-6.748559
 30
0.0
 11
28.344208
 21
-6.748559
 31
0.0
  0
LINE
  8
LY_1
  6
CONTINUOUS
 62
     3
  5
7B
 10
28.344208
 20
-3.036876
 30
0.0
 11
21.249466
 21
-3.036876
 31
0.0
  0
LINE
  8
LY_1
  6
CONTINUOUS
 62
     3
  5
7C
 10
29.477663
 20
3.435437
 30
0.0
 11
21.206856
 21
-2.916505
 31
0.0
  0
LINE
  8
LY_1
  6
CONTINUOUS
 62
     3
  5
7D
 10
25.517363
 20
5.111944
 30
0.0
 11
14.388671
 21
-3.434841
 31
0.0
  0
LINE
  8
LY_1
  6
CONTINUOUS
 62
     3
  5
7E
 10
16.244537
 20
6.748574
 30
0.0
 11
28.352112
 21
6.748574
 31
0.0
  0
LINE
  8
LY_1
  6
CONTINUOUS
 62
     3
  5
7F
 10
-11.308371
 20
-4.852489
 30
0.0
 11
-11.308371
 21
4.852499
 31
0.0
  0
LINE
  8
LY_1
  6
CONTINUOUS
 62
     3
  5
80
 10
-7.51605
 20
4.852499
 30
0.0
 11
-7.51605
 21
-4.852489
 31
0.0
  0
LINE
  8
LY_1
  6
CONTINUOUS
 62
     3
  5
81
 10
-21.428452
 20
1.130422
 30
0.0
 11
-17.410239
 21
3.867255
 31
0.0
  0
LINE
  8
LY_1
  6
CONTINUOUS
 62
     3
  5
82
 10
-21.428507
 20
1.130307
 30
0.0
 11
-14.846466
 21
-3.352766
 31
0.0
  0
LINE
  8
LY_1
  6
CONTINUOUS
 62
     3
  5
83
 10
-26.326514
 20
0.055172
 30
0.0
 11
-17.071999
 21
6.358485
 31
0.0
  0
LINE
  8
LY_1
  6
CONTINUOUS
 62
     3
  5
84
 10
-26.326372
 20
-0.055533
 30
0.0
 11
-16.950313
 21
-6.441631
 31
0.0
  0
LINE
  8
LY_1
  6
CONTINUOUS
 62
     3
  5
85
 10
-26.408218
 20
4.852711
 30
0.0
 11
-26.408218
 21
-4.852705
 31
0.0
  0
LINE
  8
LY_1
  6
CONTINUOUS
 62
     3
  5
86
 10
-30.200073
 20
4.852711
 30
0.0
 11
-30.200073
 21
-4.852705
 31
0.0
  0
LINE
  8
LY_1
  6
CONTINUOUS
 62
     3
  5
87
 10
120.813416
 20
86.386642
 30
0.0
 11
225.813416
 21
86.386642
 31
0.0
  0
LINE
  8
LY_1
  6
CONTINUOUS
 62
     3
  5
88
 10
-52.5
 20
86.386642
 30
0.0
 11
52.5
 21
86.386642
 31
0.0
  0
LINE
  8
LY_1
  6
CONTINUOUS
 62
     3
  5
89
 10
173.313416
 20
99.892685
 30
0.0
 11
173.313416
 21
88.0
 31
0.0
  0
LINE
  8
LY_1
  6
CONTINUOUS
 62
     3
  5
8A
 10
200.101242
 20
88.0
 30
0.0
 11
200.101242
 21
99.892685
 31
0.0
  0
LINE
  8
LY_1
  6
CONTINUOUS
 62
     3
  5
8B
 10
146.525574
 20
88.0
 30
0.0
 11
146.525574
 21
99.892685
 31
0.0
  0
LINE
  8
LY_1
  6
CONTINUOUS
 62
     3
  5
8C
 10
26.787827
 20
88.0
 30
0.0
 11
26.787827
 21
99.892685
 31
0.0
  0
LINE
  8
LY_1
  6
CONTINUOUS
 62
     3
  5
8D
 10
0.0
 20
88.0
 30
0.0
 11
0.0
 21
99.892685
 31
0.0
  0
LINE
  8
LY_1
  6
CONTINUOUS
 62
     3
  5
8E
 10
-26.787842
 20
88.0
 30
0.0
 11
-26.787842
 21
99.892685
 31
0.0
  0
LINE
  8
LY_1
  6
CENTER
 62
   110
  5
90
 10
107.467285
 20
0.0
 30
0.0
 11
239.159103
 21
0.0
 31
0.0
  0
LINE
  8
LY_1
  6
CONTINUOUS
 62
     3
  5
91
 10
-65.5
 20
29.44487
 30
0.0
 11
-82.5
 21
29.44487
 31
0.0
  0
LINE
  8
LY_1
  6
CONTINUOUS
 62
     3
  5
92
 10
65.5
 20
29.44487
 30
0.0
 11
82.5
 21
29.44487
 31
0.0
  0
LINE
  8
LY_1
  6
CONTINUOUS
 62
     3
  5
93
 10
-65.5
 20
-29.44487
 30
0.0
 11
-82.5
 21
-29.44487
 31
0.0
  0
LINE
  8
LY_1
  6
CONTINUOUS
 62
     3
  5
94
 10
65.5
 20
-29.44487
 30
0.0
 11
82.5
 21
-29.44487
 31
0.0
  0
LINE
  8
LY_1
  6
CONTINUOUS
 62
     3
  5
95
 10
-44.999968
 20
141.047791
 30
0.0
 11
-46.03564
 21
160.809581
 31
0.0
  0
LINE
  8
LY_1
  6
CONTINUOUS
 62
     3
  5
96
 10
-63.581635
 20
186.047806
 30
0.0
 11
-82.5
 21
186.047806
 31
0.0
  0
LINE
  8
LY_1
  6
CONTINUOUS
 62
     3
  5
97
 10
-63.581635
 20
237.047852
 30
0.0
 11
-63.581635
 21
135.047806
 31
0.0
  0
LINE
  8
LY_1
  6
CONTINUOUS
 62
     3
  5
98
 10
-63.581635
 20
237.047852
 30
0.0
 11
-82.5
 21
237.047852
 31
0.0
  0
LINE
  8
LY_1
  6
CONTINUOUS
 62
     3
  5
99
 10
-63.581635
 20
135.047806
 30
0.0
 11
-82.5
 21
135.047806
 31
0.0
  0
LINE
  8
LY_1
  6
CONTINUOUS
 62
     3
  5
9A
 10
-82.5
 20
237.047852
 30
0.0
 11
-82.5
 21
135.047806
 31
0.0
  0
LINE
  8
LY_1
  6
CENTER
 62
   110
  5
9B
 10
0.0
 20
107.0
 30
0.0
 11
0.0
 21
-66.0
 31
0.0
  0
LINE
  8
LY_1
  6
CONTINUOUS
 62
     3
  5
9C
 10
63.581635
 20
186.047806
 30
0.0
 11
82.5
 21
186.047806
 31
0.0
  0
LINE
  8
LY_1
  6
CONTINUOUS
 62
     3
  5
9D
 10
63.581635
 20
237.047852
 30
0.0
 11
63.581635
 21
135.047806
 31
0.0
  0
LINE
  8
LY_1
  6
CONTINUOUS
 62
     3
  5
9E
 10
63.581635
 20
237.047852
 30
0.0
 11
82.5
 21
237.047852
 31
0.0
  0
LINE
  8
LY_1
  6
CONTINUOUS
 62
     3
  5
9F
 10
63.581635
 20
135.047806
 30
0.0
 11
82.5
 21
135.047806
 31
0.0
  0
LINE
  8
LY_1
  6
CONTINUOUS
 62
     3
  5
A0
 10
82.5
 20
237.047852
 30
0.0
 11
82.5
 21
135.047806
 31
0.0
  0
LINE
  8
LY_1
  6
CONTINUOUS
 62
     3
  5
A1
 10
-0.000025
 20
148.16407
 30
0.0
 11
-26.787838
 21
159.259944
 31
0.0
  0
LINE
  8
LY_1
  6
CONTINUOUS
 62
     3
  5
A2
 10
26.787841
 20
212.835627
 30
0.0
 11
-0.000029
 21
223.931525
 31
0.0
  0
LINE
  8
LY_1
  6
CONTINUOUS
 62
     3
  5
A3
 10
-26.787859
 20
159.259929
 30
0.0
 11
-37.883752
 21
186.047782
 31
0.0
  0
LINE
  8
LY_1
  6
CONTINUOUS
 62
     3
  5
A4
 10
37.883701
 20
186.047785
 30
0.0
 11
26.787819
 21
212.83561
 31
0.0
  0
LINE
  8
LY_1
  6
CONTINUOUS
 62
     3
  5
A5
 10
-37.883731
 20
186.047794
 30
0.0
 11
-26.787839
 21
212.835649
 31
0.0
  0
LINE
  8
LY_1
  6
CONTINUOUS
 62
     3
  5
A6
 10
26.787845
 20
159.25997
 30
0.0
 11
37.883725
 21
186.047797
 31
0.0
  0
LINE
  8
LY_1
  6
CONTINUOUS
 62
     3
  5
A7
 10
-26.787862
 20
212.835633
 30
0.0
 11
-0.000051
 21
223.931508
 31
0.0
  0
LINE
  8
LY_1
  6
CONTINUOUS
 62
     3
  5
A8
 10
-0.000048
 20
148.164056
 30
0.0
 11
26.787819
 21
159.259955
 31
0.0
  0
LINE
  8
LY_1
  6
CENTER
 62
   110
  5
A9
 10
-87.5
 20
186.047806
 30
0.0
 11
87.5
 21
186.047806
 31
0.0
  0
LINE
  8
LY_1
  6
CONTINUOUS
 62
     3
  5
AA
 10
136.163422
 20
99.892685
 30
0.0
 11
210.463409
 21
99.892685
 31
0.0
  0
LINE
  8
LY_1
  6
CONTINUOUS
 62
     3
  5
AB
 10
136.163427
 20
88.000005
 30
0.0
 11
120.813423
 21
86.386654
 31
0.0
  0
LINE
  8
LY_1
  6
CONTINUOUS
 62
     3
  5
AC
 10
139.813412
 20
102.000003
 30
0.0
 11
136.163422
 21
99.89268
 31
0.0
  0
LINE
  8
LY_1
  6
CONTINUOUS
 62
     3
  5
AD
 10
136.163422
 20
99.892685
 30
0.0
 11
136.163422
 21
88.0
 31
0.0
  0
LINE
  8
LY_1
  6
CONTINUOUS
 62
     3
  5
AE
 10
120.813416
 20
86.386642
 30
0.0
 11
120.813416
 21
77.0
 31
0.0
  0
LINE
  8
LY_1
  6
CONTINUOUS
 62
     3
  5
AF
 10
210.463405
 20
87.999989
 30
0.0
 11
225.813423
 21
86.386637
 31
0.0
  0
LINE
  8
LY_1
  6
CONTINUOUS
 62
     3
  5
B0
 10
206.813425
 20
101.999995
 30
0.0
 11
210.463414
 21
99.892672
 31
0.0
  0
LINE
  8
LY_1
  6
CONTINUOUS
 62
     3
  5
B1
 10
210.463409
 20
99.892685
 30
0.0
 11
210.463409
 21
87.999985
 31
0.0
  0
LINE
  8
LY_1
  6
CONTINUOUS
 62
     3
  5
B2
 10
139.8134
 20
102.0
 30
0.0
 11
206.813431
 21
102.0
 31
0.0
  0
LINE
  8
LY_1
  6
CONTINUOUS
 62
     3
  5
B3
 10
136.163422
 20
88.0
 30
0.0
 11
210.463409
 21
88.0
 31
0.0
  0
LINE
  8
LY_1
  6
CONTINUOUS
 62
     3
  5
B4
 10
121.313416
 20
77.0
 30
0.0
 11
121.313416
 21
52.220688
 31
0.0
  0
LINE
  8
LY_1
  6
CONTINUOUS
 62
     3
  5
B5
 10
225.313416
 20
77.0
 30
0.0
 11
225.313416
 21
52.22052
 31
0.0
  0
LINE
  8
LY_1
  6
CONTINUOUS
 62
     3
  5
B6
 10
225.813416
 20
86.386642
 30
0.0
 11
225.813416
 21
77.0
 31
0.0
  0
LINE
  8
LY_1
  6
CONTINUOUS
 62
     3
  5
B7
 10
120.813416
 20
77.0
 30
0.0
 11
225.813416
 21
77.0
 31
0.0
  0
LINE
  8
LY_1
  6
CONTINUOUS
 62
     3
  5
B8
 10
120.813416
 20
82.0
 30
0.0
 11
225.813416
 21
82.0
 31
0.0
  0
LINE
  8
LY_1
  6
CONTINUOUS
 62
     3
  5
B9
 10
-37.149994
 20
99.892685
 30
0.0
 11
37.149994
 21
99.892685
 31
0.0
  0
LINE
  8
LY_1
  6
CONTINUOUS
 62
     3
  5
BA
 10
-37.149989
 20
87.999997
 30
0.0
 11
-52.500008
 21
86.386645
 31
0.0
  0
LINE
  8
LY_1
  6
CONTINUOUS
 62
     3
  5
BB
 10
-33.500006
 20
101.999999
 30
0.0
 11
-37.149996
 21
99.892676
 31
0.0
  0
LINE
  8
LY_1
  6
CONTINUOUS
 62
     3
  5
BC
 10
-37.149994
 20
99.892685
 30
0.0
 11
-37.149994
 21
88.0
 31
0.0
  0
LINE
  8
LY_1
  6
CONTINUOUS
 62
     3
  5
BD
 10
-52.5
 20
86.386642
 30
0.0
 11
-52.5
 21
77.0
 31
0.0
  0
LINE
  8
LY_1
  6
CONTINUOUS
 62
     3
  5
BE
 10
37.149989
 20
87.999997
 30
0.0
 11
52.500008
 21
86.386645
 31
0.0
  0
LINE
  8
LY_1
  6
CONTINUOUS
 62
     3
  5
BF
 10
33.500006
 20
101.999999
 30
0.0
 11
37.149996
 21
99.892676
 31
0.0
  0
LINE
  8
LY_1
  6
CONTINUOUS
 62
     3
  5
C0
 10
37.149994
 20
99.892685
 30
0.0
 11
37.149994
 21
87.999985
 31
0.0
  0
LINE
  8
LY_1
  6
CONTINUOUS
 62
     3
  5
C1
 10
-33.500015
 20
102.0
 30
0.0
 11
33.500015
 21
102.0
 31
0.0
  0
LINE
  8
LY_1
  6
CONTINUOUS
 62
     3
  5
C2
 10
-37.149994
 20
88.0
 30
0.0
 11
37.149994
 21
88.0
 31
0.0
  0
LINE
  8
LY_1
  6
CONTINUOUS
 62
     3
  5
C3
 10
122.313413
 20
29.444864
 30
0.0
 11
173.31341
 21
58.889726
 31
0.0
  0
LINE
  8
LY_1
  6
CONTINUOUS
 62
     3
  5
C4
 10
173.313413
 20
-58.889726
 30
0.0
 11
224.31341
 21
-29.444863
 31
0.0
  0
LINE
  8
LY_1
  6
CONTINUOUS
 62
     3
  5
C5
 10
173.313413
 20
58.889726
 30
0.0
 11
224.31341
 21
29.444863
 31
0.0
  0
LINE
  8
LY_1
  6
CONTINUOUS
 62
     3
  5
C6
 10
122.313413
 20
-29.444864
 30
0.0
 11
173.31341
 21
-58.889726
 31
0.0
  0
LINE
  8
LY_1
  6
CONTINUOUS
 62
     3
  5
C7
 10
224.313416
 20
29.44487
 30
0.0
 11
224.313416
 21
-29.44487
 31
0.0
  0
LINE
  8
LY_1
  6
CONTINUOUS
 62
     3
  5
C8
 10
122.313416
 20
29.44487
 30
0.0
 11
122.313416
 21
-29.44487
 31
0.0
  0
LINE
  8
LY_1
  6
CENTER
 62
   110
  5
C9
 10
173.313416
 20
107.0
 30
0.0
 11
173.313416
 21
-66.0
 31
0.0
  0
LINE
  8
LY_1
  6
CONTINUOUS
 62
     3
  5
CA
 10
119.552094
 20
56.5
 30
0.0
 11
121.313416
 21
56.5
 31
0.0
  0
LINE
  8
LY_1
  6
CONTINUOUS
 62
     3
  5
CB
 10
-39.907471
 20
138.482864
 30
0.0
 11
-39.907471
 21
133.045654
 31
0.0
  0
LINE
  8
LY_1
  6
CONTINUOUS
 62
     3
  5
CC
 10
-44.814941
 20
133.045654
 30
0.0
 11
-25.185059
 21
133.045654
 31
0.0
  0
LINE
  8
LY_1
  6
CONTINUOUS
 62
     3
  5
CD
 10
-44.814941
 20
138.482864
 30
0.0
 11
-25.185059
 21
138.482864
 31
0.0
  0
LINE
  8
LY_1
  6
CONTINUOUS
 62
     3
  5
CE
 10
-44.814941
 20
138.482864
 30
0.0
 11
-44.814941
 21
133.045654
 31
0.0
  0
LINE
  8
LY_1
  6
CONTINUOUS
 62
     3
  5
CF
 10
-44.814942
 20
138.48283
 30
0.0
 11
-42.249996
 21
141.047775
 31
0.0
  0
LINE
  8
LY_1
  6
CONTINUOUS
 62
     3
  5
D0
 10
-44.814923
 20
133.045661
 30
0.0
 11
-42.999964
 21
131.997794
 31
0.0
  0
LINE
  8
LY_1
  6
CONTINUOUS
 62
     3
  5
D1
 10
-25.185059
 20
138.482864
 30
0.0
 11
-25.185059
 21
133.045654
 31
0.0
  0
LINE
  8
LY_1
  6
CONTINUOUS
 62
     3
  5
D2
 10
-30.092529
 20
138.482864
 30
0.0
 11
-30.092529
 21
133.045654
 31
0.0
  0
LINE
  8
LY_1
  6
CONTINUOUS
 62
     3
  5
D3
 10
-25.185068
 20
138.48283
 30
0.0
 11
-27.750013
 21
141.047775
 31
0.0
  0
LINE
  8
LY_1
  6
CONTINUOUS
 62
     3
  5
D4
 10
-25.185051
 20
133.045675
 30
0.0
 11
-27.00001
 21
131.997808
 31
0.0
  0
LINE
  8
LY_1
  6
CONTINUOUS
 62
     3
  5
D5
 10
-43.0
 20
131.997787
 30
0.0
 11
-27.0
 21
131.997787
 31
0.0
  0
LINE
  8
LY_1
  6
CENTER
 62
   110
  5
D6
 10
-35.0
 20
126.997787
 30
0.0
 11
-35.0
 21
147.297791
 31
0.0
  0
LINE
  8
LY_1
  6
CONTINUOUS
 62
     3
  5
D7
 10
-45.0
 20
141.047806
 30
0.0
 11
-27.041641
 21
141.047806
 31
0.0
  0
LINE
  8
LY_1
  6
CONTINUOUS
 62
     3
  5
D8
 10
119.552094
 20
65.0
 30
0.0
 11
119.552094
 21
48.0
 31
0.0
  0
LINE
  8
LY_1
  6
CONTINUOUS
 62
     3
  5
D9
 10
119.552118
 20
48.000027
 30
0.0
 11
119.263437
 21
48.500037
 31
0.0
  0
LINE
  8
LY_1
  6
CONTINUOUS
 62
     3
  5
DA
 10
119.552094
 20
48.0
 30
0.0
 11
121.219604
 21
48.0
 31
0.0
  0
LINE
  8
LY_1
  6
CONTINUOUS
 62
     3
  5
DB
 10
119.552127
 20
64.999984
 30
0.0
 11
119.263446
 21
64.499974
 31
0.0
  0
LINE
  8
LY_1
  6
CONTINUOUS
 62
     3
  5
DC
 10
119.552094
 20
65.0
 30
0.0
 11
121.313416
 21
65.0
 31
0.0
  0
LINE
  8
LY_1
  6
CONTINUOUS
 62
     3
  5
DD
 10
119.263412
 20
64.5
 30
0.0
 11
119.263412
 21
48.5
 31
0.0
  0
LINE
  8
LY_1
  6
CENTER
 62
   110
  5
DE
 10
114.263412
 20
56.5
 30
0.0
 11
134.563416
 21
56.5
 31
0.0
  0
LINE
  8
LY_1
  6
CONTINUOUS
 62
     3
  5
DF
 10
-39.907487
 20
48.000001
 30
0.0
 11
-44.814965
 21
56.500002
 31
0.0
  0
LINE
  8
LY_1
  6
CONTINUOUS
 62
     3
  5
E0
 10
-25.185055
 20
56.500001
 30
0.0
 11
-30.092534
 21
65.000002
 31
0.0
  0
LINE
  8
LY_1
  6
CONTINUOUS
 62
     3
  5
E1
 10
-44.814958
 20
56.50001
 30
0.0
 11
-39.907487
 21
64.999998
 31
0.0
  0
LINE
  8
LY_1
  6
CONTINUOUS
 62
     3
  5
E2
 10
-30.092526
 20
48.00001
 30
0.0
 11
-25.185056
 21
56.499998
 31
0.0
  0
LINE
  8
LY_1
  6
CONTINUOUS
 62
     3
  5
E3
 10
-39.907486
 20
65.0
 30
0.0
 11
-30.092529
 21
65.0
 31
0.0
  0
LINE
  8
LY_1
  6
CONTINUOUS
 62
     3
  5
E4
 10
-39.907486
 20
48.0
 30
0.0
 11
-30.092529
 21
48.0
 31
0.0
  0
LINE
  8
LY_1
  6
CENTER
 62
   110
  5
E5
 10
-35.0
 20
71.454666
 30
0.0
 11
-35.0
 21
41.545334
 31
0.0
  0
LINE
  8
LY_1
  6
CENTER
 62
   110
  5
E6
 10
-49.93959
 20
56.5
 30
0.0
 11
-20.0
 21
56.5
 31
0.0
  0
LINE
  8
LY_1
  6
CONTINUOUS
 62
     3
  5
E7
 10
-52.0
 20
77.0
 30
0.0
 11
-52.0
 21
54.282715
 31
0.0
  0
LINE
  8
LY_1
  6
CONTINUOUS
 62
     3
  5
E8
 10
52.0
 20
77.0
 30
0.0
 11
52.0
 21
54.282715
 31
0.0
  0
LINE
  8
LY_1
  6
CONTINUOUS
 62
     3
  5
E9
 10
52.5
 20
86.386642
 30
0.0
 11
52.5
 21
77.0
 31
0.0
  0
LINE
  8
LY_1
  6
CONTINUOUS
 62
     3
  5
EA
 10
-52.5
 20
77.0
 30
0.0
 11
52.5
 21
77.0
 31
0.0
  0
LINE
  8
LY_1
  6
CONTINUOUS
 62
     3
  5
EB
 10
-52.5
 20
82.0
 30
0.0
 11
52.5
 21
82.0
 31
0.0
  0
LINE
  8
LY_1
  6
CONTINUOUS
 62
     3
  5
EC
 10
-64.267525
 20
52.55032
 30
0.0
 11
-65.500003
 21
57.149993
 31
0.0
  0
LINE
  8
LY_1
  6
CONTINUOUS
 62
     3
  5
ED
 10
-65.5
 20
57.149994
 30
0.0
 11
-82.5
 21
57.149994
 31
0.0
  0
LINE
  8
LY_1
  6
CONTINUOUS
 62
     3
  5
EE
 10
64.267525
 20
52.55032
 30
0.0
 11
65.500003
 21
57.149993
 31
0.0
  0
LINE
  8
LY_1
  6
CONTINUOUS
 62
     3
  5
EF
 10
65.5
 20
57.149994
 30
0.0
 11
82.5
 21
57.149994
 31
0.0
  0
LINE
  8
LY_1
  6
CONTINUOUS
 62
     3
  5
F0
 10
-64.267525
 20
-52.55032
 30
0.0
 11
-65.500003
 21
-57.149993
 31
0.0
  0
LINE
  8
LY_1
  6
CONTINUOUS
 62
     3
  5
F1
 10
-65.5
 20
-57.149994
 30
0.0
 11
-82.5
 21
-57.149994
 31
0.0
  0
LINE
  8
LY_1
  6
CONTINUOUS
 62
     3
  5
F2
 10
-65.5
 20
57.149994
 30
0.0
 11
-65.5
 21
-57.149994
 31
0.0
  0
LINE
  8
LY_1
  6
CONTINUOUS
 62
     3
  5
F3
 10
-82.5
 20
57.149994
 30
0.0
 11
-82.5
 21
-57.149994
 31
0.0
  0
LINE
  8
LY_1
  6
CONTINUOUS
 62
     3
  5
F4
 10
64.267525
 20
-52.55032
 30
0.0
 11
65.500003
 21
-57.149993
 31
0.0
  0
LINE
  8
LY_1
  6
CONTINUOUS
 62
     3
  5
F5
 10
65.5
 20
-57.149994
 30
0.0
 11
82.5
 21
-57.149994
 31
0.0
  0
LINE
  8
LY_1
  6
CONTINUOUS
 62
     3
  5
F6
 10
65.5
 20
57.149994
 30
0.0
 11
65.5
 21
-57.149994
 31
0.0
  0
LINE
  8
LY_1
  6
CONTINUOUS
 62
     3
  5
F7
 10
82.5
 20
57.149994
 30
0.0
 11
82.5
 21
-57.149994
 31
0.0
  0
LINE
  8
LY_1
  6
CENTER
 62
   110
  5
F8
 10
0.0
 20
252.047852
 30
0.0
 11
0.0
 21
120.047852
 31
0.0
  0
LINE
  8
LY_1
  6
CENTER
 62
   110
  5
F9
 10
-87.5
 20
0.0
 30
0.0
 11
87.5
 21
0.0
 31
0.0
  0
ENDSEC
  0
EOF
