  0
SECTION
  2
HEADER
  9
$ACADVER
  1
AC1009
  9
$DWGCODEPAGE
  3
dos932
  9
$INSBASE
 10
0.0
 20
0.0
 30
0.0
  9
$EXTMIN
 10
-33.24281
 20
-67.114703
 30
0.0
  9
$EXTMAX
 10
108.236465
 20
103.662659
 30
0.0
  9
$LIMMIN
 10
-33.24281
 20
-67.114703
  9
$LIMMAX
 10
108.236465
 20
103.662659
  9
$ORTHOMODE
 70
     0
  9
$REGENMODE
 70
     1
  9
$FILLMODE
 70
     1
  9
$QTEXTMODE
 70
     0
  9
$MIRRTEXT
 70
     1
  9
$DRAGMODE
 70
     2
  9
$LTSCALE
 40
1.0
  9
$OSMODE
 70
     0
  9
$ATTMODE
 70
     1
  9
$TEXTSIZE
 40
3.3
  9
$TRACEWID
 40
0.05
  9
$TEXTSTYLE
  7
MX_NOTE_STANDARD
  9
$CLAYER
  8
LY_1
  9
$CELTYPE
  6
CONTINUOUS
  9
$CECOLOR
 62
   256
  9
$DIMSCALE
 40
1.0
  9
$DIMASZ
 40
2.5
  9
$DIMEXO
 40
0.0
  9
$DIMDLI
 40
3.75
  9
$DIMRND
 40
0.0
  9
$DIMDLE
 40
0.0
  9
$DIMEXE
 40
1.1938
  9
$DIMTP
 40
0.0
  9
$DIMTM
 40
0.0
  9
$DIMTXT
 40
3.3
  9
$DIMCEN
 40
2.5
  9
$DIMTSZ
 40
0.0
  9
$DIMTOL
 70
     0
  9
$DIMLIM
 70
     0
  9
$DIMTIH
 70
     0
  9
$DIMTOH
 70
     0
  9
$DIMSE1
 70
     0
  9
$DIMSE2
 70
     0
  9
$DIMTAD
 70
     1
  9
$DIMZIN
 70
     8
  9
$DIMBLK
  1

  9
$DIMASO
 70
     1
  9
$DIMSHO
 70
     1
  9
$DIMPOST
  1

  9
$DIMAPOST
  1

  9
$DIMALT
 70
     0
  9
$DIMALTD
 70
     4
  9
$DIMALTF
 40
0.03937
  9
$DIMLFAC
 40
1.0
  9
$DIMTOFL
 70
     1
  9
$DIMTVP
 40
0.0
  9
$DIMTIX
 70
     0
  9
$DIMSOXD
 70
     0
  9
$DIMSAH
 70
     1
  9
$DIMBLK1
  1
_OPEN30
  9
$DIMBLK2
  1
_OPEN30
  9
$DIMSTYLE
  2
MXDIMSTYLE
  9
$DIMCLRD
 70
     0
  9
$DIMCLRE
 70
     0
  9
$DIMCLRT
 70
     0
  9
$DIMTFAC
 40
1.0
  9
$DIMGAP
 40
1.0
  9
$LUNITS
 70
     2
  9
$LUPREC
 70
     4
  9
$AXISMODE
 70
     0
  9
$AXISUNIT
 10
0.0
 20
0.0
  9
$SKETCHINC
 40
0.1
  9
$FILLETRAD
 40
0.0
  9
$AUNITS
 70
     0
  9
$AUPREC
 70
     0
  9
$MENU
  1
acad
  9
$ELEVATION
 40
0.0
  9
$PELEVATION
 40
0.0
  9
$THICKNESS
 40
0.0
  9
$LIMCHECK
 70
     0
  9
$BLIPMODE
 70
     1
  9
$CHAMFERA
 40
0.0
  9
$CHAMFERB
 40
0.0
  9
$SKPOLY
 70
     0
  9
$TDCREATE
 40
2454901.550243055
  9
$TDUPDATE
 40
2454901.550243055
  9
$TDINDWG
 40
0.0000000000
  9
$TDUSRTIMER
 40
0.0000000000
  9
$USRTIMER
 70
     1
  9
$ANGBASE
 50
0.0
  9
$ANGDIR
 70
     0
  9
$PDMODE
 70
     0
  9
$PDSIZE
 40
0.0
  9
$PLINEWID
 40
0.0
  9
$COORDS
 70
     1
  9
$SPLFRAME
 70
     0
  9
$SPLINETYPE
 70
     6
  9
$SPLINESEGS
 70
     8
  9
$ATTDIA
 70
     0
  9
$ATTREQ
 70
     1
  9
$HANDLING
 70
     1
  9
$HANDSEED
  5
139
  9
$SURFTAB1
 70
     6
  9
$SURFTAB2
 70
     6
  9
$SURFTYPE
 70
     6
  9
$SURFU
 70
     6
  9
$SURFV
 70
     6
  9
$UCSNAME
  2

  9
$UCSORG
 10
0.0
 20
0.0
 30
0.0
  9
$UCSXDIR
 10
1.0
 20
0.0
 30
0.0
  9
$UCSYDIR
 10
0.0
 20
1.0
 30
0.0
  9
$PUCSNAME
  2

  9
$PUCSORG
 10
0.0
 20
0.0
 30
0.0
  9
$PUCSXDIR
 10
1.0
 20
0.0
 30
0.0
  9
$PUCSYDIR
 10
0.0
 20
1.0
 30
0.0
  9
$USERI1
 70
     0
  9
$USERI2
 70
     0
  9
$USERI3
 70
     0
  9
$USERI4
 70
     0
  9
$USERI5
 70
     0
  9
$USERR1
 40
0.0
  9
$USERR2
 40
0.0
  9
$USERR3
 40
0.0
  9
$USERR4
 40
0.0
  9
$USERR5
 40
0.0
  9
$WORLDVIEW
 70
     1
  9
$SHADEDGE
 70
     3
  9
$SHADEDIF
 70
    70
  9
$TILEMODE
 70
     1
  9
$MAXACTVP
 70
    16
  9
$PINSBASE
 10
0.0
 20
0.0
 30
0.0
  9
$PLIMCHECK
 70
     0
  9
$PEXTMIN
 10
1.000000E+20
 20
1.000000E+20
 30
1.000000E+20
  9
$PEXTMAX
 10
-1.000000E+20
 20
-1.000000E+20
 30
-1.000000E+20
  9
$PLIMMIN
 10
0.0
 20
0.0
  9
$PLIMMAX
 10
12.0
 20
9.0
  9
$UNITMODE
 70
     0
  9
$VISRETAIN
 70
     0
  9
$PLINEGEN
 70
     1
  9
$PSLTSCALE
 70
     0
  9
$TREEDEPTH
 70
  3020
  0
ENDSEC
  0
SECTION
  2
TABLES
  0
TABLE
  2
VPORT
 70
     1
  0
VPORT
  2
*ACTIVE
 70
     0
 10
0.0
 20
0.0
 11
1.0
 21
1.0
 12
37.496828
 22
18.273978
 13
0.0
 23
0.0
 14
1.0
 24
1.0
 15
0.0
 25
0.0
 16
0.0
 26
0.0
 36
1.0
 17
0.0
 27
0.0
 37
0.0
 40
172.485135
 41
1.732051
 42
50.0
 43
0.0
 44
0.0
 50
0.0
 51
0.0
 71
     0
 72
   100
 73
     1
 74
     1
 75
     0
 76
     0
 77
     0
 78
     0
  0
ENDTAB
  0
TABLE
  2
LTYPE
 70
     2
  0
LTYPE
  2
CONTINUOUS
 70
    64
  3
Solid line
 72
    65
 73
     0
 40
0.0
  0
LTYPE
  2
CENTER
 70
    64
  3
Center ____ _ ____ _ ____ _ ____ _ ____ _ ____
 72
    65
 73
     4
 40
50.8
 49
31.75
 49
-6.35
 49
6.35
 49
-6.35
  0
ENDTAB
  0
TABLE
  2
LAYER
 70
     3
  0
LAYER
  2
0
 70
     0
 62
     7
  6
CONTINUOUS
  0
LAYER
  2
LY_1
 70
     0
 62
     7
  6
CONTINUOUS
  0
LAYER
  2
DEFPOINTS
 70
     0
 62
     7
  6
CONTINUOUS
  0
ENDTAB
  0
TABLE
  2
STYLE
 70
     2
  0
STYLE
  2
MX_NOTE_STANDARD
 70
     0
 40
0.0
 41
1.0
 50
0.0
 71
     0
 42
3.3
  3
txt.shx
  4
extfont.shx
  0
STYLE
  2
MX_DIMTXSTY_2
 70
     0
 40
0.0
 41
0.85
 50
0.0
 71
     0
 42
3.3
  3
txt.shx
  4
extfont.shx
  0
ENDTAB
  0
TABLE
  2
VIEW
 70
     0
  0
ENDTAB
  0
TABLE
  2
UCS
 70
     0
  0
ENDTAB
  0
TABLE
  2
APPID
 70
     1
  0
APPID
  2
ACAD
 70
     0
  0
ENDTAB
  0
TABLE
  2
DIMSTYLE
 70
     1
  0
DIMSTYLE
  2
MXDIMSTYLE
 70
     0
  3

  4

  5

  6
_OPEN30
  7
_OPEN30
 40
1.0
 41
2.5
 42
0.0
 43
3.75
 44
1.1938
 45
0.0
 46
0.0
 47
0.0
 48
0.0
 71
     0
 72
     0
 73
     0
 74
     0
 75
     0
 76
     0
 77
     1
 78
     8
140
3.3
141
2.5
142
0.0
143
0.03937
144
1.0
145
0.0
146
1.0
147
1.0
170
     0
171
     4
172
     1
173
     1
174
     0
175
     0
176
     0
177
     0
178
     0
  0
ENDTAB
  0
ENDSEC
  0
SECTION
  2
BLOCKS
  0
BLOCK
  8
0
  6
BYBLOCK
 62
     0
  5
20
  2
_OPEN30
 70
     2
 10
0.0
 20
0.0
 30
0.0
  3
_OPEN30
  0
LINE
  8
0
  6
BYBLOCK
 62
     0
  5
21
 10
-1.0
 20
0.267949
 30
0.0
 11
0.0
 21
0.0
 31
0.0
  0
LINE
  8
0
  6
BYBLOCK
 62
     0
  5
22
 10
0.0
 20
0.0
 30
0.0
 11
-1.0
 21
-0.267949
 31
0.0
  0
LINE
  8
0
  6
BYBLOCK
 62
     0
  5
23
 10
0.0
 20
0.0
 30
0.0
 11
-1.0
 21
0.0
 31
0.0
  0
ENDBLK
  8
0
  6
BYBLOCK
 62
     0
  5
24
  0
BLOCK
  8
0
  6
BYBLOCK
 62
     0
  5
26
  2
*D1
 70
     1
 10
0.0
 20
0.0
 30
0.0
  3
*D1
  0
LINE
  8
0
  6
CONTINUOUS
 62
   110
  5
27
 10
39.5
 20
38.5
 30
0.0
 11
39.5
 21
0.0
 31
0.0
  0
LINE
  8
0
  6
CONTINUOUS
 62
   110
  5
28
 10
9.000005
 20
38.5
 30
0.0
 11
40.693787
 21
38.5
 31
0.0
  0
LINE
  8
0
  6
CONTINUOUS
 62
   110
  5
29
 10
31.5
 20
0.0
 30
0.0
 11
40.693787
 21
0.0
 31
0.0
  0
INSERT
  8
0
  6
CONTINUOUS
 62
   110
  5
30
  2
_OPEN
 10
39.5
 20
38.5
 30
0.0
 41
2.19
 42
2.19
 50
90.0
 43
2.19
  0
INSERT
  8
0
  6
CONTINUOUS
 62
   110
  5
31
  2
_OPEN
 10
39.5
 20
0.0
 30
0.0
 41
2.19
 42
2.19
 50
270.0
 43
2.19
  0
TEXT
  8
0
  6
CONTINUOUS
 62
   110
  5
33
 10
38.5
 20
17.023346
 30
0.0
 40
3.3
  1
39
 50
90.0
 41
0.98743
  7
MX_DIMTXSTY_2
 11
36.85
 21
17.023346
 31
0.0
 73
     2
  0
POINT
  8
DEFPOINTS
  6
CONTINUOUS
 62
     0
  5
34
 10
9.000005
 20
38.5
 30
0.0
  0
POINT
  8
DEFPOINTS
  6
CONTINUOUS
 62
     0
  5
35
 10
31.5
 20
0.0
 30
0.0
  0
POINT
  8
DEFPOINTS
  6
CONTINUOUS
 62
     0
  5
36
 10
39.5
 20
0.0
 30
0.0
  0
ENDBLK
  8
0
  6
BYBLOCK
 62
     0
  5
37
  0
BLOCK
  8
0
  6
BYBLOCK
 62
     0
  5
2B
  2
_OPEN
 70
     2
 10
0.0
 20
0.0
 30
0.0
  3
_OPEN
  0
LINE
  8
0
  6
BYBLOCK
 62
     0
  5
2C
 10
-1.0
 20
0.166667
 30
0.0
 11
0.0
 21
0.0
 31
0.0
  0
LINE
  8
0
  6
BYBLOCK
 62
     0
  5
2D
 10
0.0
 20
0.0
 30
0.0
 11
-1.0
 21
-0.166667
 31
0.0
  0
LINE
  8
0
  6
BYBLOCK
 62
     0
  5
2E
 10
0.0
 20
0.0
 30
0.0
 11
-1.0
 21
0.0
 31
0.0
  0
ENDBLK
  8
0
  6
BYBLOCK
 62
     0
  5
2F
  0
BLOCK
  8
0
  6
BYBLOCK
 62
     0
  5
3A
  2
*D3
 70
     1
 10
0.0
 20
0.0
 30
0.0
  3
*D3
  0
LINE
  8
0
  6
CONTINUOUS
 62
   110
  5
3B
 10
26.5
 20
-30.0
 30
0.0
 11
-26.5
 21
-30.0
 31
0.0
  0
LINE
  8
0
  6
CONTINUOUS
 62
   110
  5
3C
 10
26.5
 20
-13.25
 30
0.0
 11
26.5
 21
-31.193787
 31
0.0
  0
LINE
  8
0
  6
CONTINUOUS
 62
   110
  5
3D
 10
-26.5
 20
-13.25
 30
0.0
 11
-26.5
 21
-31.193787
 31
0.0
  0
INSERT
  8
0
  6
CONTINUOUS
 62
   110
  5
3E
  2
_OPEN
 10
26.5
 20
-30.0
 30
0.0
 41
2.19
 42
2.19
 43
2.19
  0
INSERT
  8
0
  6
CONTINUOUS
 62
   110
  5
3F
  2
_OPEN
 10
-26.5
 20
-30.0
 30
0.0
 41
2.19
 42
2.19
 50
180.0
 43
2.19
  0
TEXT
  8
0
  6
CONTINUOUS
 62
   110
  5
40
 10
-2.226654
 20
-29.0
 30
0.0
 40
3.3
  1
53
 41
0.98743
  7
MX_DIMTXSTY_2
 11
-2.226654
 21
-27.35
 31
0.0
 73
     2
  0
POINT
  8
DEFPOINTS
  6
CONTINUOUS
 62
     0
  5
41
 10
26.5
 20
-13.25
 30
0.0
  0
POINT
  8
DEFPOINTS
  6
CONTINUOUS
 62
     0
  5
42
 10
-26.5
 20
-13.25
 30
0.0
  0
POINT
  8
DEFPOINTS
  6
CONTINUOUS
 62
     0
  5
43
 10
-26.5
 20
-30.0
 30
0.0
  0
ENDBLK
  8
0
  6
BYBLOCK
 62
     0
  5
44
  0
ENDSEC
  0
SECTION
  2
ENTITIES
  0
DIMENSION
  8
LY_1
  6
CONTINUOUS
 62
   110
  5
38
  2
*D1
 10
39.5
 20
0.0
 30
0.0
 11
39.5
 21
19.25
 31
0.0
 70
   128
  1
<>
 13
9.000005
 23
38.5
 33
0.0
 14
31.5
 24
0.0
 34
0.0
 50
90.0
  3
MXDIMSTYLE
1001
ACAD
1000
DSTYLE
1002
{
1070
     6
1000
_OPEN
1070
     7
1000
_OPEN
1070
    41
1040
2.19
1070
    44
1040
1.193787
1070
   271
1070
     0
1070
   284
1070
     8
1070
   340
1005
32
1070
   343
1005
2A
1070
   344
1005
2A
1002
}
  0
DIMENSION
  8
LY_1
  6
CONTINUOUS
 62
   110
  5
45
  2
*D3
 10
-26.5
 20
-30.0
 30
0.0
 11
0.0
 21
-30.0
 31
0.0
 70
   128
  1
<>
 13
26.5
 23
-13.25
 33
0.0
 14
-26.5
 24
-13.25
 34
0.0
  3
MXDIMSTYLE
1001
ACAD
1000
DSTYLE
1002
{
1070
     6
1000
_OPEN
1070
     7
1000
_OPEN
1070
    41
1040
2.19
1070
    44
1040
1.193787
1070
   271
1070
     0
1070
   284
1070
     8
1070
   340
1005
32
1070
   343
1005
2A
1070
   344
1005
2A
1002
}
  0
TEXT
  8
LY_1
  6
CONTINUOUS
 62
   110
  5
46
 10
-32.591067
 20
-50.083591
 30
0.0
 40
4.167181
  1
      SWING CHECK VALVE 3/8
 41
0.938395
  7
MX_NOTE_STANDARD
 11
-32.591067
 21
-48.0
 31
0.0
 73
     2
  0
TEXT
  8
LY_1
  6
CONTINUOUS
 62
   110
  5
47
 10
-32.609061
 20
-66.083591
 30
0.0
 40
4.167181
  1
KITZ
 41
0.912486
  7
MX_NOTE_STANDARD
 11
-32.609061
 21
-64.0
 31
0.0
 73
     2
  0
TEXT
  8
LY_1
  6
CONTINUOUS
 62
   110
  5
48
 10
-32.556664
 20
-58.083591
 30
0.0
 40
4.167181
  1
FIG   R3/8
 41
0.987928
  7
MX_NOTE_STANDARD
 11
-32.556664
 21
-56.0
 31
0.0
 73
     2
  0
TEXT
  8
LY_1
  6
CONTINUOUS
 62
   110
  5
49
 10
-32.60692
 20
-42.083591
 30
0.0
 40
4.167181
  1
NAME  CLASS 125 CAST BRONZE
 41
0.915569
  7
MX_NOTE_STANDARD
 11
-32.60692
 21
-40.0
 31
0.0
 73
     2
  0
POLYLINE
  8
LY_1
  6
CONTINUOUS
 62
     3
  5
4A
 66
     1
 10
0.0
 20
0.0
 30
0.0
  0
VERTEX
  8
LY_1
  6
CONTINUOUS
 62
     3
  5
FF
 10
7.548834
 20
-1.038108
 30
0.0
  0
VERTEX
  8
LY_1
  6
CONTINUOUS
 62
     3
  5
100
 10
7.546328
 20
-1.040316
 30
0.0
  0
VERTEX
  8
LY_1
  6
CONTINUOUS
 62
     3
  5
101
 10
7.544156
 20
-1.04284
 30
0.0
  0
VERTEX
  8
LY_1
  6
CONTINUOUS
 62
     3
  5
102
 10
7.542357
 20
-1.045632
 30
0.0
  0
VERTEX
  8
LY_1
  6
CONTINUOUS
 62
     3
  5
103
 10
7.540967
 20
-1.048639
 30
0.0
  0
VERTEX
  8
LY_1
  6
CONTINUOUS
 62
     3
  5
104
 10
7.540012
 20
-1.051805
 30
0.0
  0
VERTEX
  8
LY_1
  6
CONTINUOUS
 62
     3
  5
105
 10
7.53951
 20
-1.055068
 30
0.0
  0
VERTEX
  8
LY_1
  6
CONTINUOUS
 62
     3
  5
106
 10
7.539469
 20
-1.058369
 30
0.0
  0
VERTEX
  8
LY_1
  6
CONTINUOUS
 62
     3
  5
107
 10
7.539892
 20
-1.061643
 30
0.0
  0
VERTEX
  8
LY_1
  6
CONTINUOUS
 62
     3
  5
108
 10
7.54077
 20
-1.06483
 30
0.0
  0
VERTEX
  8
LY_1
  6
CONTINUOUS
 62
     3
  5
109
 10
7.542086
 20
-1.067869
 30
0.0
  0
VERTEX
  8
LY_1
  6
CONTINUOUS
 62
     3
  5
10A
 10
7.543815
 20
-1.070702
 30
0.0
  0
VERTEX
  8
LY_1
  6
CONTINUOUS
 62
     3
  5
10B
 10
7.545925
 20
-1.073276
 30
0.0
  0
VERTEX
  8
LY_1
  6
CONTINUOUS
 62
     3
  5
10C
 10
7.548377
 20
-1.075543
 30
0.0
  0
VERTEX
  8
LY_1
  6
CONTINUOUS
 62
     3
  5
10D
 10
7.551122
 20
-1.077459
 30
0.0
  0
VERTEX
  8
LY_1
  6
CONTINUOUS
 62
     3
  5
10E
 10
7.554111
 20
-1.078988
 30
0.0
  0
VERTEX
  8
LY_1
  6
CONTINUOUS
 62
     3
  5
10F
 10
7.557285
 20
-1.080101
 30
0.0
  0
VERTEX
  8
LY_1
  6
CONTINUOUS
 62
     3
  5
110
 10
7.560586
 20
-1.080778
 30
0.0
  0
VERTEX
  8
LY_1
  6
CONTINUOUS
 62
     3
  5
111
 10
7.56395
 20
-1.081005
 30
0.0
  0
VERTEX
  8
LY_1
  6
CONTINUOUS
 62
     3
  5
112
 10
7.56395
 20
-1.081005
 30
0.0
  0
SEQEND
  8
LY_1
  6
CONTINUOUS
 62
     3
  5
113
  0
POLYLINE
  8
LY_1
  6
CONTINUOUS
 62
     3
  5
4B
 66
     1
 10
0.0
 20
0.0
 30
0.0
  0
VERTEX
  8
LY_1
  6
CONTINUOUS
 62
     3
  5
114
 10
9.08314
 20
1.819697
 30
0.0
  0
VERTEX
  8
LY_1
  6
CONTINUOUS
 62
     3
  5
115
 10
9.085794
 20
1.822057
 30
0.0
  0
VERTEX
  8
LY_1
  6
CONTINUOUS
 62
     3
  5
116
 10
9.088068
 20
1.824771
 30
0.0
  0
VERTEX
  8
LY_1
  6
CONTINUOUS
 62
     3
  5
117
 10
9.089914
 20
1.827781
 30
0.0
  0
VERTEX
  8
LY_1
  6
CONTINUOUS
 62
     3
  5
118
 10
9.091291
 20
1.831021
 30
0.0
  0
VERTEX
  8
LY_1
  6
CONTINUOUS
 62
     3
  5
119
 10
9.092171
 20
1.834424
 30
0.0
  0
VERTEX
  8
LY_1
  6
CONTINUOUS
 62
     3
  5
11A
 10
9.092534
 20
1.837916
 30
0.0
  0
VERTEX
  8
LY_1
  6
CONTINUOUS
 62
     3
  5
11B
 10
9.092373
 20
1.841422
 30
0.0
  0
VERTEX
  8
LY_1
  6
CONTINUOUS
 62
     3
  5
11C
 10
9.091691
 20
1.844868
 30
0.0
  0
VERTEX
  8
LY_1
  6
CONTINUOUS
 62
     3
  5
11D
 10
9.090503
 20
1.84818
 30
0.0
  0
VERTEX
  8
LY_1
  6
CONTINUOUS
 62
     3
  5
11E
 10
9.088834
 20
1.851287
 30
0.0
  0
VERTEX
  8
LY_1
  6
CONTINUOUS
 62
     3
  5
11F
 10
9.08672
 20
1.854122
 30
0.0
  0
VERTEX
  8
LY_1
  6
CONTINUOUS
 62
     3
  5
120
 10
9.084206
 20
1.856625
 30
0.0
  0
VERTEX
  8
LY_1
  6
CONTINUOUS
 62
     3
  5
121
 10
9.081346
 20
1.858743
 30
0.0
  0
VERTEX
  8
LY_1
  6
CONTINUOUS
 62
     3
  5
122
 10
9.078202
 20
1.860429
 30
0.0
  0
VERTEX
  8
LY_1
  6
CONTINUOUS
 62
     3
  5
123
 10
9.074839
 20
1.861649
 30
0.0
  0
VERTEX
  8
LY_1
  6
CONTINUOUS
 62
     3
  5
124
 10
9.071331
 20
1.862375
 30
0.0
  0
VERTEX
  8
LY_1
  6
CONTINUOUS
 62
     3
  5
125
 10
9.069681
 20
1.86254
 30
0.0
  0
VERTEX
  8
LY_1
  6
CONTINUOUS
 62
     3
  5
126
 10
9.068024
 20
1.862594
 30
0.0
  0
SEQEND
  8
LY_1
  6
CONTINUOUS
 62
     3
  5
127
  0
POLYLINE
  8
LY_1
  6
CONTINUOUS
 62
     3
  5
4C
 66
     1
 10
0.0
 20
0.0
 30
0.0
  0
VERTEX
  8
LY_1
  6
CONTINUOUS
 62
     3
  5
128
 10
-9.371118
 20
0.019721
 30
0.0
  0
VERTEX
  8
LY_1
  6
CONTINUOUS
 62
     3
  5
129
 10
-9.373759
 20
0.017654
 30
0.0
  0
VERTEX
  8
LY_1
  6
CONTINUOUS
 62
     3
  5
12A
 10
-9.376084
 20
0.015252
 30
0.0
  0
VERTEX
  8
LY_1
  6
CONTINUOUS
 62
     3
  5
12B
 10
-9.378049
 20
0.01256
 30
0.0
  0
VERTEX
  8
LY_1
  6
CONTINUOUS
 62
     3
  5
12C
 10
-9.379617
 20
0.009629
 30
0.0
  0
VERTEX
  8
LY_1
  6
CONTINUOUS
 62
     3
  5
12D
 10
-9.380759
 20
0.006515
 30
0.0
  0
VERTEX
  8
LY_1
  6
CONTINUOUS
 62
     3
  5
12E
 10
-9.381452
 20
0.003276
 30
0.0
  0
VERTEX
  8
LY_1
  6
CONTINUOUS
 62
     3
  5
12F
 10
-9.381683
 20
-0.000025
 30
0.0
  0
VERTEX
  8
LY_1
  6
CONTINUOUS
 62
     3
  5
130
 10
-9.381449
 20
-0.003326
 30
0.0
  0
VERTEX
  8
LY_1
  6
CONTINUOUS
 62
     3
  5
131
 10
-9.380753
 20
-0.006563
 30
0.0
  0
VERTEX
  8
LY_1
  6
CONTINUOUS
 62
     3
  5
132
 10
-9.379608
 20
-0.009677
 30
0.0
  0
VERTEX
  8
LY_1
  6
CONTINUOUS
 62
     3
  5
133
 10
-9.378037
 20
-0.012606
 30
0.0
  0
VERTEX
  8
LY_1
  6
CONTINUOUS
 62
     3
  5
134
 10
-9.376069
 20
-0.015297
 30
0.0
  0
VERTEX
  8
LY_1
  6
CONTINUOUS
 62
     3
  5
135
 10
-9.373742
 20
-0.017697
 30
0.0
  0
VERTEX
  8
LY_1
  6
CONTINUOUS
 62
     3
  5
136
 10
-9.371099
 20
-0.01976
 30
0.0
  0
SEQEND
  8
LY_1
  6
CONTINUOUS
 62
     3
  5
137
  0
ARC
  8
LY_1
  6
CONTINUOUS
 62
     3
  5
4D
 10
10.092224
 20
1.744509
 30
0.0
 40
0.65772
 50
307.524111
 51
89.999982
  0
ARC
  8
LY_1
  6
CONTINUOUS
 62
     3
  5
4E
 10
10.089417
 20
-1.741576
 30
0.0
 40
0.660609
 50
270.000018
 51
89.999982
  0
ARC
  8
LY_1
  6
CONTINUOUS
 62
     3
  5
4F
 10
5.52243
 20
-1.744429
 30
0.0
 40
0.657833
 50
127.524112
 51
270.000001
  0
ARC
  8
LY_1
  6
CONTINUOUS
 62
     3
  5
50
 10
5.78241
 20
1.727297
 30
0.0
 40
0.674927
 50
89.999982
 51
359.999983
  0
ARC
  8
LY_1
  6
CONTINUOUS
 62
     3
  5
51
 10
3.490143
 20
1.741472
 30
0.0
 40
0.660581
 50
270.000018
 51
89.999982
  0
ARC
  8
LY_1
  6
CONTINUOUS
 62
     3
  5
52
 10
1.331117
 20
-1.727293
 30
0.0
 40
0.674947
 50
180.000036
 51
0.000001
  0
ARC
  8
LY_1
  6
CONTINUOUS
 62
     3
  5
53
 10
-1.034515
 20
1.727114
 30
0.0
 40
0.67489
 50
89.999982
 51
359.999983
  0
ARC
  8
LY_1
  6
CONTINUOUS
 62
     3
  5
54
 10
-3.350356
 20
-1.727293
 30
0.0
 40
0.674938
 50
180.000036
 51
0.000001
  0
ARC
  8
LY_1
  6
CONTINUOUS
 62
     3
  5
55
 10
-3.350356
 20
1.727297
 30
0.0
 40
0.674938
 50
0.000018
 51
180.000019
  0
ARC
  8
LY_1
  6
CONTINUOUS
 62
     3
  5
56
 10
-5.626297
 20
1.601748
 30
0.0
 40
0.800532
 50
90.778951
 51
124.259063
  0
ARC
  8
LY_1
  6
CONTINUOUS
 62
     3
  5
57
 10
-5.647095
 20
1.741838
 30
0.0
 40
0.660447
 50
213.574514
 51
89.143203
  0
ARC
  8
LY_1
  6
CONTINUOUS
 62
     3
  5
58
 10
-5.659256
 20
-1.743163
 30
0.0
 40
0.665146
 50
235.740937
 51
55.740955
  0
ARC
  8
LY_1
  6
CONTINUOUS
 62
     3
  5
59
 10
-10.075134
 20
-1.727369
 30
0.0
 40
0.674897
 50
179.999964
 51
359.999983
  0
ARC
  8
LY_1
  6
CONTINUOUS
 62
     3
  5
5A
 10
-10.075134
 20
1.727373
 30
0.0
 40
0.674897
 50
0.000018
 51
180.000019
  0
CIRCLE
  8
LY_1
  6
CONTINUOUS
 62
     3
  5
5B
 10
-7.0
 20
16.0
 30
0.0
 40
5.5
  0
ARC
  8
LY_1
  6
CONTINUOUS
 62
     3
  5
5C
 10
0.0
 20
93.162659
 30
0.0
 40
28.5
 50
264.500896
 51
305.964826
  0
ARC
  8
LY_1
  6
CONTINUOUS
 62
     3
  5
5D
 10
-17.912308
 20
94.848679
 30
0.0
 40
2.0
 50
237.459303
 51
305.964751
  0
ARC
  8
LY_1
  6
CONTINUOUS
 62
     3
  5
5E
 10
-17.912308
 20
68.476639
 30
0.0
 40
2.0
 50
54.035249
 51
122.540697
  0
ARC
  8
LY_1
  6
CONTINUOUS
 62
     3
  5
5F
 10
17.912308
 20
94.848679
 30
0.0
 40
2.0
 50
234.035247
 51
302.540678
  0
ARC
  8
LY_1
  6
CONTINUOUS
 62
     3
  5
60
 10
0.0
 20
70.162659
 30
0.0
 40
28.5
 50
54.035174
 51
125.964862
  0
ARC
  8
LY_1
  6
CONTINUOUS
 62
     3
  5
61
 10
17.912308
 20
68.476639
 30
0.0
 40
2.0
 50
57.459322
 51
125.964753
  0
ARC
  8
LY_1
  6
CONTINUOUS
 62
     3
  5
62
 10
0.0
 20
93.162659
 30
0.0
 40
28.5
 50
234.035138
 51
243.985631
  0
CIRCLE
  8
LY_1
  6
CONTINUOUS
 62
     3
  5
63
 10
0.0
 20
81.662659
 30
0.0
 40
16.5
  0
CIRCLE
  8
LY_1
  6
CONTINUOUS
 62
     3
  5
64
 10
0.0
 20
81.662659
 30
0.0
 40
9.0
  0
ARC
  8
LY_1
  6
CONTINUOUS
 62
     3
  5
65
 10
45.810303
 20
11.124298
 30
0.0
 40
25.0
 50
344.641128
 51
359.999981
  0
ARC
  8
LY_1
  6
CONTINUOUS
 62
     3
  5
66
 10
126.810303
 20
11.124298
 30
0.0
 40
25.0
 50
180.000019
 51
195.358874
  0
ARC
  8
LY_1
  6
CONTINUOUS
 62
     3
  5
67
 10
86.310303
 20
0.0
 30
0.0
 40
17.0
 50
164.641109
 51
15.358892
  0
CIRCLE
  8
LY_1
  6
CONTINUOUS
 62
     3
  5
68
 10
86.310303
 20
0.0
 30
0.0
 40
7.475
  0
CIRCLE
  8
LY_1
  6
CONTINUOUS
 62
   110
  5
69
 10
86.310303
 20
0.0
 30
0.0
 40
8.331
  0
CIRCLE
  8
LY_1
  6
CONTINUOUS
 62
     3
  5
6A
 10
-7.0
 20
16.0
 30
0.0
 40
4.0
  0
ARC
  8
LY_1
  6
CONTINUOUS
 62
     3
  5
6B
 10
-17.5
 20
13.479992
 30
0.0
 40
2.0
 50
305.013552
 51
0.000019
  0
ARC
  8
LY_1
  6
CONTINUOUS
 62
     3
  5
6C
 10
-17.912308
 20
13.186016
 30
0.0
 40
2.0
 50
194.999951
 51
305.964751
  0
ARC
  8
LY_1
  6
CONTINUOUS
 62
     3
  5
6D
 10
0.0
 20
-11.5
 30
0.0
 40
28.5
 50
125.013553
 51
125.964808
  0
ARC
  8
LY_1
  6
CONTINUOUS
 62
     3
  5
6E
 10
17.5
 20
13.479992
 30
0.0
 40
2.0
 50
179.999981
 51
234.986447
  0
ARC
  8
LY_1
  6
CONTINUOUS
 62
     3
  5
6F
 10
17.912308
 20
13.186016
 30
0.0
 40
2.0
 50
234.035247
 51
345.000041
  0
ARC
  8
LY_1
  6
CONTINUOUS
 62
     3
  5
70
 10
0.0
 20
-11.5
 30
0.0
 40
28.5
 50
54.035174
 51
54.986424
  0
ARC
  8
LY_1
  6
CONTINUOUS
 62
     3
  5
71
 10
-17.912308
 20
-13.186016
 30
0.0
 40
2.0
 50
54.035249
 51
165.000049
  0
ARC
  8
LY_1
  6
CONTINUOUS
 62
     3
  5
72
 10
17.912308
 20
-13.186016
 30
0.0
 40
2.0
 50
14.999959
 51
125.964753
  0
ARC
  8
LY_1
  6
CONTINUOUS
 62
     3
  5
73
 10
0.0
 20
11.5
 30
0.0
 40
28.5
 50
234.035138
 51
305.964826
  0
LINE
  8
LY_1
  6
CONTINUOUS
 62
     3
  5
74
 10
6.457306
 20
1.862581
 30
0.0
 11
6.457306
 21
1.727297
 31
0.0
  0
LINE
  8
LY_1
  6
CONTINUOUS
 62
     3
  5
75
 10
-0.359573
 20
1.862368
 30
0.0
 11
-0.359573
 21
1.727114
 31
0.0
  0
LINE
  8
LY_1
  6
CONTINUOUS
 62
     3
  5
76
 10
-0.359573
 20
1.862368
 30
0.0
 11
0.656204
 21
1.862368
 31
0.0
  0
LINE
  8
LY_1
  6
CONTINUOUS
 62
     3
  5
77
 10
2.006088
 20
1.080858
 30
0.0
 11
3.490143
 21
1.080858
 31
0.0
  0
LINE
  8
LY_1
  6
CONTINUOUS
 62
     3
  5
78
 10
2.006088
 20
1.080858
 30
0.0
 11
2.006088
 21
-1.727293
 31
0.0
  0
LINE
  8
LY_1
  6
CONTINUOUS
 62
     3
  5
79
 10
0.656204
 20
1.862368
 30
0.0
 11
0.656204
 21
-1.727293
 31
0.0
  0
LINE
  8
LY_1
  6
CONTINUOUS
 62
     3
  5
7A
 10
-1.034515
 20
2.401979
 30
0.0
 11
3.490143
 21
2.401979
 31
0.0
  0
LINE
  8
LY_1
  6
CONTINUOUS
 62
     3
  5
7B
 10
6.457306
 20
1.862581
 30
0.0
 11
9.067978
 21
1.862581
 31
0.0
  0
LINE
  8
LY_1
  6
CONTINUOUS
 62
     3
  5
7C
 10
5.52243
 20
-2.40222
 30
0.0
 11
10.089417
 21
-2.40222
 31
0.0
  0
LINE
  8
LY_1
  6
CONTINUOUS
 62
     3
  5
7D
 10
10.089417
 20
-1.081007
 30
0.0
 11
7.563965
 21
-1.081007
 31
0.0
  0
LINE
  8
LY_1
  6
CONTINUOUS
 62
     3
  5
7E
 10
10.492875
 20
1.222878
 30
0.0
 11
7.548798
 21
-1.03816
 31
0.0
  0
LINE
  8
LY_1
  6
CONTINUOUS
 62
     3
  5
7F
 10
9.083166
 20
1.819648
 30
0.0
 11
5.121794
 21
-1.222668
 31
0.0
  0
LINE
  8
LY_1
  6
CONTINUOUS
 62
     3
  5
80
 10
5.78241
 20
2.402224
 30
0.0
 11
10.092224
 21
2.402224
 31
0.0
  0
LINE
  8
LY_1
  6
CONTINUOUS
 62
     3
  5
81
 10
-4.02533
 20
-1.727293
 30
0.0
 11
-4.02533
 21
1.727297
 31
0.0
  0
LINE
  8
LY_1
  6
CONTINUOUS
 62
     3
  5
82
 10
-2.675415
 20
1.727297
 30
0.0
 11
-2.675415
 21
-1.727293
 31
0.0
  0
LINE
  8
LY_1
  6
CONTINUOUS
 62
     3
  5
83
 10
-7.627675
 20
0.402386
 30
0.0
 11
-6.197353
 21
1.376589
 31
0.0
  0
LINE
  8
LY_1
  6
CONTINUOUS
 62
     3
  5
84
 10
-7.627698
 20
0.402344
 30
0.0
 11
-5.284752
 21
-1.193453
 31
0.0
  0
LINE
  8
LY_1
  6
CONTINUOUS
 62
     3
  5
85
 10
-9.371191
 20
0.01964
 30
0.0
 11
-6.076954
 21
2.263368
 31
0.0
  0
LINE
  8
LY_1
  6
CONTINUOUS
 62
     3
  5
86
 10
-9.371144
 20
-0.019767
 30
0.0
 11
-6.033637
 21
-2.292965
 31
0.0
  0
LINE
  8
LY_1
  6
CONTINUOUS
 62
     3
  5
87
 10
-9.400269
 20
1.727373
 30
0.0
 11
-9.400269
 21
-1.727369
 31
0.0
  0
LINE
  8
LY_1
  6
CONTINUOUS
 62
     3
  5
88
 10
-10.750031
 20
1.727373
 30
0.0
 11
-10.750031
 21
-1.727369
 31
0.0
  0
LINE
  8
LY_1
  6
CONTINUOUS
 62
     3
  5
89
 10
69.810302
 20
31.797087
 30
0.0
 11
102.810302
 21
31.797072
 31
0.0
  0
LINE
  8
LY_1
  6
CONTINUOUS
 62
     3
  5
8A
 10
16.5
 20
31.797073
 30
0.0
 11
-16.5
 21
31.797073
 31
0.0
  0
LINE
  8
LY_1
  6
CONTINUOUS
 62
     3
  5
8B
 10
86.310303
 20
37.922653
 30
0.0
 11
86.310303
 21
32.643204
 31
0.0
  0
LINE
  8
LY_1
  6
CONTINUOUS
 62
     3
  5
8C
 10
65.848969
 20
16.0
 30
0.0
 11
69.210297
 21
16.0
 31
0.0
  0
LINE
  8
LY_1
  6
CONTINUOUS
 62
     3
  5
8D
 10
-9.598076
 20
63.862671
 30
0.0
 11
-9.598076
 21
61.605484
 31
0.0
  0
LINE
  8
LY_1
  6
CONTINUOUS
 62
     3
  5
8E
 10
-4.401924
 20
63.862671
 30
0.0
 11
-4.401924
 21
61.605484
 31
0.0
  0
LINE
  8
LY_1
  6
CONTINUOUS
 62
     3
  5
8F
 10
-12.2
 20
61.605484
 30
0.0
 11
-1.8
 21
61.605484
 31
0.0
  0
LINE
  8
LY_1
  6
CONTINUOUS
 62
     3
  5
90
 10
-12.2
 20
63.862653
 30
0.0
 11
-1.8
 21
63.862668
 31
0.0
  0
LINE
  8
LY_1
  6
CONTINUOUS
 62
     3
  5
91
 10
-1.799995
 20
63.862662
 30
0.0
 11
-3.09999
 21
65.162657
 31
0.0
  0
LINE
  8
LY_1
  6
CONTINUOUS
 62
     3
  5
92
 10
-1.800004
 20
61.605491
 30
0.0
 11
-2.999987
 21
60.912681
 31
0.0
  0
LINE
  8
LY_1
  6
CONTINUOUS
 62
     3
  5
93
 10
-1.8
 20
63.862671
 30
0.0
 11
-1.8
 21
61.605484
 31
0.0
  0
LINE
  8
LY_1
  6
CONTINUOUS
 62
     3
  5
94
 10
-12.199998
 20
63.862662
 30
0.0
 11
-10.900003
 21
65.162657
 31
0.0
  0
LINE
  8
LY_1
  6
CONTINUOUS
 62
     3
  5
95
 10
-12.199998
 20
61.605492
 30
0.0
 11
-11.000003
 21
60.912675
 31
0.0
  0
LINE
  8
LY_1
  6
CONTINUOUS
 62
     3
  5
96
 10
-12.2
 20
63.862656
 30
0.0
 11
-12.2
 21
61.605484
 31
0.0
  0
LINE
  8
LY_1
  6
CONTINUOUS
 62
     3
  5
97
 10
-11.00001
 20
60.912674
 30
0.0
 11
-2.99999
 21
60.912674
 31
0.0
  0
LINE
  8
LY_1
  6
CONTINUOUS
 62
     3
  5
98
 10
-12.5
 20
70.892334
 30
0.0
 11
-12.5
 21
65.162659
 31
0.0
  0
LINE
  8
LY_1
  6
CONTINUOUS
 62
     3
  5
99
 10
-1.5
 20
65.230988
 30
0.0
 11
-1.5
 21
65.162659
 31
0.0
  0
LINE
  8
LY_1
  6
CONTINUOUS
 62
     3
  5
9A
 10
-12.5
 20
65.162659
 30
0.0
 11
-1.5
 21
65.162659
 31
0.0
  0
LINE
  8
LY_1
  6
CENTER
 62
   110
  5
9C
 10
-7.0
 20
71.612671
 30
0.0
 11
-7.0
 21
55.912674
 31
0.0
  0
LINE
  8
LY_1
  6
CONTINUOUS
 62
     3
  5
9D
 10
-18.988098
 20
81.662659
 30
0.0
 11
-26.5
 21
81.662659
 31
0.0
  0
LINE
  8
LY_1
  6
CONTINUOUS
 62
     3
  5
9E
 10
-18.988098
 20
93.162659
 30
0.0
 11
-18.988098
 21
70.162659
 31
0.0
  0
LINE
  8
LY_1
  6
CONTINUOUS
 62
     3
  5
9F
 10
-18.988098
 20
93.162659
 30
0.0
 11
-26.5
 21
93.162659
 31
0.0
  0
LINE
  8
LY_1
  6
CONTINUOUS
 62
     3
  5
A0
 10
-18.988098
 20
70.162659
 30
0.0
 11
-26.5
 21
70.162659
 31
0.0
  0
LINE
  8
LY_1
  6
CONTINUOUS
 62
     3
  5
A1
 10
-26.5
 20
93.162659
 30
0.0
 11
-26.5
 21
70.162659
 31
0.0
  0
LINE
  8
LY_1
  6
CONTINUOUS
 62
     3
  5
A2
 10
18.988098
 20
81.662659
 30
0.0
 11
26.5
 21
81.662659
 31
0.0
  0
LINE
  8
LY_1
  6
CONTINUOUS
 62
     3
  5
A3
 10
18.988098
 20
93.162659
 30
0.0
 11
18.988098
 21
70.162659
 31
0.0
  0
LINE
  8
LY_1
  6
CONTINUOUS
 62
     3
  5
A4
 10
18.988098
 20
93.162659
 30
0.0
 11
26.5
 21
93.162659
 31
0.0
  0
LINE
  8
LY_1
  6
CONTINUOUS
 62
     3
  5
A5
 10
18.988098
 20
70.162659
 30
0.0
 11
26.5
 21
70.162659
 31
0.0
  0
LINE
  8
LY_1
  6
CONTINUOUS
 62
     3
  5
A6
 10
26.5
 20
93.162659
 30
0.0
 11
26.5
 21
70.162659
 31
0.0
  0
LINE
  8
LY_1
  6
CONTINUOUS
 62
     3
  5
A7
 10
-20.0
 20
6.639528
 30
0.0
 11
-26.5
 21
6.639528
 31
0.0
  0
LINE
  8
LY_1
  6
CONTINUOUS
 62
     3
  5
A8
 10
20.0
 20
6.639528
 30
0.0
 11
26.5
 21
6.639528
 31
0.0
  0
LINE
  8
LY_1
  6
CONTINUOUS
 62
     3
  5
A9
 10
-20.0
 20
-6.639528
 30
0.0
 11
-26.5
 21
-6.639528
 31
0.0
  0
LINE
  8
LY_1
  6
CONTINUOUS
 62
     3
  5
AA
 10
20.0
 20
-6.639528
 30
0.0
 11
26.5
 21
-6.639528
 31
0.0
  0
LINE
  8
LY_1
  6
CENTER
 62
   110
  5
AB
 10
0.0
 20
43.5
 30
0.0
 11
0.0
 21
-22.0
 31
0.0
  0
LINE
  8
LY_1
  6
CENTER
 62
   110
  5
AC
 10
64.383865
 20
0.0
 30
0.0
 11
108.236465
 21
0.0
 31
0.0
  0
LINE
  8
LY_1
  6
CONTINUOUS
 62
     3
  5
AD
 10
76.310303
 20
32.643204
 30
0.0
 11
96.310303
 21
32.643204
 31
0.0
  0
LINE
  8
LY_1
  6
CONTINUOUS
 62
     3
  5
AE
 10
76.310303
 20
37.922653
 30
0.0
 11
96.310303
 21
37.922653
 31
0.0
  0
LINE
  8
LY_1
  6
CONTINUOUS
 62
     3
  5
AF
 10
76.310303
 20
37.922653
 30
0.0
 11
76.310303
 21
32.643204
 31
0.0
  0
LINE
  8
LY_1
  6
CONTINUOUS
 62
     3
  5
B0
 10
76.310309
 20
32.643217
 30
0.0
 11
69.810309
 21
31.797091
 31
0.0
  0
LINE
  8
LY_1
  6
CONTINUOUS
 62
     3
  5
B1
 10
77.310298
 20
38.499998
 30
0.0
 11
76.310304
 21
37.922651
 31
0.0
  0
LINE
  8
LY_1
  6
CONTINUOUS
 62
     3
  5
B2
 10
69.810303
 20
31.797089
 30
0.0
 11
69.810303
 21
27.0
 31
0.0
  0
LINE
  8
LY_1
  6
CONTINUOUS
 62
     3
  5
B3
 10
96.310303
 20
37.922653
 30
0.0
 11
96.310303
 21
32.643204
 31
0.0
  0
LINE
  8
LY_1
  6
CONTINUOUS
 62
     3
  5
B4
 10
96.310298
 20
32.643196
 30
0.0
 11
102.810298
 21
31.797071
 31
0.0
  0
LINE
  8
LY_1
  6
CONTINUOUS
 62
     3
  5
B5
 10
95.310311
 20
38.499996
 30
0.0
 11
96.310305
 21
37.922649
 31
0.0
  0
LINE
  8
LY_1
  6
CONTINUOUS
 62
     3
  5
B6
 10
77.310303
 20
38.5
 30
0.0
 11
95.310303
 21
38.5
 31
0.0
  0
LINE
  8
LY_1
  6
CONTINUOUS
 62
     3
  5
B7
 10
-5.773502
 20
37.287567
 30
0.0
 11
-5.773502
 21
32.5
 31
0.0
  0
LINE
  8
LY_1
  6
CONTINUOUS
 62
     3
  5
B8
 10
5.773502
 20
37.287567
 30
0.0
 11
5.773502
 21
32.5
 31
0.0
  0
LINE
  8
LY_1
  6
CONTINUOUS
 62
     3
  5
B9
 10
-5.773499
 20
71.66265
 30
0.0
 11
-11.547005
 21
81.662656
 31
0.0
  0
LINE
  8
LY_1
  6
CONTINUOUS
 62
     3
  5
BA
 10
11.547009
 20
81.66265
 30
0.0
 11
5.773503
 21
91.662656
 31
0.0
  0
LINE
  8
LY_1
  6
CONTINUOUS
 62
     3
  5
BB
 10
-11.547009
 20
81.66265
 30
0.0
 11
-5.773503
 21
91.662656
 31
0.0
  0
LINE
  8
LY_1
  6
CONTINUOUS
 62
     3
  5
BC
 10
5.773499
 20
71.66265
 30
0.0
 11
11.547005
 21
81.662656
 31
0.0
  0
LINE
  8
LY_1
  6
CONTINUOUS
 62
     3
  5
BD
 10
-5.773502
 20
91.662659
 30
0.0
 11
5.773502
 21
91.662659
 31
0.0
  0
LINE
  8
LY_1
  6
CONTINUOUS
 62
     3
  5
BE
 10
-5.773502
 20
71.662659
 30
0.0
 11
5.773502
 21
71.662659
 31
0.0
  0
LINE
  8
LY_1
  6
CENTER
 62
   110
  5
BF
 10
-31.5
 20
81.662659
 30
0.0
 11
31.5
 21
81.662659
 31
0.0
  0
LINE
  8
LY_1
  6
CONTINUOUS
 62
     3
  5
C0
 10
-11.1
 20
37.287567
 30
0.0
 11
11.1
 21
37.287567
 31
0.0
  0
LINE
  8
LY_1
  6
CONTINUOUS
 62
     3
  5
C1
 10
-11.1
 20
32.500008
 30
0.0
 11
-16.5
 21
31.797073
 31
0.0
  0
LINE
  8
LY_1
  6
CONTINUOUS
 62
     3
  5
C2
 10
-9.000005
 20
38.499999
 30
0.0
 11
-11.1
 21
37.287566
 31
0.0
  0
LINE
  8
LY_1
  6
CONTINUOUS
 62
     3
  5
C3
 10
-11.1
 20
37.287567
 30
0.0
 11
-11.1
 21
32.5
 31
0.0
  0
LINE
  8
LY_1
  6
CONTINUOUS
 62
     3
  5
C4
 10
-16.5
 20
31.797073
 30
0.0
 11
-16.5
 21
27.0
 31
0.0
  0
LINE
  8
LY_1
  6
CONTINUOUS
 62
     3
  5
C5
 10
11.1
 20
32.500008
 30
0.0
 11
16.5
 21
31.797073
 31
0.0
  0
LINE
  8
LY_1
  6
CONTINUOUS
 62
     3
  5
C6
 10
9.000005
 20
38.499999
 30
0.0
 11
11.1
 21
37.287566
 31
0.0
  0
LINE
  8
LY_1
  6
CONTINUOUS
 62
     3
  5
C7
 10
11.1
 20
37.287567
 30
0.0
 11
11.1
 21
32.500015
 31
0.0
  0
LINE
  8
LY_1
  6
CONTINUOUS
 62
     3
  5
C8
 10
-9.000005
 20
38.5
 30
0.0
 11
9.000005
 21
38.5
 31
0.0
  0
LINE
  8
LY_1
  6
CONTINUOUS
 62
     3
  5
C9
 10
-11.1
 20
32.5
 30
0.0
 11
11.1
 21
32.5
 31
0.0
  0
LINE
  8
LY_1
  6
CONTINUOUS
 62
     3
  5
CA
 10
65.848969
 20
11.5
 30
0.0
 11
65.848969
 21
20.5
 31
0.0
  0
LINE
  8
LY_1
  6
CONTINUOUS
 62
     3
  5
CB
 10
69.210297
 20
11.5
 30
0.0
 11
69.210297
 21
20.5
 31
0.0
  0
LINE
  8
LY_1
  6
CONTINUOUS
 62
     3
  5
CC
 10
65.848974
 20
11.500001
 30
0.0
 11
65.560293
 21
12.000012
 31
0.0
  0
LINE
  8
LY_1
  6
CONTINUOUS
 62
     3
  5
CD
 10
65.848969
 20
11.5
 30
0.0
 11
69.210297
 21
11.5
 31
0.0
  0
LINE
  8
LY_1
  6
CONTINUOUS
 62
     3
  5
CE
 10
69.210298
 20
11.500001
 30
0.0
 11
69.810296
 21
12.1
 31
0.0
  0
LINE
  8
LY_1
  6
CONTINUOUS
 62
     3
  5
CF
 10
65.848975
 20
20.499999
 30
0.0
 11
65.560294
 21
19.999989
 31
0.0
  0
LINE
  8
LY_1
  6
CONTINUOUS
 62
     3
  5
D0
 10
65.848969
 20
20.5
 30
0.0
 11
69.210297
 21
20.5
 31
0.0
  0
LINE
  8
LY_1
  6
CONTINUOUS
 62
     3
  5
D1
 10
65.560287
 20
19.999985
 30
0.0
 11
65.560287
 21
12.00001
 31
0.0
  0
LINE
  8
LY_1
  6
CONTINUOUS
 62
     3
  5
D2
 10
69.210308
 20
20.5
 30
0.0
 11
69.810296
 21
19.900012
 31
0.0
  0
LINE
  8
LY_1
  6
CONTINUOUS
 62
     3
  5
D3
 10
69.810303
 20
10.5
 30
0.0
 11
70.810303
 21
10.5
 31
0.0
  0
LINE
  8
LY_1
  6
CONTINUOUS
 62
     3
  5
D4
 10
69.810303
 20
21.5
 30
0.0
 11
70.810303
 21
21.5
 31
0.0
  0
LINE
  8
LY_1
  6
CENTER
 62
   110
  5
D5
 10
60.560287
 20
16.0
 30
0.0
 11
74.737595
 21
16.0
 31
0.0
  0
LINE
  8
LY_1
  6
CONTINUOUS
 62
     3
  5
D6
 10
69.810303
 20
21.5
 30
0.0
 11
69.810303
 21
10.5
 31
0.0
  0
LINE
  8
LY_1
  6
CONTINUOUS
 62
     3
  5
D7
 10
70.810303
 20
27.0
 30
0.0
 11
70.810303
 21
11.124298
 31
0.0
  0
LINE
  8
LY_1
  6
CONTINUOUS
 62
     3
  5
D8
 10
101.810303
 20
27.0
 30
0.0
 11
101.810303
 21
11.124298
 31
0.0
  0
LINE
  8
LY_1
  6
CONTINUOUS
 62
     3
  5
D9
 10
102.810303
 20
31.797073
 30
0.0
 11
102.810303
 21
27.0
 31
0.0
  0
LINE
  8
LY_1
  6
CONTINUOUS
 62
     3
  5
DA
 10
69.810303
 20
27.0
 30
0.0
 11
102.810303
 21
27.0
 31
0.0
  0
LINE
  8
LY_1
  6
CONTINUOUS
 62
     3
  5
DB
 10
69.810303
 20
29.5
 30
0.0
 11
102.810303
 21
29.5
 31
0.0
  0
LINE
  8
LY_1
  6
CONTINUOUS
 62
     3
  5
DC
 10
74.810306
 20
6.639531
 30
0.0
 11
86.310303
 21
13.279057
 31
0.0
  0
LINE
  8
LY_1
  6
CONTINUOUS
 62
     3
  5
DD
 10
86.310306
 20
-13.279053
 30
0.0
 11
97.810303
 21
-6.639527
 31
0.0
  0
LINE
  8
LY_1
  6
CONTINUOUS
 62
     3
  5
DE
 10
86.310306
 20
13.279053
 30
0.0
 11
97.810303
 21
6.639527
 31
0.0
  0
LINE
  8
LY_1
  6
CONTINUOUS
 62
     3
  5
DF
 10
74.810306
 20
-6.639531
 30
0.0
 11
86.310303
 21
-13.279057
 31
0.0
  0
LINE
  8
LY_1
  6
CONTINUOUS
 62
     3
  5
E0
 10
97.810303
 20
6.639528
 30
0.0
 11
97.810303
 21
-6.639528
 31
0.0
  0
LINE
  8
LY_1
  6
CONTINUOUS
 62
     3
  5
E1
 10
74.810303
 20
6.639528
 30
0.0
 11
74.810303
 21
-6.639528
 31
0.0
  0
LINE
  8
LY_1
  6
CENTER
 62
   110
  5
E2
 10
86.310303
 20
43.5
 30
0.0
 11
86.310303
 21
-22.0
 31
0.0
  0
LINE
  8
LY_1
  6
CONTINUOUS
 62
     3
  5
E3
 10
-9.598078
 20
11.5
 30
0.0
 11
-12.196154
 21
15.999999
 31
0.0
  0
LINE
  8
LY_1
  6
CONTINUOUS
 62
     3
  5
E4
 10
-1.803848
 20
16.0
 30
0.0
 11
-4.401924
 21
20.5
 31
0.0
  0
LINE
  8
LY_1
  6
CONTINUOUS
 62
     3
  5
E5
 10
-12.196155
 20
15.999999
 30
0.0
 11
-9.598078
 21
20.499999
 31
0.0
  0
LINE
  8
LY_1
  6
CONTINUOUS
 62
     3
  5
E6
 10
-4.401923
 20
11.5
 30
0.0
 11
-1.803848
 21
15.999999
 31
0.0
  0
LINE
  8
LY_1
  6
CONTINUOUS
 62
     3
  5
E7
 10
-9.598079
 20
20.5
 30
0.0
 11
-4.401924
 21
20.5
 31
0.0
  0
LINE
  8
LY_1
  6
CONTINUOUS
 62
     3
  5
E8
 10
-9.598079
 20
11.5
 30
0.0
 11
-4.401924
 21
11.5
 31
0.0
  0
LINE
  8
LY_1
  6
CENTER
 62
   110
  5
E9
 10
-17.196106
 20
16.0
 30
0.0
 11
3.196153
 21
16.0
 31
0.0
  0
LINE
  8
LY_1
  6
CENTER
 62
   110
  5
EA
 10
-7.0
 20
26.196121
 30
0.0
 11
-7.0
 21
5.803864
 31
0.0
  0
LINE
  8
LY_1
  6
CONTINUOUS
 62
     3
  5
EB
 10
-15.5
 20
27.0
 30
0.0
 11
-15.5
 21
13.479992
 31
0.0
  0
LINE
  8
LY_1
  6
CONTINUOUS
 62
     3
  5
EC
 10
15.5
 20
27.0
 30
0.0
 11
15.5
 21
13.479992
 31
0.0
  0
LINE
  8
LY_1
  6
CONTINUOUS
 62
     3
  5
ED
 10
16.5
 20
31.797073
 30
0.0
 11
16.5
 21
27.0
 31
0.0
  0
LINE
  8
LY_1
  6
CONTINUOUS
 62
     3
  5
EE
 10
-16.5
 20
27.0
 30
0.0
 11
16.5
 21
27.0
 31
0.0
  0
LINE
  8
LY_1
  6
CONTINUOUS
 62
     3
  5
EF
 10
-16.5
 20
29.5
 30
0.0
 11
16.5
 21
29.5
 31
0.0
  0
LINE
  8
LY_1
  6
CONTINUOUS
 62
     3
  5
F0
 10
-19.844154
 20
12.668376
 30
0.0
 11
-20.0
 21
13.250001
 31
0.0
  0
LINE
  8
LY_1
  6
CONTINUOUS
 62
     3
  5
F1
 10
-20.0
 20
13.25
 30
0.0
 11
-26.5
 21
13.25
 31
0.0
  0
LINE
  8
LY_1
  6
CONTINUOUS
 62
     3
  5
F2
 10
19.844154
 20
12.668376
 30
0.0
 11
20.0
 21
13.250001
 31
0.0
  0
LINE
  8
LY_1
  6
CONTINUOUS
 62
     3
  5
F3
 10
20.0
 20
13.25
 30
0.0
 11
26.5
 21
13.25
 31
0.0
  0
LINE
  8
LY_1
  6
CONTINUOUS
 62
     3
  5
F4
 10
-19.844154
 20
-12.668376
 30
0.0
 11
-20.0
 21
-13.250001
 31
0.0
  0
LINE
  8
LY_1
  6
CONTINUOUS
 62
     3
  5
F5
 10
-20.0
 20
-13.25
 30
0.0
 11
-26.5
 21
-13.25
 31
0.0
  0
LINE
  8
LY_1
  6
CONTINUOUS
 62
     3
  5
F6
 10
-20.0
 20
13.25
 30
0.0
 11
-20.0
 21
-13.25
 31
0.0
  0
LINE
  8
LY_1
  6
CONTINUOUS
 62
     3
  5
F7
 10
-26.5
 20
13.25
 30
0.0
 11
-26.5
 21
-13.25
 31
0.0
  0
LINE
  8
LY_1
  6
CONTINUOUS
 62
     3
  5
F8
 10
19.844154
 20
-12.668376
 30
0.0
 11
20.0
 21
-13.250001
 31
0.0
  0
LINE
  8
LY_1
  6
CONTINUOUS
 62
     3
  5
F9
 10
20.0
 20
-13.25
 30
0.0
 11
26.5
 21
-13.25
 31
0.0
  0
LINE
  8
LY_1
  6
CONTINUOUS
 62
     3
  5
FA
 10
20.0
 20
13.25
 30
0.0
 11
20.0
 21
-13.25
 31
0.0
  0
LINE
  8
LY_1
  6
CONTINUOUS
 62
     3
  5
FB
 10
26.5
 20
13.25
 30
0.0
 11
26.5
 21
-13.25
 31
0.0
  0
LINE
  8
LY_1
  6
CENTER
 62
   110
  5
FC
 10
-31.5
 20
0.0
 30
0.0
 11
31.5
 21
0.0
 31
0.0
  0
LINE
  8
LY_1
  6
CENTER
 62
   110
  5
FD
 10
0.0
 20
103.662659
 30
0.0
 11
0.0
 21
59.662659
 31
0.0
  0
ENDSEC
  0
EOF
