  0
SECTION
  2
HEADER
  9
$ACADVER
  1
AC1009
  9
$DWGCODEPAGE
  3
dos932
  9
$INSBASE
 10
0.0
 20
0.0
 30
0.0
  9
$EXTMIN
 10
-41.74281
 20
-72.114703
 30
0.0
  9
$EXTMAX
 10
113.791229
 20
114.662659
 30
0.0
  9
$LIMMIN
 10
-41.74281
 20
-72.114703
  9
$LIMMAX
 10
113.791229
 20
114.662659
  9
$ORTHOMODE
 70
     0
  9
$REGENMODE
 70
     1
  9
$FILLMODE
 70
     1
  9
$QTEXTMODE
 70
     0
  9
$MIRRTEXT
 70
     1
  9
$DRAGMODE
 70
     2
  9
$LTSCALE
 40
1.0
  9
$OSMODE
 70
     0
  9
$ATTMODE
 70
     1
  9
$TEXTSIZE
 40
3.3
  9
$TRACEWID
 40
0.05
  9
$TEXTSTYLE
  7
MX_NOTE_STANDARD
  9
$CLAYER
  8
LY_1
  9
$CELTYPE
  6
CONTINUOUS
  9
$CECOLOR
 62
   256
  9
$DIMSCALE
 40
1.0
  9
$DIMASZ
 40
2.5
  9
$DIMEXO
 40
0.0
  9
$DIMDLI
 40
3.75
  9
$DIMRND
 40
0.0
  9
$DIMDLE
 40
0.0
  9
$DIMEXE
 40
1.1938
  9
$DIMTP
 40
0.0
  9
$DIMTM
 40
0.0
  9
$DIMTXT
 40
3.3
  9
$DIMCEN
 40
2.5
  9
$DIMTSZ
 40
0.0
  9
$DIMTOL
 70
     0
  9
$DIMLIM
 70
     0
  9
$DIMTIH
 70
     0
  9
$DIMTOH
 70
     0
  9
$DIMSE1
 70
     0
  9
$DIMSE2
 70
     0
  9
$DIMTAD
 70
     1
  9
$DIMZIN
 70
     8
  9
$DIMBLK
  1

  9
$DIMASO
 70
     1
  9
$DIMSHO
 70
     1
  9
$DIMPOST
  1

  9
$DIMAPOST
  1

  9
$DIMALT
 70
     0
  9
$DIMALTD
 70
     4
  9
$DIMALTF
 40
0.03937
  9
$DIMLFAC
 40
1.0
  9
$DIMTOFL
 70
     1
  9
$DIMTVP
 40
0.0
  9
$DIMTIX
 70
     0
  9
$DIMSOXD
 70
     0
  9
$DIMSAH
 70
     1
  9
$DIMBLK1
  1
_OPEN30
  9
$DIMBLK2
  1
_OPEN30
  9
$DIMSTYLE
  2
MXDIMSTYLE
  9
$DIMCLRD
 70
     0
  9
$DIMCLRE
 70
     0
  9
$DIMCLRT
 70
     0
  9
$DIMTFAC
 40
1.0
  9
$DIMGAP
 40
1.0
  9
$LUNITS
 70
     2
  9
$LUPREC
 70
     4
  9
$AXISMODE
 70
     0
  9
$AXISUNIT
 10
0.0
 20
0.0
  9
$SKETCHINC
 40
0.1
  9
$FILLETRAD
 40
0.0
  9
$AUNITS
 70
     0
  9
$AUPREC
 70
     0
  9
$MENU
  1
acad
  9
$ELEVATION
 40
0.0
  9
$PELEVATION
 40
0.0
  9
$THICKNESS
 40
0.0
  9
$LIMCHECK
 70
     0
  9
$BLIPMODE
 70
     1
  9
$CHAMFERA
 40
0.0
  9
$CHAMFERB
 40
0.0
  9
$SKPOLY
 70
     0
  9
$TDCREATE
 40
2454901.550243055
  9
$TDUPDATE
 40
2454901.550243055
  9
$TDINDWG
 40
0.0000000000
  9
$TDUSRTIMER
 40
0.0000000000
  9
$USRTIMER
 70
     1
  9
$ANGBASE
 50
0.0
  9
$ANGDIR
 70
     0
  9
$PDMODE
 70
     0
  9
$PDSIZE
 40
0.0
  9
$PLINEWID
 40
0.0
  9
$COORDS
 70
     1
  9
$SPLFRAME
 70
     0
  9
$SPLINETYPE
 70
     6
  9
$SPLINESEGS
 70
     8
  9
$ATTDIA
 70
     0
  9
$ATTREQ
 70
     1
  9
$HANDLING
 70
     1
  9
$HANDSEED
  5
135
  9
$SURFTAB1
 70
     6
  9
$SURFTAB2
 70
     6
  9
$SURFTYPE
 70
     6
  9
$SURFU
 70
     6
  9
$SURFV
 70
     6
  9
$UCSNAME
  2

  9
$UCSORG
 10
0.0
 20
0.0
 30
0.0
  9
$UCSXDIR
 10
1.0
 20
0.0
 30
0.0
  9
$UCSYDIR
 10
0.0
 20
1.0
 30
0.0
  9
$PUCSNAME
  2

  9
$PUCSORG
 10
0.0
 20
0.0
 30
0.0
  9
$PUCSXDIR
 10
1.0
 20
0.0
 30
0.0
  9
$PUCSYDIR
 10
0.0
 20
1.0
 30
0.0
  9
$USERI1
 70
     0
  9
$USERI2
 70
     0
  9
$USERI3
 70
     0
  9
$USERI4
 70
     0
  9
$USERI5
 70
     0
  9
$USERR1
 40
0.0
  9
$USERR2
 40
0.0
  9
$USERR3
 40
0.0
  9
$USERR4
 40
0.0
  9
$USERR5
 40
0.0
  9
$WORLDVIEW
 70
     1
  9
$SHADEDGE
 70
     3
  9
$SHADEDIF
 70
    70
  9
$TILEMODE
 70
     1
  9
$MAXACTVP
 70
    16
  9
$PINSBASE
 10
0.0
 20
0.0
 30
0.0
  9
$PLIMCHECK
 70
     0
  9
$PEXTMIN
 10
1.000000E+20
 20
1.000000E+20
 30
1.000000E+20
  9
$PEXTMAX
 10
-1.000000E+20
 20
-1.000000E+20
 30
-1.000000E+20
  9
$PLIMMIN
 10
0.0
 20
0.0
  9
$PLIMMAX
 10
12.0
 20
9.0
  9
$UNITMODE
 70
     0
  9
$VISRETAIN
 70
     0
  9
$PLINEGEN
 70
     1
  9
$PSLTSCALE
 70
     0
  9
$TREEDEPTH
 70
  3020
  0
ENDSEC
  0
SECTION
  2
TABLES
  0
TABLE
  2
VPORT
 70
     1
  0
VPORT
  2
*ACTIVE
 70
     0
 10
0.0
 20
0.0
 11
1.0
 21
1.0
 12
36.02421
 22
21.273978
 13
0.0
 23
0.0
 14
1.0
 24
1.0
 15
0.0
 25
0.0
 16
0.0
 26
0.0
 36
1.0
 17
0.0
 27
0.0
 37
0.0
 40
188.645135
 41
1.732051
 42
50.0
 43
0.0
 44
0.0
 50
0.0
 51
0.0
 71
     0
 72
   100
 73
     1
 74
     1
 75
     0
 76
     0
 77
     0
 78
     0
  0
ENDTAB
  0
TABLE
  2
LTYPE
 70
     2
  0
LTYPE
  2
CONTINUOUS
 70
    64
  3
Solid line
 72
    65
 73
     0
 40
0.0
  0
LTYPE
  2
CENTER
 70
    64
  3
Center ____ _ ____ _ ____ _ ____ _ ____ _ ____
 72
    65
 73
     4
 40
50.8
 49
31.75
 49
-6.35
 49
6.35
 49
-6.35
  0
ENDTAB
  0
TABLE
  2
LAYER
 70
     3
  0
LAYER
  2
0
 70
     0
 62
     7
  6
CONTINUOUS
  0
LAYER
  2
LY_1
 70
     0
 62
     7
  6
CONTINUOUS
  0
LAYER
  2
DEFPOINTS
 70
     0
 62
     7
  6
CONTINUOUS
  0
ENDTAB
  0
TABLE
  2
STYLE
 70
     2
  0
STYLE
  2
MX_NOTE_STANDARD
 70
     0
 40
0.0
 41
1.0
 50
0.0
 71
     0
 42
3.3
  3
txt.shx
  4
extfont.shx
  0
STYLE
  2
MX_DIMTXSTY_2
 70
     0
 40
0.0
 41
0.85
 50
0.0
 71
     0
 42
3.3
  3
txt.shx
  4
extfont.shx
  0
ENDTAB
  0
TABLE
  2
VIEW
 70
     0
  0
ENDTAB
  0
TABLE
  2
UCS
 70
     0
  0
ENDTAB
  0
TABLE
  2
APPID
 70
     1
  0
APPID
  2
ACAD
 70
     0
  0
ENDTAB
  0
TABLE
  2
DIMSTYLE
 70
     1
  0
DIMSTYLE
  2
MXDIMSTYLE
 70
     0
  3

  4

  5

  6
_OPEN30
  7
_OPEN30
 40
1.0
 41
2.5
 42
0.0
 43
3.75
 44
1.1938
 45
0.0
 46
0.0
 47
0.0
 48
0.0
 71
     0
 72
     0
 73
     0
 74
     0
 75
     0
 76
     0
 77
     1
 78
     8
140
3.3
141
2.5
142
0.0
143
0.03937
144
1.0
145
0.0
146
1.0
147
1.0
170
     0
171
     4
172
     1
173
     1
174
     0
175
     0
176
     0
177
     0
178
     0
  0
ENDTAB
  0
ENDSEC
  0
SECTION
  2
BLOCKS
  0
BLOCK
  8
0
  6
BYBLOCK
 62
     0
  5
20
  2
_OPEN30
 70
     2
 10
0.0
 20
0.0
 30
0.0
  3
_OPEN30
  0
LINE
  8
0
  6
BYBLOCK
 62
     0
  5
21
 10
-1.0
 20
0.267949
 30
0.0
 11
0.0
 21
0.0
 31
0.0
  0
LINE
  8
0
  6
BYBLOCK
 62
     0
  5
22
 10
0.0
 20
0.0
 30
0.0
 11
-1.0
 21
-0.267949
 31
0.0
  0
LINE
  8
0
  6
BYBLOCK
 62
     0
  5
23
 10
0.0
 20
0.0
 30
0.0
 11
-1.0
 21
0.0
 31
0.0
  0
ENDBLK
  8
0
  6
BYBLOCK
 62
     0
  5
24
  0
BLOCK
  8
0
  6
BYBLOCK
 62
     0
  5
26
  2
*D1
 70
     1
 10
0.0
 20
0.0
 30
0.0
  3
*D1
  0
LINE
  8
0
  6
CONTINUOUS
 62
   110
  5
27
 10
48.0
 20
44.5
 30
0.0
 11
48.0
 21
0.0
 31
0.0
  0
LINE
  8
0
  6
CONTINUOUS
 62
   110
  5
28
 10
11.000004
 20
44.5
 30
0.0
 11
49.193787
 21
44.5
 31
0.0
  0
LINE
  8
0
  6
CONTINUOUS
 62
   110
  5
29
 10
40.0
 20
0.0
 30
0.0
 11
49.193787
 21
0.0
 31
0.0
  0
INSERT
  8
0
  6
CONTINUOUS
 62
   110
  5
30
  2
_OPEN
 10
48.0
 20
44.5
 30
0.0
 41
2.19
 42
2.19
 50
90.0
 43
2.19
  0
INSERT
  8
0
  6
CONTINUOUS
 62
   110
  5
31
  2
_OPEN
 10
48.0
 20
0.0
 30
0.0
 41
2.19
 42
2.19
 50
270.0
 43
2.19
  0
TEXT
  8
0
  6
CONTINUOUS
 62
   110
  5
33
 10
47.0
 20
20.023346
 30
0.0
 40
3.3
  1
45
 50
90.0
 41
0.98743
  7
MX_DIMTXSTY_2
 11
45.35
 21
20.023346
 31
0.0
 73
     2
  0
POINT
  8
DEFPOINTS
  6
CONTINUOUS
 62
     0
  5
34
 10
11.000004
 20
44.5
 30
0.0
  0
POINT
  8
DEFPOINTS
  6
CONTINUOUS
 62
     0
  5
35
 10
40.0
 20
0.0
 30
0.0
  0
POINT
  8
DEFPOINTS
  6
CONTINUOUS
 62
     0
  5
36
 10
48.0
 20
0.0
 30
0.0
  0
ENDBLK
  8
0
  6
BYBLOCK
 62
     0
  5
37
  0
BLOCK
  8
0
  6
BYBLOCK
 62
     0
  5
2B
  2
_OPEN
 70
     2
 10
0.0
 20
0.0
 30
0.0
  3
_OPEN
  0
LINE
  8
0
  6
BYBLOCK
 62
     0
  5
2C
 10
-1.0
 20
0.166667
 30
0.0
 11
0.0
 21
0.0
 31
0.0
  0
LINE
  8
0
  6
BYBLOCK
 62
     0
  5
2D
 10
0.0
 20
0.0
 30
0.0
 11
-1.0
 21
-0.166667
 31
0.0
  0
LINE
  8
0
  6
BYBLOCK
 62
     0
  5
2E
 10
0.0
 20
0.0
 30
0.0
 11
-1.0
 21
0.0
 31
0.0
  0
ENDBLK
  8
0
  6
BYBLOCK
 62
     0
  5
2F
  0
BLOCK
  8
0
  6
BYBLOCK
 62
     0
  5
3A
  2
*D3
 70
     1
 10
0.0
 20
0.0
 30
0.0
  3
*D3
  0
LINE
  8
0
  6
CONTINUOUS
 62
   110
  5
3B
 10
35.0
 20
-35.0
 30
0.0
 11
-35.0
 21
-35.0
 31
0.0
  0
LINE
  8
0
  6
CONTINUOUS
 62
   110
  5
3C
 10
35.0
 20
-19.600006
 30
0.0
 11
35.0
 21
-36.193787
 31
0.0
  0
LINE
  8
0
  6
CONTINUOUS
 62
   110
  5
3D
 10
-35.0
 20
-19.600006
 30
0.0
 11
-35.0
 21
-36.193787
 31
0.0
  0
INSERT
  8
0
  6
CONTINUOUS
 62
   110
  5
3E
  2
_OPEN
 10
35.0
 20
-35.0
 30
0.0
 41
2.19
 42
2.19
 43
2.19
  0
INSERT
  8
0
  6
CONTINUOUS
 62
   110
  5
3F
  2
_OPEN
 10
-35.0
 20
-35.0
 30
0.0
 41
2.19
 42
2.19
 50
180.0
 43
2.19
  0
TEXT
  8
0
  6
CONTINUOUS
 62
   110
  5
40
 10
-2.177282
 20
-34.0
 30
0.0
 40
3.3
  1
70
 41
1.077196
  7
MX_DIMTXSTY_2
 11
-2.177282
 21
-32.35
 31
0.0
 73
     2
  0
POINT
  8
DEFPOINTS
  6
CONTINUOUS
 62
     0
  5
41
 10
35.0
 20
-19.600006
 30
0.0
  0
POINT
  8
DEFPOINTS
  6
CONTINUOUS
 62
     0
  5
42
 10
-35.0
 20
-19.600006
 30
0.0
  0
POINT
  8
DEFPOINTS
  6
CONTINUOUS
 62
     0
  5
43
 10
-35.0
 20
-35.0
 30
0.0
  0
ENDBLK
  8
0
  6
BYBLOCK
 62
     0
  5
44
  0
ENDSEC
  0
SECTION
  2
ENTITIES
  0
DIMENSION
  8
LY_1
  6
CONTINUOUS
 62
   110
  5
38
  2
*D1
 10
48.0
 20
0.0
 30
0.0
 11
48.0
 21
22.25
 31
0.0
 70
   128
  1
<>
 13
11.000004
 23
44.5
 33
0.0
 14
40.0
 24
0.0
 34
0.0
 50
90.0
  3
MXDIMSTYLE
1001
ACAD
1000
DSTYLE
1002
{
1070
     6
1000
_OPEN
1070
     7
1000
_OPEN
1070
    41
1040
2.19
1070
    44
1040
1.193787
1070
   271
1070
     0
1070
   284
1070
     8
1070
   340
1005
32
1070
   343
1005
2A
1070
   344
1005
2A
1002
}
  0
DIMENSION
  8
LY_1
  6
CONTINUOUS
 62
   110
  5
45
  2
*D3
 10
-35.0
 20
-35.0
 30
0.0
 11
0.0
 21
-35.0
 31
0.0
 70
   128
  1
<>
 13
35.0
 23
-19.600006
 33
0.0
 14
-35.0
 24
-19.600006
 34
0.0
  3
MXDIMSTYLE
1001
ACAD
1000
DSTYLE
1002
{
1070
     6
1000
_OPEN
1070
     7
1000
_OPEN
1070
    41
1040
2.19
1070
    44
1040
1.193787
1070
   271
1070
     0
1070
   284
1070
     8
1070
   340
1005
32
1070
   343
1005
2A
1070
   344
1005
2A
1002
}
  0
TEXT
  8
LY_1
  6
CONTINUOUS
 62
   110
  5
46
 10
-41.091067
 20
-55.083591
 30
0.0
 40
4.167181
  1
      SWING CHECK VALVE 3/4
 41
0.938395
  7
MX_NOTE_STANDARD
 11
-41.091067
 21
-53.0
 31
0.0
 73
     2
  0
TEXT
  8
LY_1
  6
CONTINUOUS
 62
   110
  5
47
 10
-41.109061
 20
-71.083591
 30
0.0
 40
4.167181
  1
KITZ
 41
0.912486
  7
MX_NOTE_STANDARD
 11
-41.109061
 21
-69.0
 31
0.0
 73
     2
  0
TEXT
  8
LY_1
  6
CONTINUOUS
 62
   110
  5
48
 10
-41.056664
 20
-63.083591
 30
0.0
 40
4.167181
  1
FIG   R3/4
 41
0.987928
  7
MX_NOTE_STANDARD
 11
-41.056664
 21
-61.0
 31
0.0
 73
     2
  0
TEXT
  8
LY_1
  6
CONTINUOUS
 62
   110
  5
49
 10
-41.10692
 20
-47.083591
 30
0.0
 40
4.167181
  1
NAME  CLASS 125 CAST BRONZE
 41
0.915569
  7
MX_NOTE_STANDARD
 11
-41.10692
 21
-45.0
 31
0.0
 73
     2
  0
POLYLINE
  8
LY_1
  6
CONTINUOUS
 62
     3
  5
4A
 66
     1
 10
0.0
 20
0.0
 30
0.0
  0
VERTEX
  8
LY_1
  6
CONTINUOUS
 62
     3
  5
FB
 10
9.690596
 20
-1.33264
 30
0.0
  0
VERTEX
  8
LY_1
  6
CONTINUOUS
 62
     3
  5
FC
 10
9.687379
 20
-1.335476
 30
0.0
  0
VERTEX
  8
LY_1
  6
CONTINUOUS
 62
     3
  5
FD
 10
9.68459
 20
-1.338716
 30
0.0
  0
VERTEX
  8
LY_1
  6
CONTINUOUS
 62
     3
  5
FE
 10
9.682281
 20
-1.3423
 30
0.0
  0
VERTEX
  8
LY_1
  6
CONTINUOUS
 62
     3
  5
FF
 10
9.680497
 20
-1.34616
 30
0.0
  0
VERTEX
  8
LY_1
  6
CONTINUOUS
 62
     3
  5
100
 10
9.679271
 20
-1.350224
 30
0.0
  0
VERTEX
  8
LY_1
  6
CONTINUOUS
 62
     3
  5
101
 10
9.678626
 20
-1.354413
 30
0.0
  0
VERTEX
  8
LY_1
  6
CONTINUOUS
 62
     3
  5
102
 10
9.678574
 20
-1.35865
 30
0.0
  0
VERTEX
  8
LY_1
  6
CONTINUOUS
 62
     3
  5
103
 10
9.679117
 20
-1.362854
 30
0.0
  0
VERTEX
  8
LY_1
  6
CONTINUOUS
 62
     3
  5
104
 10
9.680243
 20
-1.366945
 30
0.0
  0
VERTEX
  8
LY_1
  6
CONTINUOUS
 62
     3
  5
105
 10
9.681933
 20
-1.370845
 30
0.0
  0
VERTEX
  8
LY_1
  6
CONTINUOUS
 62
     3
  5
106
 10
9.684153
 20
-1.374483
 30
0.0
  0
VERTEX
  8
LY_1
  6
CONTINUOUS
 62
     3
  5
107
 10
9.686862
 20
-1.377787
 30
0.0
  0
VERTEX
  8
LY_1
  6
CONTINUOUS
 62
     3
  5
108
 10
9.690009
 20
-1.380697
 30
0.0
  0
VERTEX
  8
LY_1
  6
CONTINUOUS
 62
     3
  5
109
 10
9.693533
 20
-1.383156
 30
0.0
  0
VERTEX
  8
LY_1
  6
CONTINUOUS
 62
     3
  5
10A
 10
9.69737
 20
-1.385119
 30
0.0
  0
VERTEX
  8
LY_1
  6
CONTINUOUS
 62
     3
  5
10B
 10
9.701445
 20
-1.386549
 30
0.0
  0
VERTEX
  8
LY_1
  6
CONTINUOUS
 62
     3
  5
10C
 10
9.705681
 20
-1.387417
 30
0.0
  0
VERTEX
  8
LY_1
  6
CONTINUOUS
 62
     3
  5
10D
 10
9.71
 20
-1.387709
 30
0.0
  0
VERTEX
  8
LY_1
  6
CONTINUOUS
 62
     3
  5
10E
 10
9.71
 20
-1.387709
 30
0.0
  0
SEQEND
  8
LY_1
  6
CONTINUOUS
 62
     3
  5
10F
  0
POLYLINE
  8
LY_1
  6
CONTINUOUS
 62
     3
  5
4B
 66
     1
 10
0.0
 20
0.0
 30
0.0
  0
VERTEX
  8
LY_1
  6
CONTINUOUS
 62
     3
  5
110
 10
11.660217
 20
2.335983
 30
0.0
  0
VERTEX
  8
LY_1
  6
CONTINUOUS
 62
     3
  5
111
 10
11.663624
 20
2.339013
 30
0.0
  0
VERTEX
  8
LY_1
  6
CONTINUOUS
 62
     3
  5
112
 10
11.666544
 20
2.342497
 30
0.0
  0
VERTEX
  8
LY_1
  6
CONTINUOUS
 62
     3
  5
113
 10
11.668913
 20
2.34636
 30
0.0
  0
VERTEX
  8
LY_1
  6
CONTINUOUS
 62
     3
  5
114
 10
11.670681
 20
2.35052
 30
0.0
  0
VERTEX
  8
LY_1
  6
CONTINUOUS
 62
     3
  5
115
 10
11.67181
 20
2.354888
 30
0.0
  0
VERTEX
  8
LY_1
  6
CONTINUOUS
 62
     3
  5
116
 10
11.672276
 20
2.359371
 30
0.0
  0
VERTEX
  8
LY_1
  6
CONTINUOUS
 62
     3
  5
117
 10
11.67207
 20
2.363872
 30
0.0
  0
VERTEX
  8
LY_1
  6
CONTINUOUS
 62
     3
  5
118
 10
11.671194
 20
2.368296
 30
0.0
  0
VERTEX
  8
LY_1
  6
CONTINUOUS
 62
     3
  5
119
 10
11.669669
 20
2.372547
 30
0.0
  0
VERTEX
  8
LY_1
  6
CONTINUOUS
 62
     3
  5
11A
 10
11.667527
 20
2.376535
 30
0.0
  0
VERTEX
  8
LY_1
  6
CONTINUOUS
 62
     3
  5
11B
 10
11.664813
 20
2.380175
 30
0.0
  0
VERTEX
  8
LY_1
  6
CONTINUOUS
 62
     3
  5
11C
 10
11.661586
 20
2.383388
 30
0.0
  0
VERTEX
  8
LY_1
  6
CONTINUOUS
 62
     3
  5
11D
 10
11.657915
 20
2.386107
 30
0.0
  0
VERTEX
  8
LY_1
  6
CONTINUOUS
 62
     3
  5
11E
 10
11.653878
 20
2.388272
 30
0.0
  0
VERTEX
  8
LY_1
  6
CONTINUOUS
 62
     3
  5
11F
 10
11.649561
 20
2.389837
 30
0.0
  0
VERTEX
  8
LY_1
  6
CONTINUOUS
 62
     3
  5
120
 10
11.645057
 20
2.39077
 30
0.0
  0
VERTEX
  8
LY_1
  6
CONTINUOUS
 62
     3
  5
121
 10
11.642939
 20
2.390981
 30
0.0
  0
VERTEX
  8
LY_1
  6
CONTINUOUS
 62
     3
  5
122
 10
11.640812
 20
2.391051
 30
0.0
  0
SEQEND
  8
LY_1
  6
CONTINUOUS
 62
     3
  5
123
  0
POLYLINE
  8
LY_1
  6
CONTINUOUS
 62
     3
  5
4C
 66
     1
 10
0.0
 20
0.0
 30
0.0
  0
VERTEX
  8
LY_1
  6
CONTINUOUS
 62
     3
  5
124
 10
-12.029901
 20
0.025316
 30
0.0
  0
VERTEX
  8
LY_1
  6
CONTINUOUS
 62
     3
  5
125
 10
-12.033284
 20
0.02267
 30
0.0
  0
VERTEX
  8
LY_1
  6
CONTINUOUS
 62
     3
  5
126
 10
-12.036263
 20
0.019595
 30
0.0
  0
VERTEX
  8
LY_1
  6
CONTINUOUS
 62
     3
  5
127
 10
-12.038783
 20
0.016148
 30
0.0
  0
VERTEX
  8
LY_1
  6
CONTINUOUS
 62
     3
  5
128
 10
-12.040796
 20
0.012396
 30
0.0
  0
VERTEX
  8
LY_1
  6
CONTINUOUS
 62
     3
  5
129
 10
-12.042264
 20
0.008409
 30
0.0
  0
VERTEX
  8
LY_1
  6
CONTINUOUS
 62
     3
  5
12A
 10
-12.043159
 20
0.004262
 30
0.0
  0
VERTEX
  8
LY_1
  6
CONTINUOUS
 62
     3
  5
12B
 10
-12.043464
 20
0.000034
 30
0.0
  0
VERTEX
  8
LY_1
  6
CONTINUOUS
 62
     3
  5
12C
 10
-12.043173
 20
-0.004194
 30
0.0
  0
VERTEX
  8
LY_1
  6
CONTINUOUS
 62
     3
  5
12D
 10
-12.042292
 20
-0.008344
 30
0.0
  0
VERTEX
  8
LY_1
  6
CONTINUOUS
 62
     3
  5
12E
 10
-12.040838
 20
-0.012336
 30
0.0
  0
VERTEX
  8
LY_1
  6
CONTINUOUS
 62
     3
  5
12F
 10
-12.038838
 20
-0.016095
 30
0.0
  0
VERTEX
  8
LY_1
  6
CONTINUOUS
 62
     3
  5
130
 10
-12.03633
 20
-0.019549
 30
0.0
  0
VERTEX
  8
LY_1
  6
CONTINUOUS
 62
     3
  5
131
 10
-12.033361
 20
-0.022634
 30
0.0
  0
VERTEX
  8
LY_1
  6
CONTINUOUS
 62
     3
  5
132
 10
-12.029988
 20
-0.025291
 30
0.0
  0
SEQEND
  8
LY_1
  6
CONTINUOUS
 62
     3
  5
133
  0
ARC
  8
LY_1
  6
CONTINUOUS
 62
     3
  5
4D
 10
12.955599
 20
2.239463
 30
0.0
 40
0.844329
 50
307.524111
 51
89.999982
  0
ARC
  8
LY_1
  6
CONTINUOUS
 62
     3
  5
4E
 10
12.951995
 20
-2.235698
 30
0.0
 40
0.848037
 50
270.000018
 51
89.999982
  0
ARC
  8
LY_1
  6
CONTINUOUS
 62
     3
  5
4F
 10
7.08926
 20
-2.23936
 30
0.0
 40
0.844474
 50
127.524112
 51
270.000001
  0
ARC
  8
LY_1
  6
CONTINUOUS
 62
     3
  5
50
 10
7.423001
 20
2.217367
 30
0.0
 40
0.866418
 50
89.999982
 51
359.999983
  0
ARC
  8
LY_1
  6
CONTINUOUS
 62
     3
  5
51
 10
4.480369
 20
2.235565
 30
0.0
 40
0.848002
 50
270.000018
 51
89.999982
  0
ARC
  8
LY_1
  6
CONTINUOUS
 62
     3
  5
52
 10
1.708782
 20
-2.217362
 30
0.0
 40
0.866443
 50
180.000036
 51
0.000001
  0
ARC
  8
LY_1
  6
CONTINUOUS
 62
     3
  5
53
 10
-1.32803
 20
2.217132
 30
0.0
 40
0.86637
 50
89.999982
 51
359.999983
  0
ARC
  8
LY_1
  6
CONTINUOUS
 62
     3
  5
54
 10
-4.300922
 20
-2.217362
 30
0.0
 40
0.866432
 50
180.000036
 51
0.000001
  0
ARC
  8
LY_1
  6
CONTINUOUS
 62
     3
  5
55
 10
-4.300922
 20
2.217367
 30
0.0
 40
0.866432
 50
0.000018
 51
180.000019
  0
ARC
  8
LY_1
  6
CONTINUOUS
 62
     3
  5
56
 10
-7.222595
 20
2.056197
 30
0.0
 40
1.027659
 50
90.778951
 51
124.259063
  0
ARC
  8
LY_1
  6
CONTINUOUS
 62
     3
  5
57
 10
-7.249294
 20
2.236034
 30
0.0
 40
0.84783
 50
213.574514
 51
89.143203
  0
ARC
  8
LY_1
  6
CONTINUOUS
 62
     3
  5
58
 10
-7.264906
 20
-2.237736
 30
0.0
 40
0.853862
 50
235.740937
 51
55.740955
  0
ARC
  8
LY_1
  6
CONTINUOUS
 62
     3
  5
59
 10
-12.933661
 20
-2.217461
 30
0.0
 40
0.86638
 50
179.999964
 51
359.999983
  0
ARC
  8
LY_1
  6
CONTINUOUS
 62
     3
  5
5A
 10
-12.933661
 20
2.217464
 30
0.0
 40
0.86638
 50
0.000018
 51
180.000019
  0
ARC
  8
LY_1
  6
CONTINUOUS
 62
     3
  5
5B
 10
0.0
 20
115.662659
 30
0.0
 40
50.0
 50
265.641319
 51
296.30794
  0
ARC
  8
LY_1
  6
CONTINUOUS
 62
     3
  5
5C
 10
-23.267731
 20
106.724991
 30
0.0
 40
2.5
 50
218.677266
 51
296.308049
  0
ARC
  8
LY_1
  6
CONTINUOUS
 62
     3
  5
5D
 10
-23.267731
 20
68.600327
 30
0.0
 40
2.5
 50
63.691951
 51
141.322734
  0
ARC
  8
LY_1
  6
CONTINUOUS
 62
     3
  5
5E
 10
23.267731
 20
106.724991
 30
0.0
 40
2.5
 50
243.691932
 51
321.322739
  0
ARC
  8
LY_1
  6
CONTINUOUS
 62
     3
  5
5F
 10
0.0
 20
59.662659
 30
0.0
 40
50.0
 50
63.69206
 51
116.307904
  0
CIRCLE
  8
LY_1
  6
CONTINUOUS
 62
     3
  5
60
 10
0.0
 20
87.662659
 30
0.0
 40
19.5
  0
ARC
  8
LY_1
  6
CONTINUOUS
 62
     3
  5
61
 10
23.267731
 20
68.600327
 30
0.0
 40
2.5
 50
38.677261
 51
116.308068
  0
ARC
  8
LY_1
  6
CONTINUOUS
 62
     3
  5
62
 10
0.0
 20
115.662659
 30
0.0
 40
50.0
 50
243.692096
 51
253.83225
  0
CIRCLE
  8
LY_1
  6
CONTINUOUS
 62
     3
  5
63
 10
0.0
 20
87.662659
 30
0.0
 40
11.0
  0
ARC
  8
LY_1
  6
CONTINUOUS
 62
     3
  5
64
 10
37.810303
 20
17.406891
 30
0.0
 40
30.0
 50
340.442785
 51
359.999992
  0
ARC
  8
LY_1
  6
CONTINUOUS
 62
     3
  5
65
 10
135.810303
 20
17.406891
 30
0.0
 40
30.0
 50
179.999981
 51
199.557217
  0
ARC
  8
LY_1
  6
CONTINUOUS
 62
     3
  5
66
 10
86.810303
 20
0.0
 30
0.0
 40
22.0
 50
160.442783
 51
19.557219
  0
CIRCLE
  8
LY_1
  6
CONTINUOUS
 62
     3
  5
67
 10
86.810303
 20
0.0
 30
0.0
 40
12.0585
  0
CIRCLE
  8
LY_1
  6
CONTINUOUS
 62
   110
  5
68
 10
86.810303
 20
0.0
 30
0.0
 40
13.2205
  0
CIRCLE
  8
LY_1
  6
CONTINUOUS
 62
     3
  5
69
 10
-9.0
 20
19.5
 30
0.0
 40
5.5
  0
CIRCLE
  8
LY_1
  6
CONTINUOUS
 62
     3
  5
6A
 10
-9.0
 20
19.5
 30
0.0
 40
4.0
  0
ARC
  8
LY_1
  6
CONTINUOUS
 62
     3
  5
6B
 10
-22.0
 20
20.218246
 30
0.0
 40
3.0
 50
294.525206
 51
359.999855
  0
ARC
  8
LY_1
  6
CONTINUOUS
 62
     3
  5
6C
 10
0.0
 20
-28.0
 30
0.0
 40
50.0
 50
114.525279
 51
116.307958
  0
ARC
  8
LY_1
  6
CONTINUOUS
 62
     3
  5
6D
 10
22.0
 20
20.218246
 30
0.0
 40
3.0
 50
180.000145
 51
245.474776
  0
ARC
  8
LY_1
  6
CONTINUOUS
 62
     3
  5
6E
 10
-23.267731
 20
19.062332
 30
0.0
 40
2.5
 50
194.999842
 51
296.308049
  0
ARC
  8
LY_1
  6
CONTINUOUS
 62
     3
  5
6F
 10
23.267731
 20
19.062332
 30
0.0
 40
2.5
 50
243.691932
 51
345.000136
  0
ARC
  8
LY_1
  6
CONTINUOUS
 62
     3
  5
70
 10
0.0
 20
-28.0
 30
0.0
 40
50.0
 50
63.69206
 51
65.47474
  0
ARC
  8
LY_1
  6
CONTINUOUS
 62
     3
  5
71
 10
-23.267731
 20
-19.062332
 30
0.0
 40
2.5
 50
63.691951
 51
165.000158
  0
ARC
  8
LY_1
  6
CONTINUOUS
 62
     3
  5
72
 10
23.267731
 20
-19.062332
 30
0.0
 40
2.5
 50
14.999864
 51
116.308068
  0
ARC
  8
LY_1
  6
CONTINUOUS
 62
     3
  5
73
 10
0.0
 20
28.0
 30
0.0
 40
50.0
 50
243.692096
 51
296.30794
  0
LINE
  8
LY_1
  6
CONTINUOUS
 62
     3
  5
74
 10
8.289378
 20
2.391035
 30
0.0
 11
8.289378
 21
2.217367
 31
0.0
  0
LINE
  8
LY_1
  6
CONTINUOUS
 62
     3
  5
75
 10
-0.461592
 20
2.39076
 30
0.0
 11
-0.461592
 21
2.217132
 31
0.0
  0
LINE
  8
LY_1
  6
CONTINUOUS
 62
     3
  5
76
 10
-0.461592
 20
2.39076
 30
0.0
 11
0.842383
 21
2.39076
 31
0.0
  0
LINE
  8
LY_1
  6
CONTINUOUS
 62
     3
  5
77
 10
2.575257
 20
1.38752
 30
0.0
 11
4.480369
 21
1.38752
 31
0.0
  0
LINE
  8
LY_1
  6
CONTINUOUS
 62
     3
  5
78
 10
2.575257
 20
1.38752
 30
0.0
 11
2.575257
 21
-2.217362
 31
0.0
  0
LINE
  8
LY_1
  6
CONTINUOUS
 62
     3
  5
79
 10
0.842383
 20
2.39076
 30
0.0
 11
0.842383
 21
-2.217362
 31
0.0
  0
LINE
  8
LY_1
  6
CONTINUOUS
 62
     3
  5
7A
 10
-1.32803
 20
3.083471
 30
0.0
 11
4.480369
 21
3.083471
 31
0.0
  0
LINE
  8
LY_1
  6
CONTINUOUS
 62
     3
  5
7B
 10
8.289378
 20
2.391035
 30
0.0
 11
11.640753
 21
2.391035
 31
0.0
  0
LINE
  8
LY_1
  6
CONTINUOUS
 62
     3
  5
7C
 10
7.08926
 20
-3.083779
 30
0.0
 11
12.951995
 21
-3.083779
 31
0.0
  0
LINE
  8
LY_1
  6
CONTINUOUS
 62
     3
  5
7D
 10
12.951995
 20
-1.387712
 30
0.0
 11
9.71002
 21
-1.387712
 31
0.0
  0
LINE
  8
LY_1
  6
CONTINUOUS
 62
     3
  5
7E
 10
13.469923
 20
1.569833
 30
0.0
 11
9.69055
 21
-1.332708
 31
0.0
  0
LINE
  8
LY_1
  6
CONTINUOUS
 62
     3
  5
7F
 10
11.66025
 20
2.335919
 30
0.0
 11
6.574955
 21
-1.569564
 31
0.0
  0
LINE
  8
LY_1
  6
CONTINUOUS
 62
     3
  5
80
 10
7.423001
 20
3.083785
 30
0.0
 11
12.955599
 21
3.083785
 31
0.0
  0
LINE
  8
LY_1
  6
CONTINUOUS
 62
     3
  5
81
 10
-5.1674
 20
-2.217362
 30
0.0
 11
-5.1674
 21
2.217367
 31
0.0
  0
LINE
  8
LY_1
  6
CONTINUOUS
 62
     3
  5
82
 10
-3.434486
 20
2.217367
 30
0.0
 11
-3.434486
 21
-2.217362
 31
0.0
  0
LINE
  8
LY_1
  6
CONTINUOUS
 62
     3
  5
83
 10
-9.791807
 20
0.516552
 30
0.0
 11
-7.955671
 21
1.767156
 31
0.0
  0
LINE
  8
LY_1
  6
CONTINUOUS
 62
     3
  5
84
 10
-9.791835
 20
0.516497
 30
0.0
 11
-6.784147
 21
-1.53206
 31
0.0
  0
LINE
  8
LY_1
  6
CONTINUOUS
 62
     3
  5
85
 10
-12.029994
 20
0.025212
 30
0.0
 11
-7.801113
 21
2.905533
 31
0.0
  0
LINE
  8
LY_1
  6
CONTINUOUS
 62
     3
  5
86
 10
-12.029934
 20
-0.025375
 30
0.0
 11
-7.745507
 21
-2.943527
 31
0.0
  0
LINE
  8
LY_1
  6
CONTINUOUS
 62
     3
  5
87
 10
-12.067322
 20
2.217464
 30
0.0
 11
-12.067322
 21
-2.217461
 31
0.0
  0
LINE
  8
LY_1
  6
CONTINUOUS
 62
     3
  5
88
 10
-13.800039
 20
2.217464
 30
0.0
 11
-13.800039
 21
-2.217461
 31
0.0
  0
LINE
  8
LY_1
  6
CONTINUOUS
 62
     3
  5
89
 10
67.310303
 20
36.635681
 30
0.0
 11
106.310303
 21
36.635681
 31
0.0
  0
LINE
  8
LY_1
  6
CONTINUOUS
 62
     3
  5
8A
 10
-19.5
 20
36.635666
 30
0.0
 11
19.5
 21
36.635666
 31
0.0
  0
LINE
  8
LY_1
  6
CONTINUOUS
 62
     3
  5
8B
 10
-26.0
 20
10.10363
 30
0.0
 11
-35.0
 21
10.10363
 31
0.0
  0
LINE
  8
LY_1
  6
CONTINUOUS
 62
     3
  5
8C
 10
26.0
 20
10.10363
 30
0.0
 11
35.0
 21
10.10363
 31
0.0
  0
LINE
  8
LY_1
  6
CONTINUOUS
 62
     3
  5
8D
 10
-26.0
 20
-10.10363
 30
0.0
 11
-35.0
 21
-10.10363
 31
0.0
  0
LINE
  8
LY_1
  6
CONTINUOUS
 62
     3
  5
8E
 10
26.0
 20
-10.10363
 30
0.0
 11
35.0
 21
-10.10363
 31
0.0
  0
LINE
  8
LY_1
  6
CONTINUOUS
 62
     3
  5
8F
 10
-14.5
 20
74.624252
 30
0.0
 11
-14.5
 21
68.662659
 31
0.0
  0
LINE
  8
LY_1
  6
CONTINUOUS
 62
     3
  5
90
 10
-14.5
 20
68.662659
 30
0.0
 11
-4.387483
 21
68.662659
 31
0.0
  0
LINE
  8
LY_1
  6
CONTINUOUS
 62
     3
  5
91
 10
-25.219421
 20
87.662659
 30
0.0
 11
-35.0
 21
87.662659
 31
0.0
  0
LINE
  8
LY_1
  6
CONTINUOUS
 62
     3
  5
92
 10
-25.219421
 20
105.162659
 30
0.0
 11
-25.219421
 21
70.162659
 31
0.0
  0
LINE
  8
LY_1
  6
CONTINUOUS
 62
     3
  5
93
 10
-25.219421
 20
105.162659
 30
0.0
 11
-35.0
 21
105.162659
 31
0.0
  0
LINE
  8
LY_1
  6
CONTINUOUS
 62
     3
  5
94
 10
-25.219421
 20
70.162659
 30
0.0
 11
-35.0
 21
70.162659
 31
0.0
  0
LINE
  8
LY_1
  6
CONTINUOUS
 62
     3
  5
95
 10
-35.0
 20
105.162659
 30
0.0
 11
-35.0
 21
70.162659
 31
0.0
  0
LINE
  8
LY_1
  6
CONTINUOUS
 62
     3
  5
96
 10
25.219421
 20
87.662659
 30
0.0
 11
35.0
 21
87.662659
 31
0.0
  0
LINE
  8
LY_1
  6
CONTINUOUS
 62
     3
  5
97
 10
25.219421
 20
105.162659
 30
0.0
 11
25.219421
 21
70.162659
 31
0.0
  0
LINE
  8
LY_1
  6
CONTINUOUS
 62
     3
  5
98
 10
25.219421
 20
105.162659
 30
0.0
 11
35.0
 21
105.162659
 31
0.0
  0
LINE
  8
LY_1
  6
CONTINUOUS
 62
     3
  5
99
 10
25.219421
 20
70.162659
 30
0.0
 11
35.0
 21
70.162659
 31
0.0
  0
LINE
  8
LY_1
  6
CONTINUOUS
 62
     3
  5
9A
 10
35.0
 20
105.162659
 30
0.0
 11
35.0
 21
70.162659
 31
0.0
  0
LINE
  8
LY_1
  6
CENTER
 62
   110
  5
9C
 10
0.0
 20
49.5
 30
0.0
 11
0.0
 21
-27.0
 31
0.0
  0
LINE
  8
LY_1
  6
CONTINUOUS
 62
     3
  5
9D
 10
86.810303
 20
37.689743
 30
0.0
 11
86.810303
 21
43.922653
 31
0.0
  0
LINE
  8
LY_1
  6
CONTINUOUS
 62
     3
  5
9E
 10
74.810303
 20
37.689743
 30
0.0
 11
98.810303
 21
37.689743
 31
0.0
  0
LINE
  8
LY_1
  6
CONTINUOUS
 62
     3
  5
9F
 10
74.810303
 20
43.922653
 30
0.0
 11
98.810303
 21
43.922653
 31
0.0
  0
LINE
  8
LY_1
  6
CONTINUOUS
 62
     3
  5
A0
 10
74.810303
 20
43.922653
 30
0.0
 11
74.810303
 21
37.689743
 31
0.0
  0
LINE
  8
LY_1
  6
CONTINUOUS
 62
     3
  5
A1
 10
75.810296
 20
44.499995
 30
0.0
 11
74.810302
 21
43.922649
 31
0.0
  0
LINE
  8
LY_1
  6
CONTINUOUS
 62
     3
  5
A2
 10
74.810302
 20
37.689736
 30
0.0
 11
67.310294
 21
36.635679
 31
0.0
  0
LINE
  8
LY_1
  6
CONTINUOUS
 62
     3
  5
A3
 10
98.810303
 20
43.922653
 30
0.0
 11
98.810303
 21
37.689743
 31
0.0
  0
LINE
  8
LY_1
  6
CONTINUOUS
 62
     3
  5
A4
 10
-6.928204
 20
43.143234
 30
0.0
 11
-6.928204
 21
37.5
 31
0.0
  0
LINE
  8
LY_1
  6
CONTINUOUS
 62
     3
  5
A5
 10
6.928204
 20
43.143234
 30
0.0
 11
6.928204
 21
37.5
 31
0.0
  0
LINE
  8
LY_1
  6
CONTINUOUS
 62
     3
  5
A6
 10
-6.928202
 20
75.662655
 30
0.0
 11
-13.85641
 21
87.662662
 31
0.0
  0
LINE
  8
LY_1
  6
CONTINUOUS
 62
     3
  5
A7
 10
13.856407
 20
87.662655
 30
0.0
 11
6.9282
 21
99.662662
 31
0.0
  0
LINE
  8
LY_1
  6
CONTINUOUS
 62
     3
  5
A8
 10
-13.856407
 20
87.662655
 30
0.0
 11
-6.9282
 21
99.662662
 31
0.0
  0
LINE
  8
LY_1
  6
CONTINUOUS
 62
     3
  5
A9
 10
6.928202
 20
75.662655
 30
0.0
 11
13.85641
 21
87.662662
 31
0.0
  0
LINE
  8
LY_1
  6
CONTINUOUS
 62
     3
  5
AA
 10
-6.928204
 20
99.662659
 30
0.0
 11
6.928204
 21
99.662659
 31
0.0
  0
LINE
  8
LY_1
  6
CONTINUOUS
 62
     3
  5
AB
 10
-6.928204
 20
75.662659
 30
0.0
 11
6.928204
 21
75.662659
 31
0.0
  0
LINE
  8
LY_1
  6
CENTER
 62
   110
  5
AC
 10
-40.0
 20
87.662659
 30
0.0
 11
40.0
 21
87.662659
 31
0.0
  0
LINE
  8
LY_1
  6
CENTER
 62
   110
  5
AD
 10
59.82901
 20
0.0
 30
0.0
 11
113.791229
 21
0.0
 31
0.0
  0
LINE
  8
LY_1
  6
CONTINUOUS
 62
     3
  5
AE
 10
67.310303
 20
36.635681
 30
0.0
 11
67.310303
 21
31.0
 31
0.0
  0
LINE
  8
LY_1
  6
CONTINUOUS
 62
     3
  5
AF
 10
97.810303
 20
44.5
 30
0.0
 11
98.810297
 21
43.922653
 31
0.0
  0
LINE
  8
LY_1
  6
CONTINUOUS
 62
     3
  5
B0
 10
98.810297
 20
37.689735
 30
0.0
 11
106.310305
 21
36.635677
 31
0.0
  0
LINE
  8
LY_1
  6
CONTINUOUS
 62
     3
  5
B1
 10
75.810303
 20
44.5
 30
0.0
 11
97.810303
 21
44.5
 31
0.0
  0
LINE
  8
LY_1
  6
CONTINUOUS
 62
     3
  5
B2
 10
67.810303
 20
31.0
 30
0.0
 11
67.810303
 21
17.406891
 31
0.0
  0
LINE
  8
LY_1
  6
CONTINUOUS
 62
     3
  5
B3
 10
105.810303
 20
31.0
 30
0.0
 11
105.810303
 21
17.406891
 31
0.0
  0
LINE
  8
LY_1
  6
CONTINUOUS
 62
     3
  5
B4
 10
106.310303
 20
36.635681
 30
0.0
 11
106.310303
 21
31.0
 31
0.0
  0
LINE
  8
LY_1
  6
CONTINUOUS
 62
     3
  5
B5
 10
67.310303
 20
31.0
 30
0.0
 11
106.310303
 21
31.0
 31
0.0
  0
LINE
  8
LY_1
  6
CONTINUOUS
 62
     3
  5
B6
 10
67.310303
 20
34.0
 30
0.0
 11
106.310303
 21
34.0
 31
0.0
  0
LINE
  8
LY_1
  6
CONTINUOUS
 62
     3
  5
B7
 10
69.310298
 20
10.103628
 30
0.0
 11
86.810299
 21
20.207258
 31
0.0
  0
LINE
  8
LY_1
  6
CONTINUOUS
 62
     3
  5
B8
 10
86.810298
 20
-20.20726
 30
0.0
 11
104.310299
 21
-10.10363
 31
0.0
  0
LINE
  8
LY_1
  6
CONTINUOUS
 62
     3
  5
B9
 10
86.810298
 20
20.20726
 30
0.0
 11
104.310299
 21
10.10363
 31
0.0
  0
LINE
  8
LY_1
  6
CONTINUOUS
 62
     3
  5
BA
 10
69.310298
 20
-10.103628
 30
0.0
 11
86.810299
 21
-20.207258
 31
0.0
  0
LINE
  8
LY_1
  6
CONTINUOUS
 62
     3
  5
BB
 10
104.310303
 20
10.10363
 30
0.0
 11
104.310303
 21
-10.10363
 31
0.0
  0
LINE
  8
LY_1
  6
CONTINUOUS
 62
     3
  5
BC
 10
69.310303
 20
10.10363
 30
0.0
 11
69.310303
 21
-10.10363
 31
0.0
  0
LINE
  8
LY_1
  6
CENTER
 62
   110
  5
BD
 10
86.810303
 20
49.5
 30
0.0
 11
86.810303
 21
-27.0
 31
0.0
  0
LINE
  8
LY_1
  6
CONTINUOUS
 62
     3
  5
BE
 10
63.848969
 20
19.5
 30
0.0
 11
67.210297
 21
19.5
 31
0.0
  0
LINE
  8
LY_1
  6
CONTINUOUS
 62
     3
  5
BF
 10
-11.598076
 20
67.362671
 30
0.0
 11
-11.598076
 21
65.105484
 31
0.0
  0
LINE
  8
LY_1
  6
CONTINUOUS
 62
     3
  5
C0
 10
-6.401924
 20
67.362671
 30
0.0
 11
-6.401924
 21
65.105484
 31
0.0
  0
LINE
  8
LY_1
  6
CONTINUOUS
 62
     3
  5
C1
 10
-14.2
 20
65.105484
 30
0.0
 11
-3.8
 21
65.105484
 31
0.0
  0
LINE
  8
LY_1
  6
CONTINUOUS
 62
     3
  5
C2
 10
-14.2
 20
67.36265
 30
0.0
 11
-3.800001
 21
67.362665
 31
0.0
  0
LINE
  8
LY_1
  6
CONTINUOUS
 62
     3
  5
C3
 10
-3.799998
 20
67.362655
 30
0.0
 11
-5.100003
 21
68.662661
 31
0.0
  0
LINE
  8
LY_1
  6
CONTINUOUS
 62
     3
  5
C4
 10
-3.800013
 20
65.105495
 30
0.0
 11
-4.999995
 21
64.412685
 31
0.0
  0
LINE
  8
LY_1
  6
CONTINUOUS
 62
     3
  5
C5
 10
-3.8
 20
67.362671
 30
0.0
 11
-3.8
 21
65.105484
 31
0.0
  0
LINE
  8
LY_1
  6
CONTINUOUS
 62
     3
  5
C6
 10
-14.2
 20
67.362655
 30
0.0
 11
-12.899994
 21
68.662661
 31
0.0
  0
LINE
  8
LY_1
  6
CONTINUOUS
 62
     3
  5
C7
 10
-14.199998
 20
65.105502
 30
0.0
 11
-13.000003
 21
64.412684
 31
0.0
  0
LINE
  8
LY_1
  6
CONTINUOUS
 62
     3
  5
C8
 10
-14.2
 20
67.362656
 30
0.0
 11
-14.2
 21
65.105484
 31
0.0
  0
LINE
  8
LY_1
  6
CONTINUOUS
 62
     3
  5
C9
 10
-13.00001
 20
64.412674
 30
0.0
 11
-4.99999
 21
64.412674
 31
0.0
  0
LINE
  8
LY_1
  6
CENTER
 62
   110
  5
CA
 10
-9.0
 20
75.112671
 30
0.0
 11
-9.0
 21
59.412674
 31
0.0
  0
LINE
  8
LY_1
  6
CONTINUOUS
 62
     3
  5
CB
 10
63.848969
 20
15.0
 30
0.0
 11
63.848969
 21
24.0
 31
0.0
  0
LINE
  8
LY_1
  6
CONTINUOUS
 62
     3
  5
CC
 10
67.210297
 20
15.0
 30
0.0
 11
67.210297
 21
24.0
 31
0.0
  0
LINE
  8
LY_1
  6
CONTINUOUS
 62
     3
  5
CD
 10
63.848966
 20
15.000006
 30
0.0
 11
63.560285
 21
15.500016
 31
0.0
  0
LINE
  8
LY_1
  6
CONTINUOUS
 62
     3
  5
CE
 10
63.848969
 20
15.0
 30
0.0
 11
67.210297
 21
15.0
 31
0.0
  0
LINE
  8
LY_1
  6
CONTINUOUS
 62
     3
  5
CF
 10
67.210296
 20
14.999994
 30
0.0
 11
67.752278
 21
15.541977
 31
0.0
  0
LINE
  8
LY_1
  6
CONTINUOUS
 62
     3
  5
D0
 10
63.848975
 20
24.000009
 30
0.0
 11
63.560294
 21
23.499999
 31
0.0
  0
LINE
  8
LY_1
  6
CONTINUOUS
 62
     3
  5
D1
 10
63.848969
 20
24.0
 30
0.0
 11
67.210297
 21
24.0
 31
0.0
  0
LINE
  8
LY_1
  6
CONTINUOUS
 62
     3
  5
D2
 10
63.560287
 20
23.499985
 30
0.0
 11
63.560287
 21
15.50001
 31
0.0
  0
LINE
  8
LY_1
  6
CONTINUOUS
 62
     3
  5
D3
 10
67.210306
 20
23.999993
 30
0.0
 11
67.810305
 21
23.399995
 31
0.0
  0
LINE
  8
LY_1
  6
CENTER
 62
   110
  5
D4
 10
58.560287
 20
19.5
 30
0.0
 11
72.737595
 21
19.5
 31
0.0
  0
LINE
  8
LY_1
  6
CONTINUOUS
 62
     3
  5
D5
 10
-11.598075
 20
14.999994
 30
0.0
 11
-14.196151
 21
19.499993
 31
0.0
  0
LINE
  8
LY_1
  6
CONTINUOUS
 62
     3
  5
D6
 10
-3.803845
 20
19.499995
 30
0.0
 11
-6.401921
 21
23.999994
 31
0.0
  0
LINE
  8
LY_1
  6
CONTINUOUS
 62
     3
  5
D7
 10
-14.196159
 20
19.500002
 30
0.0
 11
-11.598082
 21
24.000002
 31
0.0
  0
LINE
  8
LY_1
  6
CONTINUOUS
 62
     3
  5
D8
 10
-6.401924
 20
15.0
 30
0.0
 11
-3.803848
 21
19.499999
 31
0.0
  0
LINE
  8
LY_1
  6
CONTINUOUS
 62
     3
  5
D9
 10
-11.598079
 20
24.0
 30
0.0
 11
-6.401924
 21
24.0
 31
0.0
  0
LINE
  8
LY_1
  6
CONTINUOUS
 62
     3
  5
DA
 10
-11.598079
 20
15.0
 30
0.0
 11
-6.401924
 21
15.0
 31
0.0
  0
LINE
  8
LY_1
  6
CENTER
 62
   110
  5
DB
 10
-19.196106
 20
19.5
 30
0.0
 11
1.196153
 21
19.5
 31
0.0
  0
LINE
  8
LY_1
  6
CENTER
 62
   110
  5
DC
 10
-9.0
 20
29.696121
 30
0.0
 11
-9.0
 21
9.303864
 31
0.0
  0
LINE
  8
LY_1
  6
CONTINUOUS
 62
     3
  5
DD
 10
-13.35
 20
43.143234
 30
0.0
 11
13.35
 21
43.143234
 31
0.0
  0
LINE
  8
LY_1
  6
CONTINUOUS
 62
     3
  5
DE
 10
-11.000003
 20
44.499999
 30
0.0
 11
-13.35
 21
43.143227
 31
0.0
  0
LINE
  8
LY_1
  6
CONTINUOUS
 62
     3
  5
DF
 10
-13.35
 20
37.499997
 30
0.0
 11
-19.499999
 21
36.635671
 31
0.0
  0
LINE
  8
LY_1
  6
CONTINUOUS
 62
     3
  5
E0
 10
-13.35
 20
43.143234
 30
0.0
 11
-13.35
 21
37.5
 31
0.0
  0
LINE
  8
LY_1
  6
CONTINUOUS
 62
     3
  5
E1
 10
-19.5
 20
36.635666
 30
0.0
 11
-19.5
 21
31.0
 31
0.0
  0
LINE
  8
LY_1
  6
CONTINUOUS
 62
     3
  5
E2
 10
11.000003
 20
44.499999
 30
0.0
 11
13.35
 21
43.143227
 31
0.0
  0
LINE
  8
LY_1
  6
CONTINUOUS
 62
     3
  5
E3
 10
13.35
 20
37.499997
 30
0.0
 11
19.499999
 21
36.635671
 31
0.0
  0
LINE
  8
LY_1
  6
CONTINUOUS
 62
     3
  5
E4
 10
13.35
 20
43.143234
 30
0.0
 11
13.35
 21
37.5
 31
0.0
  0
LINE
  8
LY_1
  6
CONTINUOUS
 62
     3
  5
E5
 10
-11.000004
 20
44.5
 30
0.0
 11
11.000004
 21
44.5
 31
0.0
  0
LINE
  8
LY_1
  6
CONTINUOUS
 62
     3
  5
E6
 10
-13.35
 20
37.5
 30
0.0
 11
13.35
 21
37.5
 31
0.0
  0
LINE
  8
LY_1
  6
CONTINUOUS
 62
     3
  5
E7
 10
-19.0
 20
31.0
 30
0.0
 11
-19.0
 21
20.218246
 31
0.0
  0
LINE
  8
LY_1
  6
CONTINUOUS
 62
     3
  5
E8
 10
19.0
 20
31.0
 30
0.0
 11
19.0
 21
20.218246
 31
0.0
  0
LINE
  8
LY_1
  6
CONTINUOUS
 62
     3
  5
E9
 10
19.5
 20
36.635666
 30
0.0
 11
19.5
 21
31.0
 31
0.0
  0
LINE
  8
LY_1
  6
CONTINUOUS
 62
     3
  5
EA
 10
-19.5
 20
31.0
 30
0.0
 11
19.5
 21
31.0
 31
0.0
  0
LINE
  8
LY_1
  6
CONTINUOUS
 62
     3
  5
EB
 10
-19.5
 20
34.0
 30
0.0
 11
19.5
 21
34.0
 31
0.0
  0
LINE
  8
LY_1
  6
CONTINUOUS
 62
     3
  5
EC
 10
-25.682553
 20
18.415288
 30
0.0
 11
-25.999999
 21
19.600012
 31
0.0
  0
LINE
  8
LY_1
  6
CONTINUOUS
 62
     3
  5
ED
 10
-26.0
 20
19.600006
 30
0.0
 11
-35.0
 21
19.600006
 31
0.0
  0
LINE
  8
LY_1
  6
CONTINUOUS
 62
     3
  5
EE
 10
25.682553
 20
18.415288
 30
0.0
 11
25.999999
 21
19.600012
 31
0.0
  0
LINE
  8
LY_1
  6
CONTINUOUS
 62
     3
  5
EF
 10
26.0
 20
19.600006
 30
0.0
 11
35.0
 21
19.600006
 31
0.0
  0
LINE
  8
LY_1
  6
CONTINUOUS
 62
     3
  5
F0
 10
-25.682553
 20
-18.415288
 30
0.0
 11
-25.999999
 21
-19.600012
 31
0.0
  0
LINE
  8
LY_1
  6
CONTINUOUS
 62
     3
  5
F1
 10
-26.0
 20
-19.600006
 30
0.0
 11
-35.0
 21
-19.600006
 31
0.0
  0
LINE
  8
LY_1
  6
CONTINUOUS
 62
     3
  5
F2
 10
-26.0
 20
19.600006
 30
0.0
 11
-26.0
 21
-19.600006
 31
0.0
  0
LINE
  8
LY_1
  6
CONTINUOUS
 62
     3
  5
F3
 10
-35.0
 20
19.600006
 30
0.0
 11
-35.0
 21
-19.600006
 31
0.0
  0
LINE
  8
LY_1
  6
CONTINUOUS
 62
     3
  5
F4
 10
25.682553
 20
-18.415288
 30
0.0
 11
25.999999
 21
-19.600012
 31
0.0
  0
LINE
  8
LY_1
  6
CONTINUOUS
 62
     3
  5
F5
 10
26.0
 20
-19.600006
 30
0.0
 11
35.0
 21
-19.600006
 31
0.0
  0
LINE
  8
LY_1
  6
CONTINUOUS
 62
     3
  5
F6
 10
26.0
 20
19.600006
 30
0.0
 11
26.0
 21
-19.600006
 31
0.0
  0
LINE
  8
LY_1
  6
CONTINUOUS
 62
     3
  5
F7
 10
35.0
 20
19.600006
 30
0.0
 11
35.0
 21
-19.600006
 31
0.0
  0
LINE
  8
LY_1
  6
CENTER
 62
   110
  5
F8
 10
0.0
 20
114.662659
 30
0.0
 11
0.0
 21
60.662659
 31
0.0
  0
LINE
  8
LY_1
  6
CENTER
 62
   110
  5
F9
 10
-40.0
 20
0.0
 30
0.0
 11
40.0
 21
0.0
 31
0.0
  0
ENDSEC
  0
EOF
