  0
SECTION
  2
HEADER
  9
$ACADVER
  1
AC1009
  9
$DWGCODEPAGE
  3
dos932
  9
$INSBASE
 10
0.0
 20
0.0
 30
0.0
  9
$EXTMIN
 10
-67.74281
 20
-94.114703
 30
0.0
  9
$EXTMAX
 10
184.577835
 20
196.899445
 30
0.0
  9
$LIMMIN
 10
-67.74281
 20
-94.114703
  9
$LIMMAX
 10
184.577835
 20
196.899445
  9
$ORTHOMODE
 70
     0
  9
$REGENMODE
 70
     1
  9
$FILLMODE
 70
     1
  9
$QTEXTMODE
 70
     0
  9
$MIRRTEXT
 70
     1
  9
$DRAGMODE
 70
     2
  9
$LTSCALE
 40
1.0
  9
$OSMODE
 70
     0
  9
$ATTMODE
 70
     1
  9
$TEXTSIZE
 40
3.3
  9
$TRACEWID
 40
0.05
  9
$TEXTSTYLE
  7
MX_NOTE_STANDARD
  9
$CLAYER
  8
LY_1
  9
$CELTYPE
  6
CONTINUOUS
  9
$CECOLOR
 62
   256
  9
$DIMSCALE
 40
1.0
  9
$DIMASZ
 40
2.5
  9
$DIMEXO
 40
0.0
  9
$DIMDLI
 40
3.75
  9
$DIMRND
 40
0.0
  9
$DIMDLE
 40
0.0
  9
$DIMEXE
 40
1.1938
  9
$DIMTP
 40
0.0
  9
$DIMTM
 40
0.0
  9
$DIMTXT
 40
3.3
  9
$DIMCEN
 40
2.5
  9
$DIMTSZ
 40
0.0
  9
$DIMTOL
 70
     0
  9
$DIMLIM
 70
     0
  9
$DIMTIH
 70
     0
  9
$DIMTOH
 70
     0
  9
$DIMSE1
 70
     0
  9
$DIMSE2
 70
     0
  9
$DIMTAD
 70
     1
  9
$DIMZIN
 70
     8
  9
$DIMBLK
  1

  9
$DIMASO
 70
     1
  9
$DIMSHO
 70
     1
  9
$DIMPOST
  1

  9
$DIMAPOST
  1

  9
$DIMALT
 70
     0
  9
$DIMALTD
 70
     4
  9
$DIMALTF
 40
0.03937
  9
$DIMLFAC
 40
1.0
  9
$DIMTOFL
 70
     1
  9
$DIMTVP
 40
0.0
  9
$DIMTIX
 70
     0
  9
$DIMSOXD
 70
     0
  9
$DIMSAH
 70
     1
  9
$DIMBLK1
  1
_OPEN30
  9
$DIMBLK2
  1
_OPEN30
  9
$DIMSTYLE
  2
MXDIMSTYLE
  9
$DIMCLRD
 70
     0
  9
$DIMCLRE
 70
     0
  9
$DIMCLRT
 70
     0
  9
$DIMTFAC
 40
1.0
  9
$DIMGAP
 40
1.0
  9
$LUNITS
 70
     2
  9
$LUPREC
 70
     4
  9
$AXISMODE
 70
     0
  9
$AXISUNIT
 10
0.0
 20
0.0
  9
$SKETCHINC
 40
0.1
  9
$FILLETRAD
 40
0.0
  9
$AUNITS
 70
     0
  9
$AUPREC
 70
     0
  9
$MENU
  1
acad
  9
$ELEVATION
 40
0.0
  9
$PELEVATION
 40
0.0
  9
$THICKNESS
 40
0.0
  9
$LIMCHECK
 70
     0
  9
$BLIPMODE
 70
     1
  9
$CHAMFERA
 40
0.0
  9
$CHAMFERB
 40
0.0
  9
$SKPOLY
 70
     0
  9
$TDCREATE
 40
2454901.550243055
  9
$TDUPDATE
 40
2454901.550243055
  9
$TDINDWG
 40
0.0000000000
  9
$TDUSRTIMER
 40
0.0000000000
  9
$USRTIMER
 70
     1
  9
$ANGBASE
 50
0.0
  9
$ANGDIR
 70
     0
  9
$PDMODE
 70
     0
  9
$PDSIZE
 40
0.0
  9
$PLINEWID
 40
0.0
  9
$COORDS
 70
     1
  9
$SPLFRAME
 70
     0
  9
$SPLINETYPE
 70
     6
  9
$SPLINESEGS
 70
     8
  9
$ATTDIA
 70
     0
  9
$ATTREQ
 70
     1
  9
$HANDLING
 70
     1
  9
$HANDSEED
  5
138
  9
$SURFTAB1
 70
     6
  9
$SURFTAB2
 70
     6
  9
$SURFTYPE
 70
     6
  9
$SURFU
 70
     6
  9
$SURFV
 70
     6
  9
$UCSNAME
  2

  9
$UCSORG
 10
0.0
 20
0.0
 30
0.0
  9
$UCSXDIR
 10
1.0
 20
0.0
 30
0.0
  9
$UCSYDIR
 10
0.0
 20
1.0
 30
0.0
  9
$PUCSNAME
  2

  9
$PUCSORG
 10
0.0
 20
0.0
 30
0.0
  9
$PUCSXDIR
 10
1.0
 20
0.0
 30
0.0
  9
$PUCSYDIR
 10
0.0
 20
1.0
 30
0.0
  9
$USERI1
 70
     0
  9
$USERI2
 70
     0
  9
$USERI3
 70
     0
  9
$USERI4
 70
     0
  9
$USERI5
 70
     0
  9
$USERR1
 40
0.0
  9
$USERR2
 40
0.0
  9
$USERR3
 40
0.0
  9
$USERR4
 40
0.0
  9
$USERR5
 40
0.0
  9
$WORLDVIEW
 70
     1
  9
$SHADEDGE
 70
     3
  9
$SHADEDIF
 70
    70
  9
$TILEMODE
 70
     1
  9
$MAXACTVP
 70
    16
  9
$PINSBASE
 10
0.0
 20
0.0
 30
0.0
  9
$PLIMCHECK
 70
     0
  9
$PEXTMIN
 10
1.000000E+20
 20
1.000000E+20
 30
1.000000E+20
  9
$PEXTMAX
 10
-1.000000E+20
 20
-1.000000E+20
 30
-1.000000E+20
  9
$PLIMMIN
 10
0.0
 20
0.0
  9
$PLIMMAX
 10
12.0
 20
9.0
  9
$UNITMODE
 70
     0
  9
$VISRETAIN
 70
     0
  9
$PLINEGEN
 70
     1
  9
$PSLTSCALE
 70
     0
  9
$TREEDEPTH
 70
  3020
  0
ENDSEC
  0
SECTION
  2
TABLES
  0
TABLE
  2
VPORT
 70
     1
  0
VPORT
  2
*ACTIVE
 70
     0
 10
0.0
 20
0.0
 11
1.0
 21
1.0
 12
58.417513
 22
51.392371
 13
0.0
 23
0.0
 14
1.0
 24
1.0
 15
0.0
 25
0.0
 16
0.0
 26
0.0
 36
1.0
 17
0.0
 27
0.0
 37
0.0
 40
293.924289
 41
1.732051
 42
50.0
 43
0.0
 44
0.0
 50
0.0
 51
0.0
 71
     0
 72
   100
 73
     1
 74
     1
 75
     0
 76
     0
 77
     0
 78
     0
  0
ENDTAB
  0
TABLE
  2
LTYPE
 70
     2
  0
LTYPE
  2
CONTINUOUS
 70
    64
  3
Solid line
 72
    65
 73
     0
 40
0.0
  0
LTYPE
  2
CENTER
 70
    64
  3
Center ____ _ ____ _ ____ _ ____ _ ____ _ ____
 72
    65
 73
     4
 40
50.8
 49
31.75
 49
-6.35
 49
6.35
 49
-6.35
  0
ENDTAB
  0
TABLE
  2
LAYER
 70
     3
  0
LAYER
  2
0
 70
     0
 62
     7
  6
CONTINUOUS
  0
LAYER
  2
LY_1
 70
     0
 62
     7
  6
CONTINUOUS
  0
LAYER
  2
DEFPOINTS
 70
     0
 62
     7
  6
CONTINUOUS
  0
ENDTAB
  0
TABLE
  2
STYLE
 70
     2
  0
STYLE
  2
MX_NOTE_STANDARD
 70
     0
 40
0.0
 41
1.0
 50
0.0
 71
     0
 42
3.3
  3
txt.shx
  4
extfont.shx
  0
STYLE
  2
MX_DIMTXSTY_2
 70
     0
 40
0.0
 41
0.85
 50
0.0
 71
     0
 42
3.3
  3
txt.shx
  4
extfont.shx
  0
ENDTAB
  0
TABLE
  2
VIEW
 70
     0
  0
ENDTAB
  0
TABLE
  2
UCS
 70
     0
  0
ENDTAB
  0
TABLE
  2
APPID
 70
     1
  0
APPID
  2
ACAD
 70
     0
  0
ENDTAB
  0
TABLE
  2
DIMSTYLE
 70
     1
  0
DIMSTYLE
  2
MXDIMSTYLE
 70
     0
  3

  4

  5

  6
_OPEN30
  7
_OPEN30
 40
1.0
 41
2.5
 42
0.0
 43
3.75
 44
1.1938
 45
0.0
 46
0.0
 47
0.0
 48
0.0
 71
     0
 72
     0
 73
     0
 74
     0
 75
     0
 76
     0
 77
     1
 78
     8
140
3.3
141
2.5
142
0.0
143
0.03937
144
1.0
145
0.0
146
1.0
147
1.0
170
     0
171
     4
172
     1
173
     1
174
     0
175
     0
176
     0
177
     0
178
     0
  0
ENDTAB
  0
ENDSEC
  0
SECTION
  2
BLOCKS
  0
BLOCK
  8
0
  6
BYBLOCK
 62
     0
  5
20
  2
_OPEN30
 70
     2
 10
0.0
 20
0.0
 30
0.0
  3
_OPEN30
  0
LINE
  8
0
  6
BYBLOCK
 62
     0
  5
21
 10
-1.0
 20
0.267949
 30
0.0
 11
0.0
 21
0.0
 31
0.0
  0
LINE
  8
0
  6
BYBLOCK
 62
     0
  5
22
 10
0.0
 20
0.0
 30
0.0
 11
-1.0
 21
-0.267949
 31
0.0
  0
LINE
  8
0
  6
BYBLOCK
 62
     0
  5
23
 10
0.0
 20
0.0
 30
0.0
 11
-1.0
 21
0.0
 31
0.0
  0
ENDBLK
  8
0
  6
BYBLOCK
 62
     0
  5
24
  0
BLOCK
  8
0
  6
BYBLOCK
 62
     0
  5
26
  2
*D1
 70
     1
 10
0.0
 20
0.0
 30
0.0
  3
*D1
  0
LINE
  8
0
  6
CONTINUOUS
 62
   110
  5
27
 10
74.0
 20
78.5
 30
0.0
 11
74.0
 21
0.0
 31
0.0
  0
LINE
  8
0
  6
CONTINUOUS
 62
   110
  5
28
 10
23.500015
 20
78.5
 30
0.0
 11
75.193787
 21
78.5
 31
0.0
  0
LINE
  8
0
  6
CONTINUOUS
 62
   110
  5
29
 10
66.0
 20
0.0
 30
0.0
 11
75.193787
 21
0.0
 31
0.0
  0
INSERT
  8
0
  6
CONTINUOUS
 62
   110
  5
30
  2
_OPEN
 10
74.0
 20
78.5
 30
0.0
 41
2.19
 42
2.19
 50
90.0
 43
2.19
  0
INSERT
  8
0
  6
CONTINUOUS
 62
   110
  5
31
  2
_OPEN
 10
74.0
 20
0.0
 30
0.0
 41
2.19
 42
2.19
 50
270.0
 43
2.19
  0
TEXT
  8
0
  6
CONTINUOUS
 62
   110
  5
33
 10
73.0
 20
37.023346
 30
0.0
 40
3.3
  1
79
 50
90.0
 41
0.98743
  7
MX_DIMTXSTY_2
 11
71.35
 21
37.023346
 31
0.0
 73
     2
  0
POINT
  8
DEFPOINTS
  6
CONTINUOUS
 62
     0
  5
34
 10
23.500015
 20
78.5
 30
0.0
  0
POINT
  8
DEFPOINTS
  6
CONTINUOUS
 62
     0
  5
35
 10
66.0
 20
0.0
 30
0.0
  0
POINT
  8
DEFPOINTS
  6
CONTINUOUS
 62
     0
  5
36
 10
74.0
 20
0.0
 30
0.0
  0
ENDBLK
  8
0
  6
BYBLOCK
 62
     0
  5
37
  0
BLOCK
  8
0
  6
BYBLOCK
 62
     0
  5
2B
  2
_OPEN
 70
     2
 10
0.0
 20
0.0
 30
0.0
  3
_OPEN
  0
LINE
  8
0
  6
BYBLOCK
 62
     0
  5
2C
 10
-1.0
 20
0.166667
 30
0.0
 11
0.0
 21
0.0
 31
0.0
  0
LINE
  8
0
  6
BYBLOCK
 62
     0
  5
2D
 10
0.0
 20
0.0
 30
0.0
 11
-1.0
 21
-0.166667
 31
0.0
  0
LINE
  8
0
  6
BYBLOCK
 62
     0
  5
2E
 10
0.0
 20
0.0
 30
0.0
 11
-1.0
 21
0.0
 31
0.0
  0
ENDBLK
  8
0
  6
BYBLOCK
 62
     0
  5
2F
  0
BLOCK
  8
0
  6
BYBLOCK
 62
     0
  5
3A
  2
*D3
 70
     1
 10
0.0
 20
0.0
 30
0.0
  3
*D3
  0
LINE
  8
0
  6
CONTINUOUS
 62
   110
  5
3B
 10
61.0
 20
-57.0
 30
0.0
 11
-61.0
 21
-57.0
 31
0.0
  0
LINE
  8
0
  6
CONTINUOUS
 62
   110
  5
3C
 10
61.0
 20
-40.350006
 30
0.0
 11
61.0
 21
-58.193787
 31
0.0
  0
LINE
  8
0
  6
CONTINUOUS
 62
   110
  5
3D
 10
-61.0
 20
-40.350006
 30
0.0
 11
-61.0
 21
-58.193787
 31
0.0
  0
INSERT
  8
0
  6
CONTINUOUS
 62
   110
  5
3E
  2
_OPEN
 10
61.0
 20
-57.0
 30
0.0
 41
2.19
 42
2.19
 43
2.19
  0
INSERT
  8
0
  6
CONTINUOUS
 62
   110
  5
3F
  2
_OPEN
 10
-61.0
 20
-57.0
 30
0.0
 41
2.19
 42
2.19
 50
180.0
 43
2.19
  0
TEXT
  8
0
  6
CONTINUOUS
 62
   110
  5
40
 10
-3.635284
 20
-56.0
 30
0.0
 40
3.3
  1
122
 41
0.94423
  7
MX_NOTE_STANDARD
 11
-3.635284
 21
-54.35
 31
0.0
 73
     2
  0
POINT
  8
DEFPOINTS
  6
CONTINUOUS
 62
     0
  5
41
 10
61.0
 20
-40.350006
 30
0.0
  0
POINT
  8
DEFPOINTS
  6
CONTINUOUS
 62
     0
  5
42
 10
-61.0
 20
-40.350006
 30
0.0
  0
POINT
  8
DEFPOINTS
  6
CONTINUOUS
 62
     0
  5
43
 10
-61.0
 20
-57.0
 30
0.0
  0
ENDBLK
  8
0
  6
BYBLOCK
 62
     0
  5
44
  0
ENDSEC
  0
SECTION
  2
ENTITIES
  0
DIMENSION
  8
LY_1
  6
CONTINUOUS
 62
   110
  5
38
  2
*D1
 10
74.0
 20
0.0
 30
0.0
 11
74.0
 21
39.25
 31
0.0
 70
   128
  1
<>
 13
23.500015
 23
78.5
 33
0.0
 14
66.0
 24
0.0
 34
0.0
 50
90.0
  3
MXDIMSTYLE
1001
ACAD
1000
DSTYLE
1002
{
1070
     6
1000
_OPEN
1070
     7
1000
_OPEN
1070
    41
1040
2.19
1070
    44
1040
1.193787
1070
   271
1070
     0
1070
   284
1070
     8
1070
   340
1005
32
1070
   343
1005
2A
1070
   344
1005
2A
1002
}
  0
DIMENSION
  8
LY_1
  6
CONTINUOUS
 62
   110
  5
45
  2
*D3
 10
-61.0
 20
-57.0
 30
0.0
 11
0.0
 21
-57.0
 31
0.0
 70
   128
  1
<>
 13
61.0
 23
-40.350006
 33
0.0
 14
-61.0
 24
-40.350006
 34
0.0
  3
MXDIMSTYLE
1001
ACAD
1000
DSTYLE
1002
{
1070
     6
1000
_OPEN
1070
     7
1000
_OPEN
1070
    41
1040
2.19
1070
    44
1040
1.193787
1070
   271
1070
     0
1070
   284
1070
     8
1070
   343
1005
2A
1070
   344
1005
2A
1002
}
  0
TEXT
  8
LY_1
  6
CONTINUOUS
 62
   110
  5
46
 10
-67.084649
 20
-77.083591
 30
0.0
 40
4.167181
  1
      SWING CHECK VALVE 2
 41
0.947635
  7
MX_NOTE_STANDARD
 11
-67.084649
 21
-75.0
 31
0.0
 73
     2
  0
TEXT
  8
LY_1
  6
CONTINUOUS
 62
   110
  5
47
 10
-67.109061
 20
-93.083591
 30
0.0
 40
4.167181
  1
KITZ
 41
0.912486
  7
MX_NOTE_STANDARD
 11
-67.109061
 21
-91.0
 31
0.0
 73
     2
  0
TEXT
  8
LY_1
  6
CONTINUOUS
 62
   110
  5
48
 10
-67.024125
 20
-85.083591
 30
0.0
 40
4.167181
  1
FIG   R2
 41
1.034778
  7
MX_NOTE_STANDARD
 11
-67.024125
 21
-83.0
 31
0.0
 73
     2
  0
TEXT
  8
LY_1
  6
CONTINUOUS
 62
   110
  5
49
 10
-67.10692
 20
-69.083591
 30
0.0
 40
4.167181
  1
NAME  CLASS 125 CAST BRONZE
 41
0.915569
  7
MX_NOTE_STANDARD
 11
-67.10692
 21
-67.0
 31
0.0
 73
     2
  0
POLYLINE
  8
LY_1
  6
CONTINUOUS
 62
     3
  5
4A
 66
     1
 10
0.0
 20
0.0
 30
0.0
  0
VERTEX
  8
LY_1
  6
CONTINUOUS
 62
     3
  5
FE
 10
16.150994
 20
-2.221067
 30
0.0
  0
VERTEX
  8
LY_1
  6
CONTINUOUS
 62
     3
  5
FF
 10
16.145633
 20
-2.225792
 30
0.0
  0
VERTEX
  8
LY_1
  6
CONTINUOUS
 62
     3
  5
100
 10
16.140984
 20
-2.231193
 30
0.0
  0
VERTEX
  8
LY_1
  6
CONTINUOUS
 62
     3
  5
101
 10
16.137137
 20
-2.237166
 30
0.0
  0
VERTEX
  8
LY_1
  6
CONTINUOUS
 62
     3
  5
102
 10
16.134163
 20
-2.2436
 30
0.0
  0
VERTEX
  8
LY_1
  6
CONTINUOUS
 62
     3
  5
103
 10
16.132119
 20
-2.250373
 30
0.0
  0
VERTEX
  8
LY_1
  6
CONTINUOUS
 62
     3
  5
104
 10
16.131044
 20
-2.257355
 30
0.0
  0
VERTEX
  8
LY_1
  6
CONTINUOUS
 62
     3
  5
105
 10
16.130957
 20
-2.264416
 30
0.0
  0
VERTEX
  8
LY_1
  6
CONTINUOUS
 62
     3
  5
106
 10
16.131862
 20
-2.271422
 30
0.0
  0
VERTEX
  8
LY_1
  6
CONTINUOUS
 62
     3
  5
107
 10
16.13374
 20
-2.278241
 30
0.0
  0
VERTEX
  8
LY_1
  6
CONTINUOUS
 62
     3
  5
108
 10
16.136555
 20
-2.284742
 30
0.0
  0
VERTEX
  8
LY_1
  6
CONTINUOUS
 62
     3
  5
109
 10
16.140256
 20
-2.290804
 30
0.0
  0
VERTEX
  8
LY_1
  6
CONTINUOUS
 62
     3
  5
10A
 10
16.144771
 20
-2.296312
 30
0.0
  0
VERTEX
  8
LY_1
  6
CONTINUOUS
 62
     3
  5
10B
 10
16.150015
 20
-2.301161
 30
0.0
  0
VERTEX
  8
LY_1
  6
CONTINUOUS
 62
     3
  5
10C
 10
16.15589
 20
-2.305261
 30
0.0
  0
VERTEX
  8
LY_1
  6
CONTINUOUS
 62
     3
  5
10D
 10
16.162284
 20
-2.308532
 30
0.0
  0
VERTEX
  8
LY_1
  6
CONTINUOUS
 62
     3
  5
10E
 10
16.169075
 20
-2.310914
 30
0.0
  0
VERTEX
  8
LY_1
  6
CONTINUOUS
 62
     3
  5
10F
 10
16.176137
 20
-2.312362
 30
0.0
  0
VERTEX
  8
LY_1
  6
CONTINUOUS
 62
     3
  5
110
 10
16.183334
 20
-2.312847
 30
0.0
  0
VERTEX
  8
LY_1
  6
CONTINUOUS
 62
     3
  5
111
 10
16.183334
 20
-2.312847
 30
0.0
  0
SEQEND
  8
LY_1
  6
CONTINUOUS
 62
     3
  5
112
  0
POLYLINE
  8
LY_1
  6
CONTINUOUS
 62
     3
  5
4B
 66
     1
 10
0.0
 20
0.0
 30
0.0
  0
VERTEX
  8
LY_1
  6
CONTINUOUS
 62
     3
  5
113
 10
19.433693
 20
3.893305
 30
0.0
  0
VERTEX
  8
LY_1
  6
CONTINUOUS
 62
     3
  5
114
 10
19.439371
 20
3.898353
 30
0.0
  0
VERTEX
  8
LY_1
  6
CONTINUOUS
 62
     3
  5
115
 10
19.444236
 20
3.904159
 30
0.0
  0
VERTEX
  8
LY_1
  6
CONTINUOUS
 62
     3
  5
116
 10
19.448185
 20
3.910596
 30
0.0
  0
VERTEX
  8
LY_1
  6
CONTINUOUS
 62
     3
  5
117
 10
19.451132
 20
3.917528
 30
0.0
  0
VERTEX
  8
LY_1
  6
CONTINUOUS
 62
     3
  5
118
 10
19.453014
 20
3.924807
 30
0.0
  0
VERTEX
  8
LY_1
  6
CONTINUOUS
 62
     3
  5
119
 10
19.453792
 20
3.932277
 30
0.0
  0
VERTEX
  8
LY_1
  6
CONTINUOUS
 62
     3
  5
11A
 10
19.453449
 20
3.939777
 30
0.0
  0
VERTEX
  8
LY_1
  6
CONTINUOUS
 62
     3
  5
11B
 10
19.451992
 20
3.947149
 30
0.0
  0
VERTEX
  8
LY_1
  6
CONTINUOUS
 62
     3
  5
11C
 10
19.449452
 20
3.954234
 30
0.0
  0
VERTEX
  8
LY_1
  6
CONTINUOUS
 62
     3
  5
11D
 10
19.445884
 20
3.960881
 30
0.0
  0
VERTEX
  8
LY_1
  6
CONTINUOUS
 62
     3
  5
11E
 10
19.441364
 20
3.966947
 30
0.0
  0
VERTEX
  8
LY_1
  6
CONTINUOUS
 62
     3
  5
11F
 10
19.435988
 20
3.972303
 30
0.0
  0
VERTEX
  8
LY_1
  6
CONTINUOUS
 62
     3
  5
120
 10
19.429871
 20
3.976835
 30
0.0
  0
VERTEX
  8
LY_1
  6
CONTINUOUS
 62
     3
  5
121
 10
19.423145
 20
3.980445
 30
0.0
  0
VERTEX
  8
LY_1
  6
CONTINUOUS
 62
     3
  5
122
 10
19.415953
 20
3.983056
 30
0.0
  0
VERTEX
  8
LY_1
  6
CONTINUOUS
 62
     3
  5
123
 10
19.408448
 20
3.984613
 30
0.0
  0
VERTEX
  8
LY_1
  6
CONTINUOUS
 62
     3
  5
124
 10
19.404891
 20
3.984968
 30
0.0
  0
VERTEX
  8
LY_1
  6
CONTINUOUS
 62
     3
  5
125
 10
19.401317
 20
3.985085
 30
0.0
  0
SEQEND
  8
LY_1
  6
CONTINUOUS
 62
     3
  5
126
  0
POLYLINE
  8
LY_1
  6
CONTINUOUS
 62
     3
  5
4C
 66
     1
 10
0.0
 20
0.0
 30
0.0
  0
VERTEX
  8
LY_1
  6
CONTINUOUS
 62
     3
  5
127
 10
-20.050011
 20
0.042081
 30
0.0
  0
VERTEX
  8
LY_1
  6
CONTINUOUS
 62
     3
  5
128
 10
-20.05562
 20
0.03766
 30
0.0
  0
VERTEX
  8
LY_1
  6
CONTINUOUS
 62
     3
  5
129
 10
-20.060558
 20
0.032528
 30
0.0
  0
VERTEX
  8
LY_1
  6
CONTINUOUS
 62
     3
  5
12A
 10
-20.064732
 20
0.026782
 30
0.0
  0
VERTEX
  8
LY_1
  6
CONTINUOUS
 62
     3
  5
12B
 10
-20.068062
 20
0.020531
 30
0.0
  0
VERTEX
  8
LY_1
  6
CONTINUOUS
 62
     3
  5
12C
 10
-20.070486
 20
0.013893
 30
0.0
  0
VERTEX
  8
LY_1
  6
CONTINUOUS
 62
     3
  5
12D
 10
-20.071958
 20
0.006992
 30
0.0
  0
VERTEX
  8
LY_1
  6
CONTINUOUS
 62
     3
  5
12E
 10
-20.072451
 20
-0.000041
 30
0.0
  0
VERTEX
  8
LY_1
  6
CONTINUOUS
 62
     3
  5
12F
 10
-20.071955
 20
-0.007074
 30
0.0
  0
VERTEX
  8
LY_1
  6
CONTINUOUS
 62
     3
  5
130
 10
-20.070479
 20
-0.013974
 30
0.0
  0
VERTEX
  8
LY_1
  6
CONTINUOUS
 62
     3
  5
131
 10
-20.068052
 20
-0.020611
 30
0.0
  0
VERTEX
  8
LY_1
  6
CONTINUOUS
 62
     3
  5
132
 10
-20.064719
 20
-0.02686
 30
0.0
  0
VERTEX
  8
LY_1
  6
CONTINUOUS
 62
     3
  5
133
 10
-20.060543
 20
-0.032604
 30
0.0
  0
VERTEX
  8
LY_1
  6
CONTINUOUS
 62
     3
  5
134
 10
-20.055602
 20
-0.037733
 30
0.0
  0
VERTEX
  8
LY_1
  6
CONTINUOUS
 62
     3
  5
135
 10
-20.04999
 20
-0.042152
 30
0.0
  0
SEQEND
  8
LY_1
  6
CONTINUOUS
 62
     3
  5
136
  0
ARC
  8
LY_1
  6
CONTINUOUS
 62
     3
  5
4D
 10
21.592667
 20
3.732439
 30
0.0
 40
1.407213
 50
307.524111
 51
89.999982
  0
ARC
  8
LY_1
  6
CONTINUOUS
 62
     3
  5
4E
 10
21.586655
 20
-3.726163
 30
0.0
 40
1.413396
 50
270.000018
 51
89.999982
  0
ARC
  8
LY_1
  6
CONTINUOUS
 62
     3
  5
4F
 10
11.815434
 20
-3.732267
 30
0.0
 40
1.407456
 50
127.524112
 51
270.000001
  0
ARC
  8
LY_1
  6
CONTINUOUS
 62
     3
  5
50
 10
12.37167
 20
3.695612
 30
0.0
 40
1.444031
 50
89.999982
 51
359.999983
  0
ARC
  8
LY_1
  6
CONTINUOUS
 62
     3
  5
51
 10
7.467279
 20
3.725943
 30
0.0
 40
1.413336
 50
270.000018
 51
89.999982
  0
ARC
  8
LY_1
  6
CONTINUOUS
 62
     3
  5
52
 10
2.84797
 20
-3.695604
 30
0.0
 40
1.444073
 50
180.000036
 51
0.000001
  0
ARC
  8
LY_1
  6
CONTINUOUS
 62
     3
  5
53
 10
-2.213384
 20
3.695219
 30
0.0
 40
1.44395
 50
89.999982
 51
359.999983
  0
ARC
  8
LY_1
  6
CONTINUOUS
 62
     3
  5
54
 10
-7.168204
 20
-3.695604
 30
0.0
 40
1.444054
 50
180.000036
 51
0.000001
  0
ARC
  8
LY_1
  6
CONTINUOUS
 62
     3
  5
55
 10
-7.168204
 20
3.695612
 30
0.0
 40
1.444054
 50
0.000018
 51
180.000019
  0
ARC
  8
LY_1
  6
CONTINUOUS
 62
     3
  5
56
 10
-12.037659
 20
3.426996
 30
0.0
 40
1.712766
 50
90.778951
 51
124.259063
  0
ARC
  8
LY_1
  6
CONTINUOUS
 62
     3
  5
57
 10
-12.082158
 20
3.726724
 30
0.0
 40
1.41305
 50
213.574514
 51
89.143203
  0
ARC
  8
LY_1
  6
CONTINUOUS
 62
     3
  5
58
 10
-12.108177
 20
-3.72956
 30
0.0
 40
1.423104
 50
235.740937
 51
55.740955
  0
ARC
  8
LY_1
  6
CONTINUOUS
 62
     3
  5
59
 10
-21.556091
 20
-3.695768
 30
0.0
 40
1.443967
 50
179.999964
 51
359.999983
  0
ARC
  8
LY_1
  6
CONTINUOUS
 62
     3
  5
5A
 10
-21.556091
 20
3.695773
 30
0.0
 40
1.443967
 50
0.000018
 51
180.000019
  0
ARC
  8
LY_1
  6
CONTINUOUS
 62
     3
  5
5B
 10
44.074432
 20
37.798767
 30
0.0
 40
55.0
 50
337.554431
 51
359.957321
  0
ARC
  8
LY_1
  6
CONTINUOUS
 62
     3
  5
5C
 10
0.0
 20
202.399445
 30
0.0
 40
98.5
 50
259.498028
 51
294.133371
  0
CIRCLE
  8
LY_1
  6
CONTINUOUS
 62
     3
  5
5D
 10
0.0
 20
147.899445
 30
0.0
 40
37.5
  0
CIRCLE
  8
LY_1
  6
CONTINUOUS
 62
     3
  5
5E
 10
0.0
 20
147.899445
 30
0.0
 40
23.5
  0
ARC
  8
LY_1
  6
CONTINUOUS
 62
     3
  5
5F
 10
-42.112808
 20
187.396851
 30
0.0
 40
4.5
 50
231.005047
 51
294.133371
  0
ARC
  8
LY_1
  6
CONTINUOUS
 62
     3
  5
60
 10
-42.112808
 20
108.402039
 30
0.0
 40
4.5
 50
65.866629
 51
128.994953
  0
ARC
  8
LY_1
  6
CONTINUOUS
 62
     3
  5
61
 10
42.112808
 20
187.396851
 30
0.0
 40
4.5
 50
245.86661
 51
308.994958
  0
ARC
  8
LY_1
  6
CONTINUOUS
 62
     3
  5
62
 10
0.0
 20
93.399445
 30
0.0
 40
98.5
 50
65.866629
 51
114.13339
  0
ARC
  8
LY_1
  6
CONTINUOUS
 62
     3
  5
63
 10
42.112808
 20
108.402039
 30
0.0
 40
4.5
 50
51.005042
 51
114.13339
  0
ARC
  8
LY_1
  6
CONTINUOUS
 62
     3
  5
64
 10
0.0
 20
202.399445
 30
0.0
 40
98.5
 50
245.86661
 51
251.911437
  0
ARC
  8
LY_1
  6
CONTINUOUS
 62
     3
  5
65
 10
227.074463
 20
37.798767
 30
0.0
 40
55.0
 50
179.999981
 51
202.445568
  0
ARC
  8
LY_1
  6
CONTINUOUS
 62
     3
  5
66
 10
135.574448
 20
0.0
 30
0.0
 40
44.0
 50
157.554378
 51
22.445569
  0
CIRCLE
  8
LY_1
  6
CONTINUOUS
 62
     3
  5
67
 10
135.574448
 20
0.0
 30
0.0
 40
28.328003
  0
CIRCLE
  8
LY_1
  6
CONTINUOUS
 62
   110
  5
68
 10
135.574448
 20
0.0
 30
0.0
 40
29.807007
  0
CIRCLE
  8
LY_1
  6
CONTINUOUS
 62
     3
  5
69
 10
-22.5
 20
40.5
 30
0.0
 40
8.0
  0
CIRCLE
  8
LY_1
  6
CONTINUOUS
 62
     3
  5
6A
 10
-22.5
 20
40.5
 30
0.0
 40
6.5
  0
ARC
  8
LY_1
  6
CONTINUOUS
 62
     3
  5
6B
 10
-40.5
 20
39.659439
 30
0.0
 40
4.0
 50
293.273587
 51
0.000019
  0
ARC
  8
LY_1
  6
CONTINUOUS
 62
     3
  5
6C
 10
0.0
 20
-54.5
 30
0.0
 40
98.5
 50
113.273606
 51
114.13339
  0
ARC
  8
LY_1
  6
CONTINUOUS
 62
     3
  5
6D
 10
40.5
 20
39.659439
 30
0.0
 40
4.0
 50
179.999981
 51
246.726394
  0
ARC
  8
LY_1
  6
CONTINUOUS
 62
     3
  5
6E
 10
-42.112808
 20
39.497406
 30
0.0
 40
4.5
 50
194.999896
 51
294.133371
  0
ARC
  8
LY_1
  6
CONTINUOUS
 62
     3
  5
6F
 10
42.112808
 20
39.497406
 30
0.0
 40
4.5
 50
245.86661
 51
345.000082
  0
ARC
  8
LY_1
  6
CONTINUOUS
 62
     3
  5
70
 10
0.0
 20
-54.5
 30
0.0
 40
98.5
 50
65.866629
 51
66.726413
  0
ARC
  8
LY_1
  6
CONTINUOUS
 62
     3
  5
71
 10
-42.112808
 20
-39.497406
 30
0.0
 40
4.5
 50
65.866629
 51
165.000104
  0
ARC
  8
LY_1
  6
CONTINUOUS
 62
     3
  5
72
 10
42.112808
 20
-39.497406
 30
0.0
 40
4.5
 50
14.999918
 51
114.13339
  0
ARC
  8
LY_1
  6
CONTINUOUS
 62
     3
  5
73
 10
0.0
 20
54.5
 30
0.0
 40
98.5
 50
245.86661
 51
294.133371
  0
LINE
  8
LY_1
  6
CONTINUOUS
 62
     3
  5
74
 10
13.815629
 20
3.98506
 30
0.0
 11
13.815629
 21
3.695612
 31
0.0
  0
LINE
  8
LY_1
  6
CONTINUOUS
 62
     3
  5
75
 10
-0.76932
 20
3.984601
 30
0.0
 11
-0.76932
 21
3.695219
 31
0.0
  0
LINE
  8
LY_1
  6
CONTINUOUS
 62
     3
  5
76
 10
-0.76932
 20
3.984601
 30
0.0
 11
1.403972
 21
3.984601
 31
0.0
  0
LINE
  8
LY_1
  6
CONTINUOUS
 62
     3
  5
77
 10
4.292095
 20
2.312532
 30
0.0
 11
7.467279
 21
2.312532
 31
0.0
  0
LINE
  8
LY_1
  6
CONTINUOUS
 62
     3
  5
78
 10
4.292095
 20
2.312532
 30
0.0
 11
4.292095
 21
-3.695604
 31
0.0
  0
LINE
  8
LY_1
  6
CONTINUOUS
 62
     3
  5
79
 10
1.403972
 20
3.984601
 30
0.0
 11
1.403972
 21
-3.695604
 31
0.0
  0
LINE
  8
LY_1
  6
CONTINUOUS
 62
     3
  5
7A
 10
-2.213384
 20
5.139119
 30
0.0
 11
7.467279
 21
5.139119
 31
0.0
  0
LINE
  8
LY_1
  6
CONTINUOUS
 62
     3
  5
7B
 10
13.815629
 20
3.98506
 30
0.0
 11
19.401245
 21
3.98506
 31
0.0
  0
LINE
  8
LY_1
  6
CONTINUOUS
 62
     3
  5
7C
 10
11.815434
 20
-5.139631
 30
0.0
 11
21.586655
 21
-5.139631
 31
0.0
  0
LINE
  8
LY_1
  6
CONTINUOUS
 62
     3
  5
7D
 10
21.586655
 20
-2.312853
 30
0.0
 11
16.183365
 21
-2.312853
 31
0.0
  0
LINE
  8
LY_1
  6
CONTINUOUS
 62
     3
  5
7E
 10
22.449871
 20
2.616388
 30
0.0
 11
16.150917
 21
-2.22118
 31
0.0
  0
LINE
  8
LY_1
  6
CONTINUOUS
 62
     3
  5
7F
 10
19.433749
 20
3.893198
 30
0.0
 11
10.958259
 21
-2.615939
 31
0.0
  0
LINE
  8
LY_1
  6
CONTINUOUS
 62
     3
  5
80
 10
12.37167
 20
5.139643
 30
0.0
 11
21.592667
 21
5.139643
 31
0.0
  0
LINE
  8
LY_1
  6
CONTINUOUS
 62
     3
  5
81
 10
-8.612335
 20
-3.695604
 30
0.0
 11
-8.612335
 21
3.695612
 31
0.0
  0
LINE
  8
LY_1
  6
CONTINUOUS
 62
     3
  5
82
 10
-5.724144
 20
3.695612
 30
0.0
 11
-5.724144
 21
-3.695604
 31
0.0
  0
LINE
  8
LY_1
  6
CONTINUOUS
 62
     3
  5
83
 10
-16.319679
 20
0.860919
 30
0.0
 11
-13.259453
 21
2.94526
 31
0.0
  0
LINE
  8
LY_1
  6
CONTINUOUS
 62
     3
  5
84
 10
-16.319724
 20
0.860829
 30
0.0
 11
-11.306911
 21
-2.553432
 31
0.0
  0
LINE
  8
LY_1
  6
CONTINUOUS
 62
     3
  5
85
 10
-20.049994
 20
0.042019
 30
0.0
 11
-13.001854
 21
4.842555
 31
0.0
  0
LINE
  8
LY_1
  6
CONTINUOUS
 62
     3
  5
86
 10
-20.049885
 20
-0.042293
 30
0.0
 11
-12.909178
 21
-4.905878
 31
0.0
  0
LINE
  8
LY_1
  6
CONTINUOUS
 62
     3
  5
87
 10
-20.112213
 20
3.695773
 30
0.0
 11
-20.112213
 21
-3.695768
 31
0.0
  0
LINE
  8
LY_1
  6
CONTINUOUS
 62
     3
  5
88
 10
-23.000061
 20
3.695773
 30
0.0
 11
-23.000061
 21
-3.695768
 31
0.0
  0
LINE
  8
LY_1
  6
CONTINUOUS
 62
     3
  5
89
 10
98.074448
 20
65.298584
 30
0.0
 11
173.074448
 21
65.298584
 31
0.0
  0
LINE
  8
LY_1
  6
CONTINUOUS
 62
     3
  5
8A
 10
-37.5
 20
65.298553
 30
0.0
 11
37.5
 21
65.298553
 31
0.0
  0
LINE
  8
LY_1
  6
CONTINUOUS
 62
     3
  5
8B
 10
135.574448
 20
66.5
 30
0.0
 11
135.574448
 21
76.76796
 31
0.0
  0
LINE
  8
LY_1
  6
CONTINUOUS
 62
     3
  5
8C
 10
116.440277
 20
76.76796
 30
0.0
 11
116.440277
 21
66.5
 31
0.0
  0
LINE
  8
LY_1
  6
CONTINUOUS
 62
     3
  5
8D
 10
154.708618
 20
76.76796
 30
0.0
 11
154.708618
 21
66.5
 31
0.0
  0
LINE
  8
LY_1
  6
CONTINUOUS
 62
     3
  5
8E
 10
-19.134171
 20
76.76796
 30
0.0
 11
-19.134171
 21
66.5
 31
0.0
  0
LINE
  8
LY_1
  6
CONTINUOUS
 62
     3
  5
8F
 10
0.0
 20
66.5
 30
0.0
 11
0.0
 21
76.76796
 31
0.0
  0
LINE
  8
LY_1
  6
CONTINUOUS
 62
     3
  5
90
 10
19.134171
 20
76.76796
 30
0.0
 11
19.134171
 21
66.5
 31
0.0
  0
LINE
  8
LY_1
  6
CONTINUOUS
 62
     3
  5
91
 10
-14.500011
 20
112.899434
 30
0.0
 11
-14.478639
 21
113.307245
 31
0.0
  0
LINE
  8
LY_1
  6
CONTINUOUS
 62
     3
  5
92
 10
-30.499983
 20
112.899434
 30
0.0
 11
-31.24772
 21
127.167115
 31
0.0
  0
LINE
  8
LY_1
  6
CONTINUOUS
 62
     3
  5
93
 10
-26.541458
 20
111.066544
 30
0.0
 11
-26.541458
 21
106.463348
 31
0.0
  0
LINE
  8
LY_1
  6
CONTINUOUS
 62
     3
  5
94
 10
-30.582916
 20
106.463348
 30
0.0
 11
-14.417089
 21
106.463348
 31
0.0
  0
LINE
  8
LY_1
  6
CONTINUOUS
 62
     3
  5
95
 10
-30.582916
 20
111.066544
 30
0.0
 11
-14.417089
 21
111.066544
 31
0.0
  0
LINE
  8
LY_1
  6
CONTINUOUS
 62
     3
  5
96
 10
-30.582907
 20
111.066539
 30
0.0
 11
-28.750004
 21
112.899442
 31
0.0
  0
LINE
  8
LY_1
  6
CONTINUOUS
 62
     3
  5
97
 10
-30.582897
 20
106.463375
 30
0.0
 11
-28.999972
 21
105.549472
 31
0.0
  0
LINE
  8
LY_1
  6
CONTINUOUS
 62
     3
  5
98
 10
-30.582916
 20
111.066544
 30
0.0
 11
-30.582916
 21
106.463348
 31
0.0
  0
LINE
  8
LY_1
  6
CONTINUOUS
 62
     3
  5
99
 10
-14.417087
 20
111.066549
 30
0.0
 11
-16.249979
 21
112.899442
 31
0.0
  0
LINE
  8
LY_1
  6
CONTINUOUS
 62
     3
  5
9A
 10
-14.417105
 20
106.463373
 30
0.0
 11
-16.00003
 21
105.549471
 31
0.0
  0
LINE
  8
LY_1
  6
CONTINUOUS
 62
     3
  5
9B
 10
-28.999985
 20
105.549454
 30
0.0
 11
-16.000015
 21
105.549454
 31
0.0
  0
LINE
  8
LY_1
  6
CENTER
 62
   110
  5
9D
 10
-22.5
 20
100.549454
 30
0.0
 11
-22.5
 21
119.14946
 31
0.0
  0
LINE
  8
LY_1
  6
CONTINUOUS
 62
     3
  5
9E
 10
-30.5
 20
112.899445
 30
0.0
 11
-14.49999
 21
112.899445
 31
0.0
  0
LINE
  8
LY_1
  6
CONTINUOUS
 62
     3
  5
9F
 10
-18.458542
 20
111.066544
 30
0.0
 11
-18.458542
 21
106.463348
 31
0.0
  0
LINE
  8
LY_1
  6
CONTINUOUS
 62
     3
  5
A0
 10
-14.417089
 20
111.066544
 30
0.0
 11
-14.417089
 21
106.463348
 31
0.0
  0
LINE
  8
LY_1
  6
CONTINUOUS
 62
     3
  5
A1
 10
-0.000011
 20
174.959216
 30
0.0
 11
19.134146
 21
167.033588
 31
0.0
  0
LINE
  8
LY_1
  6
CONTINUOUS
 62
     3
  5
A2
 10
-19.134198
 20
128.765247
 30
0.0
 11
-0.000013
 21
120.839607
 31
0.0
  0
LINE
  8
LY_1
  6
CONTINUOUS
 62
     3
  5
A3
 10
19.134166
 20
167.0336
 30
0.0
 11
27.059805
 21
147.899414
 31
0.0
  0
LINE
  8
LY_1
  6
CONTINUOUS
 62
     3
  5
A4
 10
-27.059806
 20
147.899416
 30
0.0
 11
-19.134179
 21
128.765258
 31
0.0
  0
LINE
  8
LY_1
  6
CONTINUOUS
 62
     3
  5
A5
 10
27.059783
 20
147.899407
 30
0.0
 11
19.134149
 21
128.765236
 31
0.0
  0
LINE
  8
LY_1
  6
CONTINUOUS
 62
     3
  5
A6
 10
-19.134193
 20
167.03358
 30
0.0
 11
-27.059826
 21
147.899409
 31
0.0
  0
LINE
  8
LY_1
  6
CONTINUOUS
 62
     3
  5
A7
 10
19.134175
 20
128.765252
 30
0.0
 11
0.000002
 21
120.839619
 31
0.0
  0
LINE
  8
LY_1
  6
CONTINUOUS
 62
     3
  5
A8
 10
0.000005
 20
174.95923
 30
0.0
 11
-19.134168
 21
167.033598
 31
0.0
  0
LINE
  8
LY_1
  6
CONTINUOUS
 62
     3
  5
A9
 10
-44.944443
 20
147.899445
 30
0.0
 11
-61.0
 21
147.899445
 31
0.0
  0
LINE
  8
LY_1
  6
CONTINUOUS
 62
     3
  5
AA
 10
-44.944443
 20
111.899445
 30
0.0
 11
-44.944443
 21
183.899445
 31
0.0
  0
LINE
  8
LY_1
  6
CONTINUOUS
 62
     3
  5
AB
 10
-44.944443
 20
183.899445
 30
0.0
 11
-61.0
 21
183.899445
 31
0.0
  0
LINE
  8
LY_1
  6
CONTINUOUS
 62
     3
  5
AC
 10
-44.944443
 20
111.899445
 30
0.0
 11
-61.0
 21
111.899445
 31
0.0
  0
LINE
  8
LY_1
  6
CONTINUOUS
 62
     3
  5
AD
 10
-61.0
 20
183.899445
 30
0.0
 11
-61.0
 21
111.899445
 31
0.0
  0
LINE
  8
LY_1
  6
CONTINUOUS
 62
     3
  5
AE
 10
44.944443
 20
147.899445
 30
0.0
 11
61.0
 21
147.899445
 31
0.0
  0
LINE
  8
LY_1
  6
CONTINUOUS
 62
     3
  5
AF
 10
44.944443
 20
111.899445
 30
0.0
 11
44.944443
 21
183.899445
 31
0.0
  0
LINE
  8
LY_1
  6
CONTINUOUS
 62
     3
  5
B0
 10
44.944443
 20
183.899445
 30
0.0
 11
61.0
 21
183.899445
 31
0.0
  0
LINE
  8
LY_1
  6
CONTINUOUS
 62
     3
  5
B1
 10
44.944443
 20
111.899445
 30
0.0
 11
61.0
 21
111.899445
 31
0.0
  0
LINE
  8
LY_1
  6
CENTER
 62
   110
  5
B2
 10
-66.0
 20
0.0
 30
0.0
 11
66.0
 21
0.0
 31
0.0
  0
LINE
  8
LY_1
  6
CONTINUOUS
 62
     3
  5
B3
 10
61.0
 20
183.899445
 30
0.0
 11
61.0
 21
111.899445
 31
0.0
  0
LINE
  8
LY_1
  6
CONTINUOUS
 62
     3
  5
B4
 10
-47.0
 20
20.784607
 30
0.0
 11
-61.0
 21
20.784607
 31
0.0
  0
LINE
  8
LY_1
  6
CONTINUOUS
 62
     3
  5
B5
 10
47.0
 20
20.784607
 30
0.0
 11
61.0
 21
20.784607
 31
0.0
  0
LINE
  8
LY_1
  6
CONTINUOUS
 62
     3
  5
B6
 10
-47.0
 20
-20.784607
 30
0.0
 11
-61.0
 21
-20.784607
 31
0.0
  0
LINE
  8
LY_1
  6
CONTINUOUS
 62
     3
  5
B7
 10
47.0
 20
-20.784607
 30
0.0
 11
61.0
 21
-20.784607
 31
0.0
  0
LINE
  8
LY_1
  6
CENTER
 62
   110
  5
B8
 10
-66.0
 20
147.899445
 30
0.0
 11
66.0
 21
147.899445
 31
0.0
  0
LINE
  8
LY_1
  6
CENTER
 62
   110
  5
B9
 10
0.0
 20
83.5
 30
0.0
 11
0.0
 21
-49.0
 31
0.0
  0
LINE
  8
LY_1
  6
CENTER
 62
   110
  5
BA
 10
86.570786
 20
0.0
 30
0.0
 11
184.577835
 21
0.0
 31
0.0
  0
LINE
  8
LY_1
  6
CONTINUOUS
 62
     3
  5
BB
 10
93.513077
 20
40.5
 30
0.0
 11
99.074448
 21
40.5
 31
0.0
  0
LINE
  8
LY_1
  6
CONTINUOUS
 62
     3
  5
BC
 10
93.513077
 20
33.5
 30
0.0
 11
93.513077
 21
47.5
 31
0.0
  0
LINE
  8
LY_1
  6
CONTINUOUS
 62
     3
  5
BD
 10
93.513099
 20
33.500011
 30
0.0
 11
93.224418
 21
34.000021
 31
0.0
  0
LINE
  8
LY_1
  6
CONTINUOUS
 62
     3
  5
BE
 10
93.513077
 20
33.5
 30
0.0
 11
98.906189
 21
33.5
 31
0.0
  0
LINE
  8
LY_1
  6
CONTINUOUS
 62
     3
  5
BF
 10
93.513099
 20
47.499986
 30
0.0
 11
93.224418
 21
46.999976
 31
0.0
  0
LINE
  8
LY_1
  6
CONTINUOUS
 62
     3
  5
C0
 10
93.513077
 20
47.5
 30
0.0
 11
99.074448
 21
47.5
 31
0.0
  0
LINE
  8
LY_1
  6
CONTINUOUS
 62
     3
  5
C1
 10
93.224396
 20
46.999985
 30
0.0
 11
93.224396
 21
34.000015
 31
0.0
  0
LINE
  8
LY_1
  6
CENTER
 62
   110
  5
C2
 10
88.224396
 20
40.5
 30
0.0
 11
106.824402
 21
40.5
 31
0.0
  0
LINE
  8
LY_1
  6
CONTINUOUS
 62
     3
  5
C3
 10
109.074448
 20
76.76796
 30
0.0
 11
162.074448
 21
76.76796
 31
0.0
  0
LINE
  8
LY_1
  6
CONTINUOUS
 62
     3
  5
C4
 10
112.074461
 20
78.500018
 30
0.0
 11
109.074466
 21
76.76797
 31
0.0
  0
LINE
  8
LY_1
  6
CONTINUOUS
 62
     3
  5
C5
 10
109.07448
 20
66.500049
 30
0.0
 11
98.074439
 21
65.298586
 31
0.0
  0
LINE
  8
LY_1
  6
CONTINUOUS
 62
     3
  5
C6
 10
109.074448
 20
76.76796
 30
0.0
 11
109.074448
 21
66.5
 31
0.0
  0
LINE
  8
LY_1
  6
CONTINUOUS
 62
     3
  5
C7
 10
98.074448
 20
65.298584
 30
0.0
 11
98.074448
 21
56.5
 31
0.0
  0
LINE
  8
LY_1
  6
CONTINUOUS
 62
     3
  5
C8
 10
159.074493
 20
78.499988
 30
0.0
 11
162.074475
 21
76.767948
 31
0.0
  0
LINE
  8
LY_1
  6
CONTINUOUS
 62
     3
  5
C9
 10
162.074482
 20
66.500028
 30
0.0
 11
173.074432
 21
65.298576
 31
0.0
  0
LINE
  8
LY_1
  6
CONTINUOUS
 62
     3
  5
CA
 10
162.074448
 20
76.76796
 30
0.0
 11
162.074448
 21
66.5
 31
0.0
  0
LINE
  8
LY_1
  6
CONTINUOUS
 62
     3
  5
CB
 10
112.074432
 20
78.5
 30
0.0
 11
159.074463
 21
78.5
 31
0.0
  0
LINE
  8
LY_1
  6
CONTINUOUS
 62
     3
  5
CC
 10
109.074448
 20
66.5
 30
0.0
 11
162.074448
 21
66.5
 31
0.0
  0
LINE
  8
LY_1
  6
CONTINUOUS
 62
     3
  5
CD
 10
99.074448
 20
56.5
 30
0.0
 11
99.074448
 21
37.798813
 31
0.0
  0
LINE
  8
LY_1
  6
CONTINUOUS
 62
     3
  5
CE
 10
172.074448
 20
56.5
 30
0.0
 11
172.074448
 21
37.798767
 31
0.0
  0
LINE
  8
LY_1
  6
CONTINUOUS
 62
     3
  5
CF
 10
173.074448
 20
65.298584
 30
0.0
 11
173.074448
 21
56.5
 31
0.0
  0
LINE
  8
LY_1
  6
CONTINUOUS
 62
     3
  5
D0
 10
98.074448
 20
56.5
 30
0.0
 11
173.074448
 21
56.5
 31
0.0
  0
LINE
  8
LY_1
  6
CONTINUOUS
 62
     3
  5
D1
 10
98.074448
 20
61.0
 30
0.0
 11
173.074448
 21
61.0
 31
0.0
  0
LINE
  8
LY_1
  6
CONTINUOUS
 62
     3
  5
D2
 10
99.574474
 20
20.784635
 30
0.0
 11
135.574469
 21
41.569242
 31
0.0
  0
LINE
  8
LY_1
  6
CONTINUOUS
 62
     3
  5
D3
 10
135.574474
 20
-41.569193
 30
0.0
 11
171.574469
 21
-20.784586
 31
0.0
  0
LINE
  8
LY_1
  6
CONTINUOUS
 62
     3
  5
D4
 10
135.574469
 20
41.569214
 30
0.0
 11
171.574463
 21
20.784607
 31
0.0
  0
LINE
  8
LY_1
  6
CONTINUOUS
 62
     3
  5
D5
 10
99.574469
 20
-20.784614
 30
0.0
 11
135.574476
 21
-41.569229
 31
0.0
  0
LINE
  8
LY_1
  6
CONTINUOUS
 62
     3
  5
D6
 10
171.574448
 20
20.784622
 30
0.0
 11
171.574448
 21
-20.784607
 31
0.0
  0
LINE
  8
LY_1
  6
CONTINUOUS
 62
     3
  5
D7
 10
99.574448
 20
20.784622
 30
0.0
 11
99.574448
 21
-20.784607
 31
0.0
  0
LINE
  8
LY_1
  6
CENTER
 62
   110
  5
D8
 10
135.574448
 20
83.5
 30
0.0
 11
135.574448
 21
-49.0
 31
0.0
  0
LINE
  8
LY_1
  6
CONTINUOUS
 62
     3
  5
D9
 10
-26.5
 20
76.76796
 30
0.0
 11
26.5
 21
76.76796
 31
0.0
  0
LINE
  8
LY_1
  6
CONTINUOUS
 62
     3
  5
DA
 10
-23.500014
 20
78.5
 30
0.0
 11
-26.499999
 21
76.767957
 31
0.0
  0
LINE
  8
LY_1
  6
CONTINUOUS
 62
     3
  5
DB
 10
-26.499997
 20
66.5
 30
0.0
 11
-37.499992
 21
65.298543
 31
0.0
  0
LINE
  8
LY_1
  6
CONTINUOUS
 62
     3
  5
DC
 10
-26.5
 20
76.76796
 30
0.0
 11
-26.5
 21
66.5
 31
0.0
  0
LINE
  8
LY_1
  6
CONTINUOUS
 62
     3
  5
DD
 10
-37.5
 20
65.298553
 30
0.0
 11
-37.5
 21
56.5
 31
0.0
  0
LINE
  8
LY_1
  6
CONTINUOUS
 62
     3
  5
DE
 10
23.500014
 20
78.5
 30
0.0
 11
26.499999
 21
76.767957
 31
0.0
  0
LINE
  8
LY_1
  6
CONTINUOUS
 62
     3
  5
DF
 10
26.499997
 20
66.5
 30
0.0
 11
37.499992
 21
65.298543
 31
0.0
  0
LINE
  8
LY_1
  6
CONTINUOUS
 62
     3
  5
E0
 10
26.5
 20
76.76796
 30
0.0
 11
26.5
 21
66.5
 31
0.0
  0
LINE
  8
LY_1
  6
CONTINUOUS
 62
     3
  5
E1
 10
-23.500015
 20
78.5
 30
0.0
 11
23.500015
 21
78.5
 31
0.0
  0
LINE
  8
LY_1
  6
CONTINUOUS
 62
     3
  5
E2
 10
-26.5
 20
66.5
 30
0.0
 11
26.5
 21
66.5
 31
0.0
  0
LINE
  8
LY_1
  6
CONTINUOUS
 62
     3
  5
E3
 10
-26.541447
 20
33.500003
 30
0.0
 11
-30.582898
 21
40.5
 31
0.0
  0
LINE
  8
LY_1
  6
CONTINUOUS
 62
     3
  5
E4
 10
-14.417092
 20
40.500003
 30
0.0
 11
-18.458542
 21
47.5
 31
0.0
  0
LINE
  8
LY_1
  6
CONTINUOUS
 62
     3
  5
E5
 10
-30.582897
 20
40.499997
 30
0.0
 11
-26.541447
 21
47.499994
 31
0.0
  0
LINE
  8
LY_1
  6
CONTINUOUS
 62
     3
  5
E6
 10
-18.458542
 20
33.499997
 30
0.0
 11
-14.417091
 21
40.499994
 31
0.0
  0
LINE
  8
LY_1
  6
CONTINUOUS
 62
     3
  5
E7
 10
-26.541443
 20
47.5
 30
0.0
 11
-18.458542
 21
47.5
 31
0.0
  0
LINE
  8
LY_1
  6
CONTINUOUS
 62
     3
  5
E8
 10
-26.541443
 20
33.5
 30
0.0
 11
-18.458542
 21
33.5
 31
0.0
  0
LINE
  8
LY_1
  6
CENTER
 62
   110
  5
E9
 10
-22.5
 20
53.463638
 30
0.0
 11
-22.5
 21
27.536346
 31
0.0
  0
LINE
  8
LY_1
  6
CENTER
 62
   110
  5
EA
 10
-35.499969
 20
40.5
 30
0.0
 11
-9.499998
 21
40.5
 31
0.0
  0
LINE
  8
LY_1
  6
CONTINUOUS
 62
     3
  5
EB
 10
-36.5
 20
56.5
 30
0.0
 11
-36.5
 21
39.659439
 31
0.0
  0
LINE
  8
LY_1
  6
CONTINUOUS
 62
     3
  5
EC
 10
36.5
 20
56.5
 30
0.0
 11
36.5
 21
39.659439
 31
0.0
  0
LINE
  8
LY_1
  6
CONTINUOUS
 62
     3
  5
ED
 10
37.5
 20
65.298553
 30
0.0
 11
37.5
 21
56.5
 31
0.0
  0
LINE
  8
LY_1
  6
CONTINUOUS
 62
     3
  5
EE
 10
-37.5
 20
56.5
 30
0.0
 11
37.5
 21
56.5
 31
0.0
  0
LINE
  8
LY_1
  6
CONTINUOUS
 62
     3
  5
EF
 10
-37.5
 20
61.0
 30
0.0
 11
37.5
 21
61.0
 31
0.0
  0
LINE
  8
LY_1
  6
CONTINUOUS
 62
     3
  5
F0
 10
-46.459476
 20
38.332721
 30
0.0
 11
-47.000004
 21
40.349999
 31
0.0
  0
LINE
  8
LY_1
  6
CONTINUOUS
 62
     3
  5
F1
 10
-47.0
 20
40.350006
 30
0.0
 11
-61.0
 21
40.350006
 31
0.0
  0
LINE
  8
LY_1
  6
CONTINUOUS
 62
     3
  5
F2
 10
46.459476
 20
38.332721
 30
0.0
 11
47.000004
 21
40.349999
 31
0.0
  0
LINE
  8
LY_1
  6
CONTINUOUS
 62
     3
  5
F3
 10
47.0
 20
40.350006
 30
0.0
 11
61.0
 21
40.350006
 31
0.0
  0
LINE
  8
LY_1
  6
CONTINUOUS
 62
     3
  5
F4
 10
-46.459476
 20
-38.332721
 30
0.0
 11
-47.000004
 21
-40.349999
 31
0.0
  0
LINE
  8
LY_1
  6
CONTINUOUS
 62
     3
  5
F5
 10
-47.0
 20
-40.350006
 30
0.0
 11
-61.0
 21
-40.350006
 31
0.0
  0
LINE
  8
LY_1
  6
CONTINUOUS
 62
     3
  5
F6
 10
-47.0
 20
40.350006
 30
0.0
 11
-47.0
 21
-40.350006
 31
0.0
  0
LINE
  8
LY_1
  6
CONTINUOUS
 62
     3
  5
F7
 10
-61.0
 20
40.350006
 30
0.0
 11
-61.0
 21
-40.350006
 31
0.0
  0
LINE
  8
LY_1
  6
CONTINUOUS
 62
     3
  5
F8
 10
46.459476
 20
-38.332721
 30
0.0
 11
47.000004
 21
-40.349999
 31
0.0
  0
LINE
  8
LY_1
  6
CONTINUOUS
 62
     3
  5
F9
 10
47.0
 20
-40.350006
 30
0.0
 11
61.0
 21
-40.350006
 31
0.0
  0
LINE
  8
LY_1
  6
CONTINUOUS
 62
     3
  5
FA
 10
47.0
 20
40.350006
 30
0.0
 11
47.0
 21
-40.350006
 31
0.0
  0
LINE
  8
LY_1
  6
CONTINUOUS
 62
     3
  5
FB
 10
61.0
 20
40.350006
 30
0.0
 11
61.0
 21
-40.350006
 31
0.0
  0
LINE
  8
LY_1
  6
CENTER
 62
   110
  5
FC
 10
0.0
 20
196.899445
 30
0.0
 11
0.0
 21
98.899445
 31
0.0
  0
ENDSEC
  0
EOF
