  0
SECTION
  2
HEADER
  9
$ACADVER
  1
AC1009
  9
$DWGCODEPAGE
  3
dos932
  9
$INSBASE
 10
0.0
 20
0.0
 30
0.0
  9
$EXTMIN
 10
-81.74281
 20
-103.114703
 30
0.0
  9
$EXTMAX
 10
217.813477
 20
235.04776
 30
0.0
  9
$LIMMIN
 10
-81.74281
 20
-103.114703
  9
$LIMMAX
 10
217.813477
 20
235.04776
  9
$ORTHOMODE
 70
     0
  9
$REGENMODE
 70
     1
  9
$FILLMODE
 70
     1
  9
$QTEXTMODE
 70
     0
  9
$MIRRTEXT
 70
     1
  9
$DRAGMODE
 70
     2
  9
$LTSCALE
 40
1.0
  9
$OSMODE
 70
     0
  9
$ATTMODE
 70
     1
  9
$TEXTSIZE
 40
3.3
  9
$TRACEWID
 40
0.05
  9
$TEXTSTYLE
  7
MX_NOTE_STANDARD
  9
$CLAYER
  8
LY_1
  9
$CELTYPE
  6
CONTINUOUS
  9
$CECOLOR
 62
   256
  9
$DIMSCALE
 40
1.0
  9
$DIMASZ
 40
2.5
  9
$DIMEXO
 40
0.0
  9
$DIMDLI
 40
3.75
  9
$DIMRND
 40
0.0
  9
$DIMDLE
 40
0.0
  9
$DIMEXE
 40
1.1938
  9
$DIMTP
 40
0.0
  9
$DIMTM
 40
0.0
  9
$DIMTXT
 40
3.3
  9
$DIMCEN
 40
2.5
  9
$DIMTSZ
 40
0.0
  9
$DIMTOL
 70
     0
  9
$DIMLIM
 70
     0
  9
$DIMTIH
 70
     0
  9
$DIMTOH
 70
     0
  9
$DIMSE1
 70
     0
  9
$DIMSE2
 70
     0
  9
$DIMTAD
 70
     1
  9
$DIMZIN
 70
     8
  9
$DIMBLK
  1

  9
$DIMASO
 70
     1
  9
$DIMSHO
 70
     1
  9
$DIMPOST
  1

  9
$DIMAPOST
  1

  9
$DIMALT
 70
     0
  9
$DIMALTD
 70
     4
  9
$DIMALTF
 40
0.03937
  9
$DIMLFAC
 40
1.0
  9
$DIMTOFL
 70
     1
  9
$DIMTVP
 40
0.0
  9
$DIMTIX
 70
     0
  9
$DIMSOXD
 70
     0
  9
$DIMSAH
 70
     1
  9
$DIMBLK1
  1
_OPEN30
  9
$DIMBLK2
  1
_OPEN30
  9
$DIMSTYLE
  2
MXDIMSTYLE
  9
$DIMCLRD
 70
     0
  9
$DIMCLRE
 70
     0
  9
$DIMCLRT
 70
     0
  9
$DIMTFAC
 40
1.0
  9
$DIMGAP
 40
1.0
  9
$LUNITS
 70
     2
  9
$LUPREC
 70
     4
  9
$AXISMODE
 70
     0
  9
$AXISUNIT
 10
0.0
 20
0.0
  9
$SKETCHINC
 40
0.1
  9
$FILLETRAD
 40
0.0
  9
$AUNITS
 70
     0
  9
$AUPREC
 70
     0
  9
$MENU
  1
acad
  9
$ELEVATION
 40
0.0
  9
$PELEVATION
 40
0.0
  9
$THICKNESS
 40
0.0
  9
$LIMCHECK
 70
     0
  9
$BLIPMODE
 70
     1
  9
$CHAMFERA
 40
0.0
  9
$CHAMFERB
 40
0.0
  9
$SKPOLY
 70
     0
  9
$TDCREATE
 40
2454901.550254630
  9
$TDUPDATE
 40
2454901.550254630
  9
$TDINDWG
 40
0.0000000000
  9
$TDUSRTIMER
 40
0.0000000000
  9
$USRTIMER
 70
     1
  9
$ANGBASE
 50
0.0
  9
$ANGDIR
 70
     0
  9
$PDMODE
 70
     0
  9
$PDSIZE
 40
0.0
  9
$PLINEWID
 40
0.0
  9
$COORDS
 70
     1
  9
$SPLFRAME
 70
     0
  9
$SPLINETYPE
 70
     6
  9
$SPLINESEGS
 70
     8
  9
$ATTDIA
 70
     0
  9
$ATTREQ
 70
     1
  9
$HANDLING
 70
     1
  9
$HANDSEED
  5
139
  9
$SURFTAB1
 70
     6
  9
$SURFTAB2
 70
     6
  9
$SURFTYPE
 70
     6
  9
$SURFU
 70
     6
  9
$SURFV
 70
     6
  9
$UCSNAME
  2

  9
$UCSORG
 10
0.0
 20
0.0
 30
0.0
  9
$UCSXDIR
 10
1.0
 20
0.0
 30
0.0
  9
$UCSYDIR
 10
0.0
 20
1.0
 30
0.0
  9
$PUCSNAME
  2

  9
$PUCSORG
 10
0.0
 20
0.0
 30
0.0
  9
$PUCSXDIR
 10
1.0
 20
0.0
 30
0.0
  9
$PUCSYDIR
 10
0.0
 20
1.0
 30
0.0
  9
$USERI1
 70
     0
  9
$USERI2
 70
     0
  9
$USERI3
 70
     0
  9
$USERI4
 70
     0
  9
$USERI5
 70
     0
  9
$USERR1
 40
0.0
  9
$USERR2
 40
0.0
  9
$USERR3
 40
0.0
  9
$USERR4
 40
0.0
  9
$USERR5
 40
0.0
  9
$WORLDVIEW
 70
     1
  9
$SHADEDGE
 70
     3
  9
$SHADEDIF
 70
    70
  9
$TILEMODE
 70
     1
  9
$MAXACTVP
 70
    16
  9
$PINSBASE
 10
0.0
 20
0.0
 30
0.0
  9
$PLIMCHECK
 70
     0
  9
$PEXTMIN
 10
1.000000E+20
 20
1.000000E+20
 30
1.000000E+20
  9
$PEXTMAX
 10
-1.000000E+20
 20
-1.000000E+20
 30
-1.000000E+20
  9
$PLIMMIN
 10
0.0
 20
0.0
  9
$PLIMMAX
 10
12.0
 20
9.0
  9
$UNITMODE
 70
     0
  9
$VISRETAIN
 70
     0
  9
$PLINEGEN
 70
     1
  9
$PSLTSCALE
 70
     0
  9
$TREEDEPTH
 70
  3020
  0
ENDSEC
  0
SECTION
  2
TABLES
  0
TABLE
  2
VPORT
 70
     1
  0
VPORT
  2
*ACTIVE
 70
     0
 10
0.0
 20
0.0
 11
1.0
 21
1.0
 12
68.035333
 22
65.966529
 13
0.0
 23
0.0
 14
1.0
 24
1.0
 15
0.0
 25
0.0
 16
0.0
 26
0.0
 36
1.0
 17
0.0
 27
0.0
 37
0.0
 40
341.544087
 41
1.732051
 42
50.0
 43
0.0
 44
0.0
 50
0.0
 51
0.0
 71
     0
 72
   100
 73
     1
 74
     1
 75
     0
 76
     0
 77
     0
 78
     0
  0
ENDTAB
  0
TABLE
  2
LTYPE
 70
     2
  0
LTYPE
  2
CONTINUOUS
 70
    64
  3
Solid line
 72
    65
 73
     0
 40
0.0
  0
LTYPE
  2
CENTER
 70
    64
  3
Center ____ _ ____ _ ____ _ ____ _ ____ _ ____
 72
    65
 73
     4
 40
50.8
 49
31.75
 49
-6.35
 49
6.35
 49
-6.35
  0
ENDTAB
  0
TABLE
  2
LAYER
 70
     3
  0
LAYER
  2
0
 70
     0
 62
     7
  6
CONTINUOUS
  0
LAYER
  2
LY_1
 70
     0
 62
     7
  6
CONTINUOUS
  0
LAYER
  2
DEFPOINTS
 70
     0
 62
     7
  6
CONTINUOUS
  0
ENDTAB
  0
TABLE
  2
STYLE
 70
     1
  0
STYLE
  2
MX_NOTE_STANDARD
 70
     0
 40
0.0
 41
1.0
 50
0.0
 71
     0
 42
3.3
  3
txt.shx
  4
extfont.shx
  0
ENDTAB
  0
TABLE
  2
VIEW
 70
     0
  0
ENDTAB
  0
TABLE
  2
UCS
 70
     0
  0
ENDTAB
  0
TABLE
  2
APPID
 70
     1
  0
APPID
  2
ACAD
 70
     0
  0
ENDTAB
  0
TABLE
  2
DIMSTYLE
 70
     1
  0
DIMSTYLE
  2
MXDIMSTYLE
 70
     0
  3

  4

  5

  6
_OPEN30
  7
_OPEN30
 40
1.0
 41
2.5
 42
0.0
 43
3.75
 44
1.1938
 45
0.0
 46
0.0
 47
0.0
 48
0.0
 71
     0
 72
     0
 73
     0
 74
     0
 75
     0
 76
     0
 77
     1
 78
     8
140
3.3
141
2.5
142
0.0
143
0.03937
144
1.0
145
0.0
146
1.0
147
1.0
170
     0
171
     4
172
     1
173
     1
174
     0
175
     0
176
     0
177
     0
178
     0
  0
ENDTAB
  0
ENDSEC
  0
SECTION
  2
BLOCKS
  0
BLOCK
  8
0
  6
BYBLOCK
 62
     0
  5
20
  2
_OPEN30
 70
     2
 10
0.0
 20
0.0
 30
0.0
  3
_OPEN30
  0
LINE
  8
0
  6
BYBLOCK
 62
     0
  5
21
 10
-1.0
 20
0.267949
 30
0.0
 11
0.0
 21
0.0
 31
0.0
  0
LINE
  8
0
  6
BYBLOCK
 62
     0
  5
22
 10
0.0
 20
0.0
 30
0.0
 11
-1.0
 21
-0.267949
 31
0.0
  0
LINE
  8
0
  6
BYBLOCK
 62
     0
  5
23
 10
0.0
 20
0.0
 30
0.0
 11
-1.0
 21
0.0
 31
0.0
  0
ENDBLK
  8
0
  6
BYBLOCK
 62
     0
  5
24
  0
BLOCK
  8
0
  6
BYBLOCK
 62
     0
  5
26
  2
*D1
 70
     1
 10
0.0
 20
0.0
 30
0.0
  3
*D1
  0
LINE
  8
0
  6
CONTINUOUS
 62
   110
  5
27
 10
88.0
 20
91.0
 30
0.0
 11
88.0
 21
0.0
 31
0.0
  0
LINE
  8
0
  6
CONTINUOUS
 62
   110
  5
28
 10
30.000015
 20
91.0
 30
0.0
 11
89.193787
 21
91.0
 31
0.0
  0
LINE
  8
0
  6
CONTINUOUS
 62
   110
  5
29
 10
80.0
 20
0.0
 30
0.0
 11
89.193787
 21
0.0
 31
0.0
  0
INSERT
  8
0
  6
CONTINUOUS
 62
   110
  5
30
  2
_OPEN
 10
88.0
 20
91.0
 30
0.0
 41
2.19
 42
2.19
 50
90.0
 43
2.19
  0
INSERT
  8
0
  6
CONTINUOUS
 62
   110
  5
31
  2
_OPEN
 10
88.0
 20
0.0
 30
0.0
 41
2.19
 42
2.19
 50
270.0
 43
2.19
  0
TEXT
  8
0
  6
CONTINUOUS
 62
   110
  5
32
 10
87.0
 20
43.284208
 30
0.0
 40
3.3
  1
91
 50
90.0
 41
1.007178
  7
MX_NOTE_STANDARD
 11
85.35
 21
43.284208
 31
0.0
 73
     2
  0
POINT
  8
DEFPOINTS
  6
CONTINUOUS
 62
     0
  5
33
 10
30.000015
 20
91.0
 30
0.0
  0
POINT
  8
DEFPOINTS
  6
CONTINUOUS
 62
     0
  5
34
 10
80.0
 20
0.0
 30
0.0
  0
POINT
  8
DEFPOINTS
  6
CONTINUOUS
 62
     0
  5
35
 10
88.0
 20
0.0
 30
0.0
  0
ENDBLK
  8
0
  6
BYBLOCK
 62
     0
  5
36
  0
BLOCK
  8
0
  6
BYBLOCK
 62
     0
  5
2B
  2
_OPEN
 70
     2
 10
0.0
 20
0.0
 30
0.0
  3
_OPEN
  0
LINE
  8
0
  6
BYBLOCK
 62
     0
  5
2C
 10
-1.0
 20
0.166667
 30
0.0
 11
0.0
 21
0.0
 31
0.0
  0
LINE
  8
0
  6
BYBLOCK
 62
     0
  5
2D
 10
0.0
 20
0.0
 30
0.0
 11
-1.0
 21
-0.166667
 31
0.0
  0
LINE
  8
0
  6
BYBLOCK
 62
     0
  5
2E
 10
0.0
 20
0.0
 30
0.0
 11
-1.0
 21
0.0
 31
0.0
  0
ENDBLK
  8
0
  6
BYBLOCK
 62
     0
  5
2F
  0
BLOCK
  8
0
  6
BYBLOCK
 62
     0
  5
39
  2
*D3
 70
     1
 10
0.0
 20
0.0
 30
0.0
  3
*D3
  0
LINE
  8
0
  6
CONTINUOUS
 62
   110
  5
3A
 10
75.0
 20
-66.0
 30
0.0
 11
-75.0
 21
-66.0
 31
0.0
  0
LINE
  8
0
  6
CONTINUOUS
 62
   110
  5
3B
 10
75.0
 20
-48.75
 30
0.0
 11
75.0
 21
-67.193787
 31
0.0
  0
LINE
  8
0
  6
CONTINUOUS
 62
   110
  5
3C
 10
-75.0
 20
-48.75
 30
0.0
 11
-75.0
 21
-67.193787
 31
0.0
  0
INSERT
  8
0
  6
CONTINUOUS
 62
   110
  5
3D
  2
_OPEN
 10
75.0
 20
-66.0
 30
0.0
 41
2.19
 42
2.19
 43
2.19
  0
INSERT
  8
0
  6
CONTINUOUS
 62
   110
  5
3E
  2
_OPEN
 10
-75.0
 20
-66.0
 30
0.0
 41
2.19
 42
2.19
 50
180.0
 43
2.19
  0
TEXT
  8
0
  6
CONTINUOUS
 62
   110
  5
3F
 10
-3.600662
 20
-65.0
 30
0.0
 40
3.3
  1
150
 41
1.007178
  7
MX_NOTE_STANDARD
 11
-3.600662
 21
-63.35
 31
0.0
 73
     2
  0
POINT
  8
DEFPOINTS
  6
CONTINUOUS
 62
     0
  5
40
 10
75.0
 20
-48.75
 30
0.0
  0
POINT
  8
DEFPOINTS
  6
CONTINUOUS
 62
     0
  5
41
 10
-75.0
 20
-48.75
 30
0.0
  0
POINT
  8
DEFPOINTS
  6
CONTINUOUS
 62
     0
  5
42
 10
-75.0
 20
-66.0
 30
0.0
  0
ENDBLK
  8
0
  6
BYBLOCK
 62
     0
  5
43
  0
ENDSEC
  0
SECTION
  2
ENTITIES
  0
DIMENSION
  8
LY_1
  6
CONTINUOUS
 62
   110
  5
37
  2
*D1
 10
88.0
 20
0.0
 30
0.0
 11
88.0
 21
45.5
 31
0.0
 70
   128
  1
<>
 13
30.000015
 23
91.0
 33
0.0
 14
80.0
 24
0.0
 34
0.0
 50
90.0
  3
MXDIMSTYLE
1001
ACAD
1000
DSTYLE
1002
{
1070
     6
1000
_OPEN
1070
     7
1000
_OPEN
1070
    41
1040
2.19
1070
    44
1040
1.193787
1070
   271
1070
     0
1070
   284
1070
     8
1070
   343
1005
2A
1070
   344
1005
2A
1002
}
  0
DIMENSION
  8
LY_1
  6
CONTINUOUS
 62
   110
  5
44
  2
*D3
 10
-75.0
 20
-66.0
 30
0.0
 11
0.0
 21
-66.0
 31
0.0
 70
   128
  1
<>
 13
75.0
 23
-48.75
 33
0.0
 14
-75.0
 24
-48.75
 34
0.0
  3
MXDIMSTYLE
1001
ACAD
1000
DSTYLE
1002
{
1070
     6
1000
_OPEN
1070
     7
1000
_OPEN
1070
    41
1040
2.19
1070
    44
1040
1.193787
1070
   271
1070
     0
1070
   284
1070
     8
1070
   343
1005
2A
1070
   344
1005
2A
1002
}
  0
TEXT
  8
LY_1
  6
CONTINUOUS
 62
   110
  5
45
 10
-81.085146
 20
-86.083591
 30
0.0
 40
4.167181
  1
      SWING CHECK VALVE 21/2
 41
0.946919
  7
MX_NOTE_STANDARD
 11
-81.085146
 21
-84.0
 31
0.0
 73
     2
  0
TEXT
  8
LY_1
  6
CONTINUOUS
 62
   110
  5
46
 10
-81.109061
 20
-102.083591
 30
0.0
 40
4.167181
  1
KITZ
 41
0.912486
  7
MX_NOTE_STANDARD
 11
-81.109061
 21
-100.0
 31
0.0
 73
     2
  0
TEXT
  8
LY_1
  6
CONTINUOUS
 62
   110
  5
47
 10
-81.043142
 20
-94.083591
 30
0.0
 40
4.167181
  1
FIG   R21/2
 41
1.007398
  7
MX_NOTE_STANDARD
 11
-81.043142
 21
-92.0
 31
0.0
 73
     2
  0
TEXT
  8
LY_1
  6
CONTINUOUS
 62
   110
  5
48
 10
-81.10692
 20
-78.083591
 30
0.0
 40
4.167181
  1
NAME  CLASS 125 CAST BRONZE
 41
0.915569
  7
MX_NOTE_STANDARD
 11
-81.10692
 21
-76.0
 31
0.0
 73
     2
  0
POLYLINE
  8
LY_1
  6
CONTINUOUS
 62
     3
  5
49
 66
     1
 10
0.0
 20
0.0
 30
0.0
  0
VERTEX
  8
LY_1
  6
CONTINUOUS
 62
     3
  5
100
 10
19.767337
 20
-2.718449
 30
0.0
  0
VERTEX
  8
LY_1
  6
CONTINUOUS
 62
     3
  5
101
 10
19.760787
 20
-2.724238
 30
0.0
  0
VERTEX
  8
LY_1
  6
CONTINUOUS
 62
     3
  5
102
 10
19.75511
 20
-2.730851
 30
0.0
  0
VERTEX
  8
LY_1
  6
CONTINUOUS
 62
     3
  5
103
 10
19.750413
 20
-2.738164
 30
0.0
  0
VERTEX
  8
LY_1
  6
CONTINUOUS
 62
     3
  5
104
 10
19.746784
 20
-2.746038
 30
0.0
  0
VERTEX
  8
LY_1
  6
CONTINUOUS
 62
     3
  5
105
 10
19.744293
 20
-2.754324
 30
0.0
  0
VERTEX
  8
LY_1
  6
CONTINUOUS
 62
     3
  5
106
 10
19.742987
 20
-2.762867
 30
0.0
  0
VERTEX
  8
LY_1
  6
CONTINUOUS
 62
     3
  5
107
 10
19.74289
 20
-2.771504
 30
0.0
  0
VERTEX
  8
LY_1
  6
CONTINUOUS
 62
     3
  5
108
 10
19.744003
 20
-2.780073
 30
0.0
  0
VERTEX
  8
LY_1
  6
CONTINUOUS
 62
     3
  5
109
 10
19.746306
 20
-2.788411
 30
0.0
  0
VERTEX
  8
LY_1
  6
CONTINUOUS
 62
     3
  5
10A
 10
19.749756
 20
-2.796362
 30
0.0
  0
VERTEX
  8
LY_1
  6
CONTINUOUS
 62
     3
  5
10B
 10
19.754287
 20
-2.803774
 30
0.0
  0
VERTEX
  8
LY_1
  6
CONTINUOUS
 62
     3
  5
10C
 10
19.759814
 20
-2.810509
 30
0.0
  0
VERTEX
  8
LY_1
  6
CONTINUOUS
 62
     3
  5
10D
 10
19.766231
 20
-2.816438
 30
0.0
  0
VERTEX
  8
LY_1
  6
CONTINUOUS
 62
     3
  5
10E
 10
19.773419
 20
-2.821449
 30
0.0
  0
VERTEX
  8
LY_1
  6
CONTINUOUS
 62
     3
  5
10F
 10
19.781241
 20
-2.825449
 30
0.0
  0
VERTEX
  8
LY_1
  6
CONTINUOUS
 62
     3
  5
110
 10
19.78955
 20
-2.828361
 30
0.0
  0
VERTEX
  8
LY_1
  6
CONTINUOUS
 62
     3
  5
111
 10
19.798187
 20
-2.830131
 30
0.0
  0
VERTEX
  8
LY_1
  6
CONTINUOUS
 62
     3
  5
112
 10
19.806992
 20
-2.830724
 30
0.0
  0
SEQEND
  8
LY_1
  6
CONTINUOUS
 62
     3
  5
113
  0
POLYLINE
  8
LY_1
  6
CONTINUOUS
 62
     3
  5
4A
 66
     1
 10
0.0
 20
0.0
 30
0.0
  0
VERTEX
  8
LY_1
  6
CONTINUOUS
 62
     3
  5
114
 10
23.785158
 20
4.765066
 30
0.0
  0
VERTEX
  8
LY_1
  6
CONTINUOUS
 62
     3
  5
115
 10
23.792108
 20
4.771245
 30
0.0
  0
VERTEX
  8
LY_1
  6
CONTINUOUS
 62
     3
  5
116
 10
23.798062
 20
4.77835
 30
0.0
  0
VERTEX
  8
LY_1
  6
CONTINUOUS
 62
     3
  5
117
 10
23.802895
 20
4.786229
 30
0.0
  0
VERTEX
  8
LY_1
  6
CONTINUOUS
 62
     3
  5
118
 10
23.806502
 20
4.794714
 30
0.0
  0
VERTEX
  8
LY_1
  6
CONTINUOUS
 62
     3
  5
119
 10
23.808806
 20
4.803622
 30
0.0
  0
VERTEX
  8
LY_1
  6
CONTINUOUS
 62
     3
  5
11A
 10
23.809758
 20
4.812764
 30
0.0
  0
VERTEX
  8
LY_1
  6
CONTINUOUS
 62
     3
  5
11B
 10
23.809338
 20
4.821945
 30
0.0
  0
VERTEX
  8
LY_1
  6
CONTINUOUS
 62
     3
  5
11C
 10
23.807555
 20
4.830967
 30
0.0
  0
VERTEX
  8
LY_1
  6
CONTINUOUS
 62
     3
  5
11D
 10
23.804446
 20
4.839638
 30
0.0
  0
VERTEX
  8
LY_1
  6
CONTINUOUS
 62
     3
  5
11E
 10
23.800079
 20
4.847773
 30
0.0
  0
VERTEX
  8
LY_1
  6
CONTINUOUS
 62
     3
  5
11F
 10
23.794546
 20
4.855198
 30
0.0
  0
VERTEX
  8
LY_1
  6
CONTINUOUS
 62
     3
  5
120
 10
23.787966
 20
4.861753
 30
0.0
  0
VERTEX
  8
LY_1
  6
CONTINUOUS
 62
     3
  5
121
 10
23.78048
 20
4.8673
 30
0.0
  0
VERTEX
  8
LY_1
  6
CONTINUOUS
 62
     3
  5
122
 10
23.772248
 20
4.871718
 30
0.0
  0
VERTEX
  8
LY_1
  6
CONTINUOUS
 62
     3
  5
123
 10
23.763445
 20
4.874914
 30
0.0
  0
VERTEX
  8
LY_1
  6
CONTINUOUS
 62
     3
  5
124
 10
23.75426
 20
4.876819
 30
0.0
  0
VERTEX
  8
LY_1
  6
CONTINUOUS
 62
     3
  5
125
 10
23.749907
 20
4.877254
 30
0.0
  0
VERTEX
  8
LY_1
  6
CONTINUOUS
 62
     3
  5
126
 10
23.745532
 20
4.877397
 30
0.0
  0
SEQEND
  8
LY_1
  6
CONTINUOUS
 62
     3
  5
127
  0
POLYLINE
  8
LY_1
  6
CONTINUOUS
 62
     3
  5
4B
 66
     1
 10
0.0
 20
0.0
 30
0.0
  0
VERTEX
  8
LY_1
  6
CONTINUOUS
 62
     3
  5
128
 10
-24.539476
 20
0.051504
 30
0.0
  0
VERTEX
  8
LY_1
  6
CONTINUOUS
 62
     3
  5
129
 10
-24.546341
 20
0.046092
 30
0.0
  0
VERTEX
  8
LY_1
  6
CONTINUOUS
 62
     3
  5
12A
 10
-24.552385
 20
0.039811
 30
0.0
  0
VERTEX
  8
LY_1
  6
CONTINUOUS
 62
     3
  5
12B
 10
-24.557493
 20
0.032779
 30
0.0
  0
VERTEX
  8
LY_1
  6
CONTINUOUS
 62
     3
  5
12C
 10
-24.561569
 20
0.025129
 30
0.0
  0
VERTEX
  8
LY_1
  6
CONTINUOUS
 62
     3
  5
12D
 10
-24.564535
 20
0.017004
 30
0.0
  0
VERTEX
  8
LY_1
  6
CONTINUOUS
 62
     3
  5
12E
 10
-24.566337
 20
0.008558
 30
0.0
  0
VERTEX
  8
LY_1
  6
CONTINUOUS
 62
     3
  5
12F
 10
-24.56694
 20
-0.00005
 30
0.0
  0
VERTEX
  8
LY_1
  6
CONTINUOUS
 62
     3
  5
130
 10
-24.566333
 20
-0.008657
 30
0.0
  0
VERTEX
  8
LY_1
  6
CONTINUOUS
 62
     3
  5
131
 10
-24.564527
 20
-0.017102
 30
0.0
  0
VERTEX
  8
LY_1
  6
CONTINUOUS
 62
     3
  5
132
 10
-24.561557
 20
-0.025226
 30
0.0
  0
VERTEX
  8
LY_1
  6
CONTINUOUS
 62
     3
  5
133
 10
-24.557477
 20
-0.032874
 30
0.0
  0
VERTEX
  8
LY_1
  6
CONTINUOUS
 62
     3
  5
134
 10
-24.552366
 20
-0.039904
 30
0.0
  0
VERTEX
  8
LY_1
  6
CONTINUOUS
 62
     3
  5
135
 10
-24.546319
 20
-0.046182
 30
0.0
  0
VERTEX
  8
LY_1
  6
CONTINUOUS
 62
     3
  5
136
 10
-24.539451
 20
-0.051591
 30
0.0
  0
SEQEND
  8
LY_1
  6
CONTINUOUS
 62
     3
  5
137
  0
ARC
  8
LY_1
  6
CONTINUOUS
 62
     3
  5
4C
 10
26.427551
 20
4.568181
 30
0.0
 40
1.722306
 50
307.524111
 51
89.999982
  0
ARC
  8
LY_1
  6
CONTINUOUS
 62
     3
  5
4D
 10
26.420181
 20
-4.560499
 30
0.0
 40
1.729874
 50
270.000018
 51
89.999982
  0
ARC
  8
LY_1
  6
CONTINUOUS
 62
     3
  5
4E
 10
14.461064
 20
-4.56797
 30
0.0
 40
1.722604
 50
127.524112
 51
270.000001
  0
ARC
  8
LY_1
  6
CONTINUOUS
 62
     3
  5
4F
 10
15.141848
 20
4.523108
 30
0.0
 40
1.767368
 50
89.999982
 51
359.999983
  0
ARC
  8
LY_1
  6
CONTINUOUS
 62
     3
  5
50
 10
9.1393
 20
4.560229
 30
0.0
 40
1.7298
 50
270.000018
 51
89.999982
  0
ARC
  8
LY_1
  6
CONTINUOUS
 62
     3
  5
51
 10
3.485667
 20
-4.523098
 30
0.0
 40
1.76742
 50
180.000036
 51
0.000001
  0
ARC
  8
LY_1
  6
CONTINUOUS
 62
     3
  5
52
 10
-2.708989
 20
4.522627
 30
0.0
 40
1.767269
 50
89.999982
 51
359.999983
  0
ARC
  8
LY_1
  6
CONTINUOUS
 62
     3
  5
53
 10
-8.773259
 20
-4.523098
 30
0.0
 40
1.767396
 50
180.000036
 51
0.000001
  0
ARC
  8
LY_1
  6
CONTINUOUS
 62
     3
  5
54
 10
-8.773259
 20
4.523108
 30
0.0
 40
1.767396
 50
0.000018
 51
180.000019
  0
ARC
  8
LY_1
  6
CONTINUOUS
 62
     3
  5
55
 10
-14.733047
 20
4.194345
 30
0.0
 40
2.096276
 50
90.778951
 51
124.259063
  0
ARC
  8
LY_1
  6
CONTINUOUS
 62
     3
  5
56
 10
-14.787511
 20
4.561186
 30
0.0
 40
1.72945
 50
213.574514
 51
89.143203
  0
ARC
  8
LY_1
  6
CONTINUOUS
 62
     3
  5
57
 10
-14.819356
 20
-4.564657
 30
0.0
 40
1.741755
 50
235.740937
 51
55.740955
  0
ARC
  8
LY_1
  6
CONTINUOUS
 62
     3
  5
58
 10
-26.382782
 20
-4.523299
 30
0.0
 40
1.76729
 50
179.999964
 51
359.999983
  0
ARC
  8
LY_1
  6
CONTINUOUS
 62
     3
  5
59
 10
-26.382782
 20
4.523305
 30
0.0
 40
1.76729
 50
0.000018
 51
180.000019
  0
ARC
  8
LY_1
  6
CONTINUOUS
 62
     3
  5
5A
 10
0.0
 20
260.547852
 30
0.0
 40
136.5
 50
262.344086
 51
292.2107
  0
CIRCLE
  8
LY_1
  6
CONTINUOUS
 62
     3
  5
5B
 10
0.0
 20
177.047806
 30
0.0
 40
45.5
  0
CIRCLE
  8
LY_1
  6
CONTINUOUS
 62
     3
  5
5C
 10
0.0
 20
177.047806
 30
0.0
 40
30.0
  0
ARC
  8
LY_1
  6
CONTINUOUS
 62
     3
  5
5D
 10
-53.488876
 20
224.548523
 30
0.0
 40
5.0
 50
233.143825
 51
292.210591
  0
ARC
  8
LY_1
  6
CONTINUOUS
 62
     3
  5
5E
 10
-53.488876
 20
129.547089
 30
0.0
 40
5.0
 50
67.789409
 51
126.856175
  0
ARC
  8
LY_1
  6
CONTINUOUS
 62
     3
  5
5F
 10
53.488876
 20
224.548523
 30
0.0
 40
5.0
 50
247.78939
 51
306.8562
  0
ARC
  8
LY_1
  6
CONTINUOUS
 62
     3
  5
60
 10
0.0
 20
93.54776
 30
0.0
 40
136.5
 50
67.7893
 51
112.214325
  0
ARC
  8
LY_1
  6
CONTINUOUS
 62
     3
  5
61
 10
53.488876
 20
129.547089
 30
0.0
 40
5.0
 50
53.1438
 51
112.21061
  0
ARC
  8
LY_1
  6
CONTINUOUS
 62
     3
  5
62
 10
0.0
 20
260.547852
 30
0.0
 40
136.5
 50
247.785675
 51
253.916835
  0
ARC
  8
LY_1
  6
CONTINUOUS
 62
     3
  5
63
 10
35.313416
 20
46.784073
 30
0.0
 40
80.0
 50
339.404995
 51
359.999996
  0
ARC
  8
LY_1
  6
CONTINUOUS
 62
     3
  5
64
 10
284.313477
 20
46.78392
 30
0.0
 40
80.0
 50
180.000019
 51
200.594951
  0
ARC
  8
LY_1
  6
CONTINUOUS
 62
     3
  5
65
 10
159.813416
 20
0.0
 30
0.0
 40
53.0
 50
159.404977
 51
20.594915
  0
CIRCLE
  8
LY_1
  6
CONTINUOUS
 62
     3
  5
66
 10
159.813416
 20
0.0
 30
0.0
 40
36.113007
  0
CIRCLE
  8
LY_1
  6
CONTINUOUS
 62
   110
  5
67
 10
159.813416
 20
0.0
 30
0.0
 40
37.591995
  0
CIRCLE
  8
LY_1
  6
CONTINUOUS
 62
     3
  5
68
 10
-28.0
 20
48.0
 30
0.0
 40
10.0
  0
CIRCLE
  8
LY_1
  6
CONTINUOUS
 62
     3
  5
69
 10
-28.0
 20
48.0
 30
0.0
 40
8.0
  0
ARC
  8
LY_1
  6
CONTINUOUS
 62
     3
  5
6A
 10
-49.5
 20
49.059418
 30
0.0
 40
5.0
 50
290.476488
 51
359.999964
  0
ARC
  8
LY_1
  6
CONTINUOUS
 62
     3
  5
6B
 10
0.0
 20
-83.5
 30
0.0
 40
136.5
 50
110.476507
 51
112.210719
  0
ARC
  8
LY_1
  6
CONTINUOUS
 62
     3
  5
6C
 10
49.5
 20
49.059418
 30
0.0
 40
5.0
 50
180.000036
 51
249.523493
  0
ARC
  8
LY_1
  6
CONTINUOUS
 62
     3
  5
6D
 10
-53.488876
 20
47.500717
 30
0.0
 40
5.0
 50
195.00006
 51
292.210591
  0
ARC
  8
LY_1
  6
CONTINUOUS
 62
     3
  5
6E
 10
53.488876
 20
47.500717
 30
0.0
 40
5.0
 50
247.78939
 51
344.999924
  0
ARC
  8
LY_1
  6
CONTINUOUS
 62
     3
  5
6F
 10
0.0
 20
-83.5
 30
0.0
 40
136.5
 50
67.7893
 51
69.523512
  0
ARC
  8
LY_1
  6
CONTINUOUS
 62
     3
  5
70
 10
-53.488876
 20
-47.500717
 30
0.0
 40
5.0
 50
67.789409
 51
164.99994
  0
ARC
  8
LY_1
  6
CONTINUOUS
 62
     3
  5
71
 10
53.488876
 20
-47.500717
 30
0.0
 40
5.0
 50
15.000076
 51
112.21061
  0
ARC
  8
LY_1
  6
CONTINUOUS
 62
     3
  5
72
 10
0.0
 20
83.5
 30
0.0
 40
136.5
 50
247.785675
 51
292.2107
  0
LINE
  8
LY_1
  6
CONTINUOUS
 62
     3
  5
73
 10
16.909134
 20
4.877367
 30
0.0
 11
16.909134
 21
4.523108
 31
0.0
  0
LINE
  8
LY_1
  6
CONTINUOUS
 62
     3
  5
74
 10
-0.94158
 20
4.876805
 30
0.0
 11
-0.94158
 21
4.522627
 31
0.0
  0
LINE
  8
LY_1
  6
CONTINUOUS
 62
     3
  5
75
 10
-0.94158
 20
4.876805
 30
0.0
 11
1.718339
 21
4.876805
 31
0.0
  0
LINE
  8
LY_1
  6
CONTINUOUS
 62
     3
  5
76
 10
5.253151
 20
2.830338
 30
0.0
 11
9.1393
 21
2.830338
 31
0.0
  0
LINE
  8
LY_1
  6
CONTINUOUS
 62
     3
  5
77
 10
5.253151
 20
2.830338
 30
0.0
 11
5.253151
 21
-4.523098
 31
0.0
  0
LINE
  8
LY_1
  6
CONTINUOUS
 62
     3
  5
78
 10
1.718339
 20
4.876805
 30
0.0
 11
1.718339
 21
-4.523098
 31
0.0
  0
LINE
  8
LY_1
  6
CONTINUOUS
 62
     3
  5
79
 10
-2.708989
 20
6.289835
 30
0.0
 11
9.1393
 21
6.289835
 31
0.0
  0
LINE
  8
LY_1
  6
CONTINUOUS
 62
     3
  5
7A
 10
16.909134
 20
4.877367
 30
0.0
 11
23.745438
 21
4.877367
 31
0.0
  0
LINE
  8
LY_1
  6
CONTINUOUS
 62
     3
  5
7B
 10
14.461064
 20
-6.290462
 30
0.0
 11
26.420181
 21
-6.290462
 31
0.0
  0
LINE
  8
LY_1
  6
CONTINUOUS
 62
     3
  5
7C
 10
26.420181
 20
-2.83073
 30
0.0
 11
19.807037
 21
-2.83073
 31
0.0
  0
LINE
  8
LY_1
  6
CONTINUOUS
 62
     3
  5
7D
 10
27.476695
 20
3.202236
 30
0.0
 11
19.767318
 21
-2.71853
 31
0.0
  0
LINE
  8
LY_1
  6
CONTINUOUS
 62
     3
  5
7E
 10
23.785224
 20
4.76494
 30
0.0
 11
13.411956
 21
-3.201682
 31
0.0
  0
LINE
  8
LY_1
  6
CONTINUOUS
 62
     3
  5
7F
 10
15.141848
 20
6.290476
 30
0.0
 11
26.427551
 21
6.290476
 31
0.0
  0
LINE
  8
LY_1
  6
CONTINUOUS
 62
     3
  5
80
 10
-10.54075
 20
-4.523098
 30
0.0
 11
-10.54075
 21
4.523108
 31
0.0
  0
LINE
  8
LY_1
  6
CONTINUOUS
 62
     3
  5
81
 10
-7.005855
 20
4.523108
 30
0.0
 11
-7.005855
 21
-4.523098
 31
0.0
  0
LINE
  8
LY_1
  6
CONTINUOUS
 62
     3
  5
82
 10
-19.973868
 20
1.053691
 30
0.0
 11
-16.228418
 21
3.604742
 31
0.0
  0
LINE
  8
LY_1
  6
CONTINUOUS
 62
     3
  5
83
 10
-19.973923
 20
1.05358
 30
0.0
 11
-13.838676
 21
-3.125178
 31
0.0
  0
LINE
  8
LY_1
  6
CONTINUOUS
 62
     3
  5
84
 10
-24.539452
 20
0.051425
 30
0.0
 11
-15.913139
 21
5.926866
 31
0.0
  0
LINE
  8
LY_1
  6
CONTINUOUS
 62
     3
  5
85
 10
-24.539314
 20
-0.051765
 30
0.0
 11
-15.799712
 21
-6.004368
 31
0.0
  0
LINE
  8
LY_1
  6
CONTINUOUS
 62
     3
  5
86
 10
-24.615601
 20
4.523305
 30
0.0
 11
-24.615601
 21
-4.523299
 31
0.0
  0
LINE
  8
LY_1
  6
CONTINUOUS
 62
     3
  5
87
 10
-28.15007
 20
4.523305
 30
0.0
 11
-28.15007
 21
-4.523299
 31
0.0
  0
LINE
  8
LY_1
  6
CONTINUOUS
 62
     3
  5
88
 10
114.313418
 20
76.500004
 30
0.0
 11
205.313479
 21
76.500019
 31
0.0
  0
LINE
  8
LY_1
  6
CONTINUOUS
 62
     3
  5
89
 10
-45.5
 20
76.500015
 30
0.0
 11
45.5
 21
76.500015
 31
0.0
  0
LINE
  8
LY_1
  6
CONTINUOUS
 62
     3
  5
8A
 10
106.552017
 20
48.0
 30
0.0
 11
114.063354
 21
48.0
 31
0.0
  0
LINE
  8
LY_1
  6
CONTINUOUS
 62
     3
  5
8B
 10
159.813416
 20
89.037018
 30
0.0
 11
159.813416
 21
78.0
 31
0.0
  0
LINE
  8
LY_1
  6
CONTINUOUS
 62
     3
  5
8C
 10
135.704361
 20
89.037018
 30
0.0
 11
135.704361
 21
78.0
 31
0.0
  0
LINE
  8
LY_1
  6
CONTINUOUS
 62
     3
  5
8D
 10
183.92247
 20
89.037018
 30
0.0
 11
183.92247
 21
78.0
 31
0.0
  0
LINE
  8
LY_1
  6
CONTINUOUS
 62
     3
  5
8E
 10
-24.109055
 20
89.037018
 30
0.0
 11
-24.109055
 21
78.0
 31
0.0
  0
LINE
  8
LY_1
  6
CONTINUOUS
 62
     3
  5
8F
 10
0.0
 20
78.0
 30
0.0
 11
0.0
 21
89.037018
 31
0.0
  0
LINE
  8
LY_1
  6
CONTINUOUS
 62
     3
  5
90
 10
24.109055
 20
89.037018
 30
0.0
 11
24.109055
 21
78.0
 31
0.0
  0
LINE
  8
LY_1
  6
CONTINUOUS
 62
     3
  5
91
 10
-32.907471
 20
129.982864
 30
0.0
 11
-32.907471
 21
124.545654
 31
0.0
  0
LINE
  8
LY_1
  6
CONTINUOUS
 62
     3
  5
92
 10
-37.814941
 20
124.545654
 30
0.0
 11
-18.185059
 21
124.545654
 31
0.0
  0
LINE
  8
LY_1
  6
CONTINUOUS
 62
     3
  5
93
 10
-37.814941
 20
129.982864
 30
0.0
 11
-18.185059
 21
129.982864
 31
0.0
  0
LINE
  8
LY_1
  6
CONTINUOUS
 62
     3
  5
94
 10
-37.814941
 20
129.982864
 30
0.0
 11
-37.814941
 21
124.545654
 31
0.0
  0
LINE
  8
LY_1
  6
CONTINUOUS
 62
     3
  5
95
 10
-37.814934
 20
129.982853
 30
0.0
 11
-35.249989
 21
132.547798
 31
0.0
  0
LINE
  8
LY_1
  6
CONTINUOUS
 62
     3
  5
96
 10
-37.814945
 20
124.54565
 30
0.0
 11
-35.999987
 21
123.497783
 31
0.0
  0
LINE
  8
LY_1
  6
CONTINUOUS
 62
     3
  5
97
 10
-18.185059
 20
129.982864
 30
0.0
 11
-18.185059
 21
124.545654
 31
0.0
  0
LINE
  8
LY_1
  6
CONTINUOUS
 62
     3
  5
98
 10
-23.092529
 20
129.982864
 30
0.0
 11
-23.092529
 21
124.545654
 31
0.0
  0
LINE
  8
LY_1
  6
CONTINUOUS
 62
     3
  5
99
 10
-18.000638
 20
132.535441
 30
0.0
 11
-17.860992
 21
135.200042
 31
0.0
  0
LINE
  8
LY_1
  6
CONTINUOUS
 62
     3
  5
9A
 10
-38.000003
 20
132.547802
 30
0.0
 11
-39.113905
 21
153.802324
 31
0.0
  0
LINE
  8
LY_1
  6
CONTINUOUS
 62
     3
  5
9B
 10
-18.185061
 20
129.982853
 30
0.0
 11
-20.750006
 21
132.547798
 31
0.0
  0
LINE
  8
LY_1
  6
CONTINUOUS
 62
     3
  5
9C
 10
-18.185053
 20
124.54565
 30
0.0
 11
-20.000011
 21
123.497783
 31
0.0
  0
LINE
  8
LY_1
  6
CONTINUOUS
 62
     3
  5
9D
 10
-36.0
 20
123.497787
 30
0.0
 11
-20.0
 21
123.497787
 31
0.0
  0
LINE
  8
LY_1
  6
CENTER
 62
   110
  5
9F
 10
-28.0
 20
118.497787
 30
0.0
 11
-28.0
 21
138.797791
 31
0.0
  0
LINE
  8
LY_1
  6
CONTINUOUS
 62
     3
  5
A0
 10
-38.0
 20
132.547806
 30
0.0
 11
-18.0
 21
132.547806
 31
0.0
  0
LINE
  8
LY_1
  6
CONTINUOUS
 62
     3
  5
A1
 10
-0.000007
 20
142.952456
 30
0.0
 11
-24.109054
 21
152.938749
 31
0.0
  0
LINE
  8
LY_1
  6
CONTINUOUS
 62
     3
  5
A2
 10
24.109062
 20
201.156863
 30
0.0
 11
-0.000014
 21
211.143168
 31
0.0
  0
LINE
  8
LY_1
  6
CONTINUOUS
 62
     3
  5
A3
 10
-24.109058
 20
152.938748
 30
0.0
 11
-34.095358
 21
177.047807
 31
0.0
  0
LINE
  8
LY_1
  6
CONTINUOUS
 62
     3
  5
A4
 10
34.095345
 20
177.047819
 30
0.0
 11
24.109056
 21
201.156851
 31
0.0
  0
LINE
  8
LY_1
  6
CONTINUOUS
 62
     3
  5
A5
 10
-34.09536
 20
177.047823
 30
0.0
 11
-24.109067
 21
201.15687
 31
0.0
  0
LINE
  8
LY_1
  6
CONTINUOUS
 62
     3
  5
A6
 10
24.109047
 20
152.938754
 30
0.0
 11
34.095351
 21
177.04783
 31
0.0
  0
LINE
  8
LY_1
  6
CONTINUOUS
 62
     3
  5
A7
 10
-24.109062
 20
201.156861
 30
0.0
 11
-0.000017
 21
211.143155
 31
0.0
  0
LINE
  8
LY_1
  6
CONTINUOUS
 62
     3
  5
A8
 10
-0.000005
 20
142.952452
 30
0.0
 11
24.109041
 21
152.938746
 31
0.0
  0
LINE
  8
LY_1
  6
CONTINUOUS
 62
     3
  5
A9
 10
-56.487915
 20
177.047806
 30
0.0
 11
-75.0
 21
177.047806
 31
0.0
  0
LINE
  8
LY_1
  6
CONTINUOUS
 62
     3
  5
AA
 10
-56.487915
 20
133.547806
 30
0.0
 11
-56.487915
 21
220.547806
 31
0.0
  0
LINE
  8
LY_1
  6
CONTINUOUS
 62
     3
  5
AB
 10
-56.487915
 20
220.547806
 30
0.0
 11
-75.0
 21
220.547806
 31
0.0
  0
LINE
  8
LY_1
  6
CONTINUOUS
 62
     3
  5
AC
 10
-56.487915
 20
133.547806
 30
0.0
 11
-75.0
 21
133.547806
 31
0.0
  0
LINE
  8
LY_1
  6
CONTINUOUS
 62
     3
  5
AD
 10
-75.0
 20
220.547806
 30
0.0
 11
-75.0
 21
133.547806
 31
0.0
  0
LINE
  8
LY_1
  6
CONTINUOUS
 62
     3
  5
AE
 10
56.487915
 20
177.047806
 30
0.0
 11
75.0
 21
177.047806
 31
0.0
  0
LINE
  8
LY_1
  6
CONTINUOUS
 62
     3
  5
AF
 10
56.487915
 20
133.547806
 30
0.0
 11
56.487915
 21
220.547806
 31
0.0
  0
LINE
  8
LY_1
  6
CONTINUOUS
 62
     3
  5
B0
 10
56.487915
 20
220.547806
 30
0.0
 11
75.0
 21
220.547806
 31
0.0
  0
LINE
  8
LY_1
  6
CONTINUOUS
 62
     3
  5
B1
 10
56.487915
 20
133.547806
 30
0.0
 11
75.0
 21
133.547806
 31
0.0
  0
LINE
  8
LY_1
  6
CONTINUOUS
 62
     3
  5
B2
 10
75.0
 20
220.547806
 30
0.0
 11
75.0
 21
133.547806
 31
0.0
  0
LINE
  8
LY_1
  6
CONTINUOUS
 62
     3
  5
B3
 10
-59.0
 20
25.114731
 30
0.0
 11
-75.0
 21
25.114731
 31
0.0
  0
LINE
  8
LY_1
  6
CONTINUOUS
 62
     3
  5
B4
 10
59.0
 20
25.114731
 30
0.0
 11
75.0
 21
25.114731
 31
0.0
  0
LINE
  8
LY_1
  6
CONTINUOUS
 62
     3
  5
B5
 10
-59.0
 20
-25.114731
 30
0.0
 11
-75.0
 21
-25.114731
 31
0.0
  0
LINE
  8
LY_1
  6
CONTINUOUS
 62
     3
  5
B6
 10
59.0
 20
-25.114731
 30
0.0
 11
75.0
 21
-25.114731
 31
0.0
  0
LINE
  8
LY_1
  6
CONTINUOUS
 62
     3
  5
B7
 10
114.063354
 20
39.5
 30
0.0
 11
114.063354
 21
56.5
 31
0.0
  0
LINE
  8
LY_1
  6
CONTINUOUS
 62
     3
  5
B8
 10
106.552017
 20
56.5
 30
0.0
 11
106.552017
 21
39.5
 31
0.0
  0
LINE
  8
LY_1
  6
CONTINUOUS
 62
     3
  5
B9
 10
114.057273
 20
39.493849
 30
0.0
 11
115.066457
 21
40.503032
 31
0.0
  0
LINE
  8
LY_1
  6
CONTINUOUS
 62
     3
  5
BA
 10
106.552039
 20
39.50001
 30
0.0
 11
106.263358
 21
40.00002
 31
0.0
  0
LINE
  8
LY_1
  6
CONTINUOUS
 62
     3
  5
BB
 10
106.552017
 20
39.5
 30
0.0
 11
114.063354
 21
39.5
 31
0.0
  0
LINE
  8
LY_1
  6
CONTINUOUS
 62
     3
  5
BC
 10
114.063424
 20
56.499995
 30
0.0
 11
115.313409
 21
55.25001
 31
0.0
  0
LINE
  8
LY_1
  6
CONTINUOUS
 62
     3
  5
BD
 10
106.552042
 20
56.499992
 30
0.0
 11
106.263361
 21
55.999982
 31
0.0
  0
LINE
  8
LY_1
  6
CONTINUOUS
 62
     3
  5
BE
 10
106.552017
 20
56.5
 30
0.0
 11
114.063354
 21
56.5
 31
0.0
  0
LINE
  8
LY_1
  6
CONTINUOUS
 62
     3
  5
BF
 10
106.263336
 20
56.0
 30
0.0
 11
106.263336
 21
40.0
 31
0.0
  0
LINE
  8
LY_1
  6
CENTER
 62
   110
  5
C0
 10
101.263336
 20
48.0
 30
0.0
 11
121.563339
 21
48.0
 31
0.0
  0
LINE
  8
LY_1
  6
CONTINUOUS
 62
     3
  5
C1
 10
126.413422
 20
89.037018
 30
0.0
 11
193.213409
 21
89.037018
 31
0.0
  0
LINE
  8
LY_1
  6
CONTINUOUS
 62
     3
  5
C2
 10
126.413406
 20
77.999993
 30
0.0
 11
114.313413
 21
76.500007
 31
0.0
  0
LINE
  8
LY_1
  6
CONTINUOUS
 62
     3
  5
C3
 10
129.813429
 20
91.000017
 30
0.0
 11
126.413444
 21
89.037035
 31
0.0
  0
LINE
  8
LY_1
  6
CONTINUOUS
 62
     3
  5
C4
 10
126.413422
 20
89.037018
 30
0.0
 11
126.413422
 21
78.0
 31
0.0
  0
LINE
  8
LY_1
  6
CONTINUOUS
 62
     3
  5
C5
 10
114.313416
 20
76.5
 30
0.0
 11
114.313416
 21
67.0
 31
0.0
  0
LINE
  8
LY_1
  6
CONTINUOUS
 62
     3
  5
C6
 10
193.21338
 20
78.000014
 30
0.0
 11
205.313479
 21
76.500015
 31
0.0
  0
LINE
  8
LY_1
  6
CONTINUOUS
 62
     3
  5
C7
 10
189.813457
 20
90.999981
 30
0.0
 11
193.213442
 21
89.036999
 31
0.0
  0
LINE
  8
LY_1
  6
CONTINUOUS
 62
     3
  5
C8
 10
193.213409
 20
89.037018
 30
0.0
 11
193.213409
 21
78.0
 31
0.0
  0
LINE
  8
LY_1
  6
CONTINUOUS
 62
     3
  5
C9
 10
129.8134
 20
91.0
 30
0.0
 11
189.813431
 21
91.0
 31
0.0
  0
LINE
  8
LY_1
  6
CONTINUOUS
 62
     3
  5
CA
 10
126.413422
 20
78.0
 30
0.0
 11
193.213409
 21
78.0
 31
0.0
  0
LINE
  8
LY_1
  6
CONTINUOUS
 62
     3
  5
CB
 10
115.313416
 20
67.0
 30
0.0
 11
115.313416
 21
46.784073
 31
0.0
  0
LINE
  8
LY_1
  6
CONTINUOUS
 62
     3
  5
CC
 10
204.313477
 20
67.0
 30
0.0
 11
204.313477
 21
46.78392
 31
0.0
  0
LINE
  8
LY_1
  6
CONTINUOUS
 62
     3
  5
CD
 10
205.313477
 20
76.500015
 30
0.0
 11
205.313477
 21
67.0
 31
0.0
  0
LINE
  8
LY_1
  6
CONTINUOUS
 62
     3
  5
CE
 10
114.313416
 20
67.0
 30
0.0
 11
205.313477
 21
67.0
 31
0.0
  0
LINE
  8
LY_1
  6
CONTINUOUS
 62
     3
  5
CF
 10
114.313416
 20
72.0
 30
0.0
 11
205.313477
 21
72.0
 31
0.0
  0
LINE
  8
LY_1
  6
CONTINUOUS
 62
     3
  5
D0
 10
-33.399994
 20
89.037018
 30
0.0
 11
33.399994
 21
89.037018
 31
0.0
  0
LINE
  8
LY_1
  6
CONTINUOUS
 62
     3
  5
D1
 10
-33.399987
 20
78.000003
 30
0.0
 11
-45.499995
 21
76.500016
 31
0.0
  0
LINE
  8
LY_1
  6
CONTINUOUS
 62
     3
  5
D2
 10
-30.000014
 20
90.999999
 30
0.0
 11
-33.399993
 21
89.03702
 31
0.0
  0
LINE
  8
LY_1
  6
CONTINUOUS
 62
     3
  5
D3
 10
-33.399994
 20
89.037018
 30
0.0
 11
-33.399994
 21
78.0
 31
0.0
  0
LINE
  8
LY_1
  6
CONTINUOUS
 62
     3
  5
D4
 10
-45.5
 20
76.500015
 30
0.0
 11
-45.5
 21
67.0
 31
0.0
  0
LINE
  8
LY_1
  6
CONTINUOUS
 62
     3
  5
D5
 10
33.399987
 20
78.000003
 30
0.0
 11
45.499995
 21
76.500016
 31
0.0
  0
LINE
  8
LY_1
  6
CONTINUOUS
 62
     3
  5
D6
 10
30.000014
 20
90.999999
 30
0.0
 11
33.399993
 21
89.03702
 31
0.0
  0
LINE
  8
LY_1
  6
CONTINUOUS
 62
     3
  5
D7
 10
33.399994
 20
89.037018
 30
0.0
 11
33.399994
 21
78.0
 31
0.0
  0
LINE
  8
LY_1
  6
CONTINUOUS
 62
     3
  5
D8
 10
-30.000015
 20
91.0
 30
0.0
 11
30.000015
 21
91.0
 31
0.0
  0
LINE
  8
LY_1
  6
CONTINUOUS
 62
     3
  5
D9
 10
-33.399994
 20
78.0
 30
0.0
 11
33.399994
 21
78.0
 31
0.0
  0
LINE
  8
LY_1
  6
CONTINUOUS
 62
     3
  5
DA
 10
116.313444
 20
25.114825
 30
0.0
 11
159.813446
 21
50.229564
 31
0.0
  0
LINE
  8
LY_1
  6
CONTINUOUS
 62
     3
  5
DB
 10
159.813448
 20
-50.229452
 30
0.0
 11
203.313503
 21
-25.114683
 31
0.0
  0
LINE
  8
LY_1
  6
CONTINUOUS
 62
     3
  5
DC
 10
159.813439
 20
50.229527
 30
0.0
 11
203.313507
 21
25.114751
 31
0.0
  0
LINE
  8
LY_1
  6
CONTINUOUS
 62
     3
  5
DD
 10
116.313448
 20
-25.114757
 30
0.0
 11
159.813437
 21
-50.229488
 31
0.0
  0
LINE
  8
LY_1
  6
CONTINUOUS
 62
     3
  5
DE
 10
203.313477
 20
25.114777
 30
0.0
 11
203.313477
 21
-25.1147
 31
0.0
  0
LINE
  8
LY_1
  6
CONTINUOUS
 62
     3
  5
DF
 10
116.313416
 20
25.114807
 30
0.0
 11
116.313416
 21
-25.114731
 31
0.0
  0
LINE
  8
LY_1
  6
CENTER
 62
   110
  5
E0
 10
-80.0
 20
177.047806
 30
0.0
 11
80.0
 21
177.047806
 31
0.0
  0
LINE
  8
LY_1
  6
CENTER
 62
   110
  5
E1
 10
159.813416
 20
96.0
 30
0.0
 11
159.813416
 21
-58.0
 31
0.0
  0
LINE
  8
LY_1
  6
CENTER
 62
   110
  5
E2
 10
0.0
 20
96.0
 30
0.0
 11
0.0
 21
-58.0
 31
0.0
  0
LINE
  8
LY_1
  6
CENTER
 62
   110
  5
E3
 10
101.813416
 20
0.0
 30
0.0
 11
217.813477
 21
0.0
 31
0.0
  0
LINE
  8
LY_1
  6
CONTINUOUS
 62
     3
  5
E4
 10
-32.907485
 20
39.499996
 30
0.0
 11
-37.814963
 21
47.999998
 31
0.0
  0
LINE
  8
LY_1
  6
CONTINUOUS
 62
     3
  5
E5
 10
-18.185053
 20
47.999996
 30
0.0
 11
-23.092531
 21
56.499998
 31
0.0
  0
LINE
  8
LY_1
  6
CONTINUOUS
 62
     3
  5
E6
 10
-37.814959
 20
48.000004
 30
0.0
 11
-32.907488
 21
56.499992
 31
0.0
  0
LINE
  8
LY_1
  6
CONTINUOUS
 62
     3
  5
E7
 10
-23.092528
 20
39.500004
 30
0.0
 11
-18.185057
 21
47.999992
 31
0.0
  0
LINE
  8
LY_1
  6
CONTINUOUS
 62
     3
  5
E8
 10
-32.907486
 20
56.5
 30
0.0
 11
-23.092529
 21
56.5
 31
0.0
  0
LINE
  8
LY_1
  6
CONTINUOUS
 62
     3
  5
E9
 10
-32.907486
 20
39.5
 30
0.0
 11
-23.092529
 21
39.5
 31
0.0
  0
LINE
  8
LY_1
  6
CENTER
 62
   110
  5
EA
 10
-28.0
 20
62.954666
 30
0.0
 11
-28.0
 21
33.045334
 31
0.0
  0
LINE
  8
LY_1
  6
CENTER
 62
   110
  5
EB
 10
-42.93959
 20
48.0
 30
0.0
 11
-12.999997
 21
48.0
 31
0.0
  0
LINE
  8
LY_1
  6
CONTINUOUS
 62
     3
  5
EC
 10
-44.5
 20
67.0
 30
0.0
 11
-44.5
 21
49.059418
 31
0.0
  0
LINE
  8
LY_1
  6
CONTINUOUS
 62
     3
  5
ED
 10
44.5
 20
67.0
 30
0.0
 11
44.5
 21
49.059418
 31
0.0
  0
LINE
  8
LY_1
  6
CONTINUOUS
 62
     3
  5
EE
 10
45.5
 20
76.500015
 30
0.0
 11
45.5
 21
67.0
 31
0.0
  0
LINE
  8
LY_1
  6
CONTINUOUS
 62
     3
  5
EF
 10
-45.5
 20
67.0
 30
0.0
 11
45.5
 21
67.0
 31
0.0
  0
LINE
  8
LY_1
  6
CONTINUOUS
 62
     3
  5
F0
 10
-45.5
 20
72.0
 30
0.0
 11
45.5
 21
72.0
 31
0.0
  0
LINE
  8
LY_1
  6
CONTINUOUS
 62
     3
  5
F1
 10
-58.318499
 20
46.206618
 30
0.0
 11
-58.999996
 21
48.749999
 31
0.0
  0
LINE
  8
LY_1
  6
CONTINUOUS
 62
     3
  5
F2
 10
-59.0
 20
48.75
 30
0.0
 11
-75.0
 21
48.75
 31
0.0
  0
LINE
  8
LY_1
  6
CONTINUOUS
 62
     3
  5
F3
 10
58.318499
 20
46.206618
 30
0.0
 11
58.999996
 21
48.749999
 31
0.0
  0
LINE
  8
LY_1
  6
CONTINUOUS
 62
     3
  5
F4
 10
59.0
 20
48.75
 30
0.0
 11
75.0
 21
48.75
 31
0.0
  0
LINE
  8
LY_1
  6
CONTINUOUS
 62
     3
  5
F5
 10
-58.318499
 20
-46.206618
 30
0.0
 11
-58.999996
 21
-48.749999
 31
0.0
  0
LINE
  8
LY_1
  6
CONTINUOUS
 62
     3
  5
F6
 10
-59.0
 20
-48.75
 30
0.0
 11
-75.0
 21
-48.75
 31
0.0
  0
LINE
  8
LY_1
  6
CONTINUOUS
 62
     3
  5
F7
 10
-59.0
 20
48.75
 30
0.0
 11
-59.0
 21
-48.75
 31
0.0
  0
LINE
  8
LY_1
  6
CONTINUOUS
 62
     3
  5
F8
 10
-75.0
 20
48.75
 30
0.0
 11
-75.0
 21
-48.75
 31
0.0
  0
LINE
  8
LY_1
  6
CONTINUOUS
 62
     3
  5
F9
 10
58.318499
 20
-46.206618
 30
0.0
 11
58.999996
 21
-48.749999
 31
0.0
  0
LINE
  8
LY_1
  6
CONTINUOUS
 62
     3
  5
FA
 10
59.0
 20
-48.75
 30
0.0
 11
75.0
 21
-48.75
 31
0.0
  0
LINE
  8
LY_1
  6
CONTINUOUS
 62
     3
  5
FB
 10
59.0
 20
48.75
 30
0.0
 11
59.0
 21
-48.75
 31
0.0
  0
LINE
  8
LY_1
  6
CONTINUOUS
 62
     3
  5
FC
 10
75.0
 20
48.75
 30
0.0
 11
75.0
 21
-48.75
 31
0.0
  0
LINE
  8
LY_1
  6
CENTER
 62
   110
  5
FD
 10
-80.0
 20
0.0
 30
0.0
 11
80.0
 21
0.0
 31
0.0
  0
LINE
  8
LY_1
  6
CENTER
 62
   110
  5
FE
 10
0.0
 20
235.04776
 30
0.0
 11
0.0
 21
119.047852
 31
0.0
  0
ENDSEC
  0
EOF
