  0
SECTION
  2
HEADER
  9
$ACADVER
  1
AC1009
  9
$DWGCODEPAGE
  3
dos932
  9
$INSBASE
 10
0.0
 20
0.0
 30
0.0
  9
$EXTMIN
 10
-46.74281
 20
-76.114703
 30
0.0
  9
$EXTMAX
 10
123.999313
 20
148.425735
 30
0.0
  9
$LIMMIN
 10
-46.74281
 20
-76.114703
  9
$LIMMAX
 10
123.999313
 20
148.425735
  9
$ORTHOMODE
 70
     0
  9
$REGENMODE
 70
     1
  9
$FILLMODE
 70
     1
  9
$QTEXTMODE
 70
     0
  9
$MIRRTEXT
 70
     1
  9
$DRAGMODE
 70
     2
  9
$LTSCALE
 40
1.0
  9
$OSMODE
 70
     0
  9
$ATTMODE
 70
     1
  9
$TEXTSIZE
 40
3.3
  9
$TRACEWID
 40
0.05
  9
$TEXTSTYLE
  7
MX_NOTE_STANDARD
  9
$CLAYER
  8
LY_1
  9
$CELTYPE
  6
CONTINUOUS
  9
$CECOLOR
 62
   256
  9
$DIMSCALE
 40
1.0
  9
$DIMASZ
 40
2.5
  9
$DIMEXO
 40
0.0
  9
$DIMDLI
 40
3.75
  9
$DIMRND
 40
0.0
  9
$DIMDLE
 40
0.0
  9
$DIMEXE
 40
1.1938
  9
$DIMTP
 40
0.0
  9
$DIMTM
 40
0.0
  9
$DIMTXT
 40
3.3
  9
$DIMCEN
 40
2.5
  9
$DIMTSZ
 40
0.0
  9
$DIMTOL
 70
     0
  9
$DIMLIM
 70
     0
  9
$DIMTIH
 70
     0
  9
$DIMTOH
 70
     0
  9
$DIMSE1
 70
     0
  9
$DIMSE2
 70
     0
  9
$DIMTAD
 70
     1
  9
$DIMZIN
 70
     8
  9
$DIMBLK
  1

  9
$DIMASO
 70
     1
  9
$DIMSHO
 70
     1
  9
$DIMPOST
  1

  9
$DIMAPOST
  1

  9
$DIMALT
 70
     0
  9
$DIMALTD
 70
     4
  9
$DIMALTF
 40
0.03937
  9
$DIMLFAC
 40
1.0
  9
$DIMTOFL
 70
     1
  9
$DIMTVP
 40
0.0
  9
$DIMTIX
 70
     0
  9
$DIMSOXD
 70
     0
  9
$DIMSAH
 70
     1
  9
$DIMBLK1
  1
_OPEN30
  9
$DIMBLK2
  1
_OPEN30
  9
$DIMSTYLE
  2
MXDIMSTYLE
  9
$DIMCLRD
 70
     0
  9
$DIMCLRE
 70
     0
  9
$DIMCLRT
 70
     0
  9
$DIMTFAC
 40
1.0
  9
$DIMGAP
 40
1.0
  9
$LUNITS
 70
     2
  9
$LUPREC
 70
     4
  9
$AXISMODE
 70
     0
  9
$AXISUNIT
 10
0.0
 20
0.0
  9
$SKETCHINC
 40
0.1
  9
$FILLETRAD
 40
0.0
  9
$AUNITS
 70
     0
  9
$AUPREC
 70
     0
  9
$MENU
  1
acad
  9
$ELEVATION
 40
0.0
  9
$PELEVATION
 40
0.0
  9
$THICKNESS
 40
0.0
  9
$LIMCHECK
 70
     0
  9
$BLIPMODE
 70
     1
  9
$CHAMFERA
 40
0.0
  9
$CHAMFERB
 40
0.0
  9
$SKPOLY
 70
     0
  9
$TDCREATE
 40
2454901.550243055
  9
$TDUPDATE
 40
2454901.550243055
  9
$TDINDWG
 40
0.0000000000
  9
$TDUSRTIMER
 40
0.0000000000
  9
$USRTIMER
 70
     1
  9
$ANGBASE
 50
0.0
  9
$ANGDIR
 70
     0
  9
$PDMODE
 70
     0
  9
$PDSIZE
 40
0.0
  9
$PLINEWID
 40
0.0
  9
$COORDS
 70
     1
  9
$SPLFRAME
 70
     0
  9
$SPLINETYPE
 70
     6
  9
$SPLINESEGS
 70
     8
  9
$ATTDIA
 70
     0
  9
$ATTREQ
 70
     1
  9
$HANDLING
 70
     1
  9
$HANDSEED
  5
13E
  9
$SURFTAB1
 70
     6
  9
$SURFTAB2
 70
     6
  9
$SURFTYPE
 70
     6
  9
$SURFU
 70
     6
  9
$SURFV
 70
     6
  9
$UCSNAME
  2

  9
$UCSORG
 10
0.0
 20
0.0
 30
0.0
  9
$UCSXDIR
 10
1.0
 20
0.0
 30
0.0
  9
$UCSYDIR
 10
0.0
 20
1.0
 30
0.0
  9
$PUCSNAME
  2

  9
$PUCSORG
 10
0.0
 20
0.0
 30
0.0
  9
$PUCSXDIR
 10
1.0
 20
0.0
 30
0.0
  9
$PUCSYDIR
 10
0.0
 20
1.0
 30
0.0
  9
$USERI1
 70
     0
  9
$USERI2
 70
     0
  9
$USERI3
 70
     0
  9
$USERI4
 70
     0
  9
$USERI5
 70
     0
  9
$USERR1
 40
0.0
  9
$USERR2
 40
0.0
  9
$USERR3
 40
0.0
  9
$USERR4
 40
0.0
  9
$USERR5
 40
0.0
  9
$WORLDVIEW
 70
     1
  9
$SHADEDGE
 70
     3
  9
$SHADEDIF
 70
    70
  9
$TILEMODE
 70
     1
  9
$MAXACTVP
 70
    16
  9
$PINSBASE
 10
0.0
 20
0.0
 30
0.0
  9
$PLIMCHECK
 70
     0
  9
$PEXTMIN
 10
1.000000E+20
 20
1.000000E+20
 30
1.000000E+20
  9
$PEXTMAX
 10
-1.000000E+20
 20
-1.000000E+20
 30
-1.000000E+20
  9
$PLIMMIN
 10
0.0
 20
0.0
  9
$PLIMMAX
 10
12.0
 20
9.0
  9
$UNITMODE
 70
     0
  9
$VISRETAIN
 70
     0
  9
$PLINEGEN
 70
     1
  9
$PSLTSCALE
 70
     0
  9
$TREEDEPTH
 70
  3020
  0
ENDSEC
  0
SECTION
  2
TABLES
  0
TABLE
  2
VPORT
 70
     1
  0
VPORT
  2
*ACTIVE
 70
     0
 10
0.0
 20
0.0
 11
1.0
 21
1.0
 12
38.628252
 22
36.155516
 13
0.0
 23
0.0
 14
1.0
 24
1.0
 15
0.0
 25
0.0
 16
0.0
 26
0.0
 36
1.0
 17
0.0
 27
0.0
 37
0.0
 40
226.785843
 41
1.732051
 42
50.0
 43
0.0
 44
0.0
 50
0.0
 51
0.0
 71
     0
 72
   100
 73
     1
 74
     1
 75
     0
 76
     0
 77
     0
 78
     0
  0
ENDTAB
  0
TABLE
  2
LTYPE
 70
     2
  0
LTYPE
  2
CONTINUOUS
 70
    64
  3
Solid line
 72
    65
 73
     0
 40
0.0
  0
LTYPE
  2
CENTER
 70
    64
  3
Center ____ _ ____ _ ____ _ ____ _ ____ _ ____
 72
    65
 73
     4
 40
50.8
 49
31.75
 49
-6.35
 49
6.35
 49
-6.35
  0
ENDTAB
  0
TABLE
  2
LAYER
 70
     3
  0
LAYER
  2
0
 70
     0
 62
     7
  6
CONTINUOUS
  0
LAYER
  2
LY_1
 70
     0
 62
     7
  6
CONTINUOUS
  0
LAYER
  2
DEFPOINTS
 70
     0
 62
     7
  6
CONTINUOUS
  0
ENDTAB
  0
TABLE
  2
STYLE
 70
     2
  0
STYLE
  2
MX_NOTE_STANDARD
 70
     0
 40
0.0
 41
1.0
 50
0.0
 71
     0
 42
3.3
  3
txt.shx
  4
extfont.shx
  0
STYLE
  2
MX_DIMTXSTY_2
 70
     0
 40
0.0
 41
0.85
 50
0.0
 71
     0
 42
3.3
  3
txt.shx
  4
extfont.shx
  0
ENDTAB
  0
TABLE
  2
VIEW
 70
     0
  0
ENDTAB
  0
TABLE
  2
UCS
 70
     0
  0
ENDTAB
  0
TABLE
  2
APPID
 70
     1
  0
APPID
  2
ACAD
 70
     0
  0
ENDTAB
  0
TABLE
  2
DIMSTYLE
 70
     1
  0
DIMSTYLE
  2
MXDIMSTYLE
 70
     0
  3

  4

  5

  6
_OPEN30
  7
_OPEN30
 40
1.0
 41
2.5
 42
0.0
 43
3.75
 44
1.1938
 45
0.0
 46
0.0
 47
0.0
 48
0.0
 71
     0
 72
     0
 73
     0
 74
     0
 75
     0
 76
     0
 77
     1
 78
     8
140
3.3
141
2.5
142
0.0
143
0.03937
144
1.0
145
0.0
146
1.0
147
1.0
170
     0
171
     4
172
     1
173
     1
174
     0
175
     0
176
     0
177
     0
178
     0
  0
ENDTAB
  0
ENDSEC
  0
SECTION
  2
BLOCKS
  0
BLOCK
  8
0
  6
BYBLOCK
 62
     0
  5
20
  2
_OPEN30
 70
     2
 10
0.0
 20
0.0
 30
0.0
  3
_OPEN30
  0
LINE
  8
0
  6
BYBLOCK
 62
     0
  5
21
 10
-1.0
 20
0.267949
 30
0.0
 11
0.0
 21
0.0
 31
0.0
  0
LINE
  8
0
  6
BYBLOCK
 62
     0
  5
22
 10
0.0
 20
0.0
 30
0.0
 11
-1.0
 21
-0.267949
 31
0.0
  0
LINE
  8
0
  6
BYBLOCK
 62
     0
  5
23
 10
0.0
 20
0.0
 30
0.0
 11
-1.0
 21
0.0
 31
0.0
  0
ENDBLK
  8
0
  6
BYBLOCK
 62
     0
  5
24
  0
BLOCK
  8
0
  6
BYBLOCK
 62
     0
  5
26
  2
*D1
 70
     1
 10
0.0
 20
0.0
 30
0.0
  3
*D1
  0
LINE
  8
0
  6
CONTINUOUS
 62
   110
  5
27
 10
53.0
 20
52.0
 30
0.0
 11
53.0
 21
0.0
 31
0.0
  0
LINE
  8
0
  6
CONTINUOUS
 62
   110
  5
28
 10
15.00001
 20
52.0
 30
0.0
 11
54.193787
 21
52.0
 31
0.0
  0
LINE
  8
0
  6
CONTINUOUS
 62
   110
  5
29
 10
45.0
 20
0.0
 30
0.0
 11
54.193787
 21
0.0
 31
0.0
  0
INSERT
  8
0
  6
CONTINUOUS
 62
   110
  5
30
  2
_OPEN
 10
53.0
 20
52.0
 30
0.0
 41
2.19
 42
2.19
 50
90.0
 43
2.19
  0
INSERT
  8
0
  6
CONTINUOUS
 62
   110
  5
31
  2
_OPEN
 10
53.0
 20
0.0
 30
0.0
 41
2.19
 42
2.19
 50
270.0
 43
2.19
  0
TEXT
  8
0
  6
CONTINUOUS
 62
   110
  5
33
 10
52.0
 20
23.773346
 30
0.0
 40
3.3
  1
52
 50
90.0
 41
0.98743
  7
MX_DIMTXSTY_2
 11
50.35
 21
23.773346
 31
0.0
 73
     2
  0
POINT
  8
DEFPOINTS
  6
CONTINUOUS
 62
     0
  5
34
 10
15.00001
 20
52.0
 30
0.0
  0
POINT
  8
DEFPOINTS
  6
CONTINUOUS
 62
     0
  5
35
 10
45.0
 20
0.0
 30
0.0
  0
POINT
  8
DEFPOINTS
  6
CONTINUOUS
 62
     0
  5
36
 10
53.0
 20
0.0
 30
0.0
  0
ENDBLK
  8
0
  6
BYBLOCK
 62
     0
  5
37
  0
BLOCK
  8
0
  6
BYBLOCK
 62
     0
  5
2B
  2
_OPEN
 70
     2
 10
0.0
 20
0.0
 30
0.0
  3
_OPEN
  0
LINE
  8
0
  6
BYBLOCK
 62
     0
  5
2C
 10
-1.0
 20
0.166667
 30
0.0
 11
0.0
 21
0.0
 31
0.0
  0
LINE
  8
0
  6
BYBLOCK
 62
     0
  5
2D
 10
0.0
 20
0.0
 30
0.0
 11
-1.0
 21
-0.166667
 31
0.0
  0
LINE
  8
0
  6
BYBLOCK
 62
     0
  5
2E
 10
0.0
 20
0.0
 30
0.0
 11
-1.0
 21
0.0
 31
0.0
  0
ENDBLK
  8
0
  6
BYBLOCK
 62
     0
  5
2F
  0
BLOCK
  8
0
  6
BYBLOCK
 62
     0
  5
3A
  2
*D3
 70
     1
 10
0.0
 20
0.0
 30
0.0
  3
*D3
  0
LINE
  8
0
  6
CONTINUOUS
 62
   110
  5
3B
 10
40.0
 20
-39.0
 30
0.0
 11
-40.0
 21
-39.0
 31
0.0
  0
LINE
  8
0
  6
CONTINUOUS
 62
   110
  5
3C
 10
40.0
 20
-24.100006
 30
0.0
 11
40.0
 21
-40.193787
 31
0.0
  0
LINE
  8
0
  6
CONTINUOUS
 62
   110
  5
3D
 10
-40.0
 20
-24.100006
 30
0.0
 11
-40.0
 21
-40.193787
 31
0.0
  0
INSERT
  8
0
  6
CONTINUOUS
 62
   110
  5
3E
  2
_OPEN
 10
40.0
 20
-39.0
 30
0.0
 41
2.19
 42
2.19
 43
2.19
  0
INSERT
  8
0
  6
CONTINUOUS
 62
   110
  5
3F
  2
_OPEN
 10
-40.0
 20
-39.0
 30
0.0
 41
2.19
 42
2.19
 50
180.0
 43
2.19
  0
TEXT
  8
0
  6
CONTINUOUS
 62
   110
  5
40
 10
-2.177282
 20
-38.0
 30
0.0
 40
3.3
  1
80
 41
1.077196
  7
MX_DIMTXSTY_2
 11
-2.177282
 21
-36.35
 31
0.0
 73
     2
  0
POINT
  8
DEFPOINTS
  6
CONTINUOUS
 62
     0
  5
41
 10
40.0
 20
-24.100006
 30
0.0
  0
POINT
  8
DEFPOINTS
  6
CONTINUOUS
 62
     0
  5
42
 10
-40.0
 20
-24.100006
 30
0.0
  0
POINT
  8
DEFPOINTS
  6
CONTINUOUS
 62
     0
  5
43
 10
-40.0
 20
-39.0
 30
0.0
  0
ENDBLK
  8
0
  6
BYBLOCK
 62
     0
  5
44
  0
ENDSEC
  0
SECTION
  2
ENTITIES
  0
DIMENSION
  8
LY_1
  6
CONTINUOUS
 62
   110
  5
38
  2
*D1
 10
53.0
 20
0.0
 30
0.0
 11
53.0
 21
26.0
 31
0.0
 70
   128
  1
<>
 13
15.00001
 23
52.0
 33
0.0
 14
45.0
 24
0.0
 34
0.0
 50
90.0
  3
MXDIMSTYLE
1001
ACAD
1000
DSTYLE
1002
{
1070
     6
1000
_OPEN
1070
     7
1000
_OPEN
1070
    41
1040
2.19
1070
    44
1040
1.193787
1070
   271
1070
     0
1070
   284
1070
     8
1070
   340
1005
32
1070
   343
1005
2A
1070
   344
1005
2A
1002
}
  0
DIMENSION
  8
LY_1
  6
CONTINUOUS
 62
   110
  5
45
  2
*D3
 10
-40.0
 20
-39.0
 30
0.0
 11
0.0
 21
-39.0
 31
0.0
 70
   128
  1
<>
 13
40.0
 23
-24.100006
 33
0.0
 14
-40.0
 24
-24.100006
 34
0.0
  3
MXDIMSTYLE
1001
ACAD
1000
DSTYLE
1002
{
1070
     6
1000
_OPEN
1070
     7
1000
_OPEN
1070
    41
1040
2.19
1070
    44
1040
1.193787
1070
   271
1070
     0
1070
   284
1070
     8
1070
   340
1005
32
1070
   343
1005
2A
1070
   344
1005
2A
1002
}
  0
TEXT
  8
LY_1
  6
CONTINUOUS
 62
   110
  5
46
 10
-46.074555
 20
-59.083591
 30
0.0
 40
4.167181
  1
      SWING CHECK VALVE 1
 41
0.962169
  7
MX_NOTE_STANDARD
 11
-46.074555
 21
-57.0
 31
0.0
 73
     2
  0
TEXT
  8
LY_1
  6
CONTINUOUS
 62
   110
  5
47
 10
-46.109061
 20
-75.083591
 30
0.0
 40
4.167181
  1
KITZ
 41
0.912486
  7
MX_NOTE_STANDARD
 11
-46.109061
 21
-73.0
 31
0.0
 73
     2
  0
TEXT
  8
LY_1
  6
CONTINUOUS
 62
   110
  5
48
 10
-45.985066
 20
-67.083591
 30
0.0
 40
4.167181
  1
FIG   R1
 41
1.091016
  7
MX_NOTE_STANDARD
 11
-45.985066
 21
-65.0
 31
0.0
 73
     2
  0
TEXT
  8
LY_1
  6
CONTINUOUS
 62
   110
  5
49
 10
-46.10692
 20
-51.083591
 30
0.0
 40
4.167181
  1
NAME  CLASS 125 CAST BRONZE
 41
0.915569
  7
MX_NOTE_STANDARD
 11
-46.10692
 21
-49.0
 31
0.0
 73
     2
  0
POLYLINE
  8
LY_1
  6
CONTINUOUS
 62
     3
  5
4A
 66
     1
 10
0.0
 20
0.0
 30
0.0
  0
VERTEX
  8
LY_1
  6
CONTINUOUS
 62
     3
  5
104
 10
11.130141
 20
-1.530605
 30
0.0
  0
VERTEX
  8
LY_1
  6
CONTINUOUS
 62
     3
  5
105
 10
11.126446
 20
-1.533862
 30
0.0
  0
VERTEX
  8
LY_1
  6
CONTINUOUS
 62
     3
  5
106
 10
11.123243
 20
-1.537583
 30
0.0
  0
VERTEX
  8
LY_1
  6
CONTINUOUS
 62
     3
  5
107
 10
11.120591
 20
-1.5417
 30
0.0
  0
VERTEX
  8
LY_1
  6
CONTINUOUS
 62
     3
  5
108
 10
11.118542
 20
-1.546134
 30
0.0
  0
VERTEX
  8
LY_1
  6
CONTINUOUS
 62
     3
  5
109
 10
11.117134
 20
-1.550801
 30
0.0
  0
VERTEX
  8
LY_1
  6
CONTINUOUS
 62
     3
  5
10A
 10
11.116393
 20
-1.555613
 30
0.0
  0
VERTEX
  8
LY_1
  6
CONTINUOUS
 62
     3
  5
10B
 10
11.116333
 20
-1.560479
 30
0.0
  0
VERTEX
  8
LY_1
  6
CONTINUOUS
 62
     3
  5
10C
 10
11.116956
 20
-1.565307
 30
0.0
  0
VERTEX
  8
LY_1
  6
CONTINUOUS
 62
     3
  5
10D
 10
11.11825
 20
-1.570005
 30
0.0
  0
VERTEX
  8
LY_1
  6
CONTINUOUS
 62
     3
  5
10E
 10
11.120191
 20
-1.574486
 30
0.0
  0
VERTEX
  8
LY_1
  6
CONTINUOUS
 62
     3
  5
10F
 10
11.122741
 20
-1.578663
 30
0.0
  0
VERTEX
  8
LY_1
  6
CONTINUOUS
 62
     3
  5
110
 10
11.125852
 20
-1.582459
 30
0.0
  0
VERTEX
  8
LY_1
  6
CONTINUOUS
 62
     3
  5
111
 10
11.129467
 20
-1.585801
 30
0.0
  0
VERTEX
  8
LY_1
  6
CONTINUOUS
 62
     3
  5
112
 10
11.133515
 20
-1.588626
 30
0.0
  0
VERTEX
  8
LY_1
  6
CONTINUOUS
 62
     3
  5
113
 10
11.137921
 20
-1.59088
 30
0.0
  0
VERTEX
  8
LY_1
  6
CONTINUOUS
 62
     3
  5
114
 10
11.142601
 20
-1.592522
 30
0.0
  0
VERTEX
  8
LY_1
  6
CONTINUOUS
 62
     3
  5
115
 10
11.147468
 20
-1.593519
 30
0.0
  0
VERTEX
  8
LY_1
  6
CONTINUOUS
 62
     3
  5
116
 10
11.152428
 20
-1.593854
 30
0.0
  0
VERTEX
  8
LY_1
  6
CONTINUOUS
 62
     3
  5
117
 10
11.152428
 20
-1.593854
 30
0.0
  0
SEQEND
  8
LY_1
  6
CONTINUOUS
 62
     3
  5
118
  0
POLYLINE
  8
LY_1
  6
CONTINUOUS
 62
     3
  5
4B
 66
     1
 10
0.0
 20
0.0
 30
0.0
  0
VERTEX
  8
LY_1
  6
CONTINUOUS
 62
     3
  5
119
 10
13.39235
 20
2.682995
 30
0.0
  0
VERTEX
  8
LY_1
  6
CONTINUOUS
 62
     3
  5
11A
 10
13.396264
 20
2.686475
 30
0.0
  0
VERTEX
  8
LY_1
  6
CONTINUOUS
 62
     3
  5
11B
 10
13.399617
 20
2.690476
 30
0.0
  0
VERTEX
  8
LY_1
  6
CONTINUOUS
 62
     3
  5
11C
 10
13.402338
 20
2.694913
 30
0.0
  0
VERTEX
  8
LY_1
  6
CONTINUOUS
 62
     3
  5
11D
 10
13.404369
 20
2.699692
 30
0.0
  0
VERTEX
  8
LY_1
  6
CONTINUOUS
 62
     3
  5
11E
 10
13.405666
 20
2.704709
 30
0.0
  0
VERTEX
  8
LY_1
  6
CONTINUOUS
 62
     3
  5
11F
 10
13.406201
 20
2.709857
 30
0.0
  0
VERTEX
  8
LY_1
  6
CONTINUOUS
 62
     3
  5
120
 10
13.405964
 20
2.715027
 30
0.0
  0
VERTEX
  8
LY_1
  6
CONTINUOUS
 62
     3
  5
121
 10
13.404959
 20
2.720108
 30
0.0
  0
VERTEX
  8
LY_1
  6
CONTINUOUS
 62
     3
  5
122
 10
13.403207
 20
2.724991
 30
0.0
  0
VERTEX
  8
LY_1
  6
CONTINUOUS
 62
     3
  5
123
 10
13.400746
 20
2.729571
 30
0.0
  0
VERTEX
  8
LY_1
  6
CONTINUOUS
 62
     3
  5
124
 10
13.397629
 20
2.733752
 30
0.0
  0
VERTEX
  8
LY_1
  6
CONTINUOUS
 62
     3
  5
125
 10
13.393923
 20
2.737442
 30
0.0
  0
VERTEX
  8
LY_1
  6
CONTINUOUS
 62
     3
  5
126
 10
13.389706
 20
2.740564
 30
0.0
  0
VERTEX
  8
LY_1
  6
CONTINUOUS
 62
     3
  5
127
 10
13.385069
 20
2.743051
 30
0.0
  0
VERTEX
  8
LY_1
  6
CONTINUOUS
 62
     3
  5
128
 10
13.380111
 20
2.744849
 30
0.0
  0
VERTEX
  8
LY_1
  6
CONTINUOUS
 62
     3
  5
129
 10
13.374939
 20
2.74592
 30
0.0
  0
VERTEX
  8
LY_1
  6
CONTINUOUS
 62
     3
  5
12A
 10
13.372506
 20
2.746163
 30
0.0
  0
VERTEX
  8
LY_1
  6
CONTINUOUS
 62
     3
  5
12B
 10
13.370063
 20
2.746243
 30
0.0
  0
SEQEND
  8
LY_1
  6
CONTINUOUS
 62
     3
  5
12C
  0
POLYLINE
  8
LY_1
  6
CONTINUOUS
 62
     3
  5
4C
 66
     1
 10
0.0
 20
0.0
 30
0.0
  0
VERTEX
  8
LY_1
  6
CONTINUOUS
 62
     3
  5
12D
 10
-13.817065
 20
0.028999
 30
0.0
  0
VERTEX
  8
LY_1
  6
CONTINUOUS
 62
     3
  5
12E
 10
-13.820931
 20
0.025952
 30
0.0
  0
VERTEX
  8
LY_1
  6
CONTINUOUS
 62
     3
  5
12F
 10
-13.824334
 20
0.022416
 30
0.0
  0
VERTEX
  8
LY_1
  6
CONTINUOUS
 62
     3
  5
130
 10
-13.82721
 20
0.018456
 30
0.0
  0
VERTEX
  8
LY_1
  6
CONTINUOUS
 62
     3
  5
131
 10
-13.829505
 20
0.014149
 30
0.0
  0
VERTEX
  8
LY_1
  6
CONTINUOUS
 62
     3
  5
132
 10
-13.831175
 20
0.009574
 30
0.0
  0
VERTEX
  8
LY_1
  6
CONTINUOUS
 62
     3
  5
133
 10
-13.83219
 20
0.004819
 30
0.0
  0
VERTEX
  8
LY_1
  6
CONTINUOUS
 62
     3
  5
134
 10
-13.832529
 20
-0.000028
 30
0.0
  0
VERTEX
  8
LY_1
  6
CONTINUOUS
 62
     3
  5
135
 10
-13.832187
 20
-0.004875
 30
0.0
  0
VERTEX
  8
LY_1
  6
CONTINUOUS
 62
     3
  5
136
 10
-13.83117
 20
-0.00963
 30
0.0
  0
VERTEX
  8
LY_1
  6
CONTINUOUS
 62
     3
  5
137
 10
-13.829498
 20
-0.014204
 30
0.0
  0
VERTEX
  8
LY_1
  6
CONTINUOUS
 62
     3
  5
138
 10
-13.827201
 20
-0.01851
 30
0.0
  0
VERTEX
  8
LY_1
  6
CONTINUOUS
 62
     3
  5
139
 10
-13.824323
 20
-0.022468
 30
0.0
  0
VERTEX
  8
LY_1
  6
CONTINUOUS
 62
     3
  5
13A
 10
-13.820918
 20
-0.026003
 30
0.0
  0
VERTEX
  8
LY_1
  6
CONTINUOUS
 62
     3
  5
13B
 10
-13.817051
 20
-0.029048
 30
0.0
  0
SEQEND
  8
LY_1
  6
CONTINUOUS
 62
     3
  5
13C
  0
ARC
  8
LY_1
  6
CONTINUOUS
 62
     3
  5
4D
 10
14.880162
 20
2.572137
 30
0.0
 40
0.969754
 50
307.524111
 51
89.999982
  0
ARC
  8
LY_1
  6
CONTINUOUS
 62
     3
  5
4E
 10
14.876023
 20
-2.567812
 30
0.0
 40
0.974014
 50
270.000018
 51
89.999982
  0
ARC
  8
LY_1
  6
CONTINUOUS
 62
     3
  5
4F
 10
8.142375
 20
-2.572019
 30
0.0
 40
0.969921
 50
127.524112
 51
270.000001
  0
ARC
  8
LY_1
  6
CONTINUOUS
 62
     3
  5
50
 10
8.525694
 20
2.546759
 30
0.0
 40
0.995125
 50
89.999982
 51
359.999983
  0
ARC
  8
LY_1
  6
CONTINUOUS
 62
     3
  5
51
 10
5.14593
 20
2.56766
 30
0.0
 40
0.973973
 50
270.000018
 51
89.999982
  0
ARC
  8
LY_1
  6
CONTINUOUS
 62
     3
  5
52
 10
1.962623
 20
-2.546753
 30
0.0
 40
0.995154
 50
180.000036
 51
0.000001
  0
ARC
  8
LY_1
  6
CONTINUOUS
 62
     3
  5
53
 10
-1.52531
 20
2.546488
 30
0.0
 40
0.99507
 50
89.999982
 51
359.999983
  0
ARC
  8
LY_1
  6
CONTINUOUS
 62
     3
  5
54
 10
-4.939828
 20
-2.546753
 30
0.0
 40
0.995141
 50
180.000036
 51
0.000001
  0
ARC
  8
LY_1
  6
CONTINUOUS
 62
     3
  5
55
 10
-4.939828
 20
2.546759
 30
0.0
 40
0.995141
 50
0.000018
 51
180.000019
  0
ARC
  8
LY_1
  6
CONTINUOUS
 62
     3
  5
56
 10
-8.295517
 20
2.361647
 30
0.0
 40
1.180319
 50
90.778951
 51
124.259063
  0
ARC
  8
LY_1
  6
CONTINUOUS
 62
     3
  5
57
 10
-8.326182
 20
2.568199
 30
0.0
 40
0.973776
 50
213.574514
 51
89.143203
  0
ARC
  8
LY_1
  6
CONTINUOUS
 62
     3
  5
58
 10
-8.344113
 20
-2.570153
 30
0.0
 40
0.980704
 50
235.740937
 51
55.740955
  0
ARC
  8
LY_1
  6
CONTINUOUS
 62
     3
  5
59
 10
-14.854965
 20
-2.546866
 30
0.0
 40
0.995081
 50
179.999964
 51
359.999983
  0
ARC
  8
LY_1
  6
CONTINUOUS
 62
     3
  5
5A
 10
-14.854965
 20
2.54687
 30
0.0
 40
0.995081
 50
0.000018
 51
180.000019
  0
ARC
  8
LY_1
  6
CONTINUOUS
 62
     3
  5
5B
 10
0.0
 20
153.425735
 30
0.0
 40
62.0
 50
253.673899
 51
254.442705
  0
ARC
  8
LY_1
  6
CONTINUOUS
 62
     3
  5
5C
 10
0.0
 20
153.425735
 30
0.0
 40
62.0
 50
264.214411
 51
293.796178
  0
ARC
  8
LY_1
  6
CONTINUOUS
 62
     3
  5
5D
 10
-26.226471
 20
140.899857
 30
0.0
 40
3.0
 50
221.150614
 51
293.796178
  0
ARC
  8
LY_1
  6
CONTINUOUS
 62
     3
  5
5E
 10
-26.226471
 20
93.951614
 30
0.0
 40
3.0
 50
66.203822
 51
138.849386
  0
ARC
  8
LY_1
  6
CONTINUOUS
 62
     3
  5
5F
 10
26.226471
 20
140.899857
 30
0.0
 40
3.0
 50
246.203803
 51
318.849408
  0
ARC
  8
LY_1
  6
CONTINUOUS
 62
     3
  5
60
 10
0.0
 20
81.425735
 30
0.0
 40
62.0
 50
66.203822
 51
113.802754
  0
ARC
  8
LY_1
  6
CONTINUOUS
 62
     3
  5
61
 10
26.226471
 20
93.951614
 30
0.0
 40
3.0
 50
41.150592
 51
113.796197
  0
ARC
  8
LY_1
  6
CONTINUOUS
 62
     3
  5
62
 10
0.0
 20
153.425735
 30
0.0
 40
62.0
 50
246.197246
 51
253.12273
  0
CIRCLE
  8
LY_1
  6
CONTINUOUS
 62
     3
  5
63
 10
0.0
 20
117.425735
 30
0.0
 40
23.5
  0
CIRCLE
  8
LY_1
  6
CONTINUOUS
 62
     3
  5
64
 10
0.0
 20
117.425735
 30
0.0
 40
15.0
  0
ARC
  8
LY_1
  6
CONTINUOUS
 62
     3
  5
65
 10
30.175385
 20
19.672318
 30
0.0
 40
40.0
 50
342.65856
 51
0.000003
  0
ARC
  8
LY_1
  6
CONTINUOUS
 62
     3
  5
66
 10
156.175385
 20
19.672318
 30
0.0
 40
40.0
 50
180.000019
 51
197.341432
  0
ARC
  8
LY_1
  6
CONTINUOUS
 62
     3
  5
67
 10
93.175385
 20
0.0
 30
0.0
 40
26.0
 50
162.658551
 51
17.341451
  0
CIRCLE
  8
LY_1
  6
CONTINUOUS
 62
     3
  5
68
 10
93.175385
 20
0.0
 30
0.0
 40
15.1455
  0
CIRCLE
  8
LY_1
  6
CONTINUOUS
 62
   110
  5
69
 10
93.175385
 20
0.0
 30
0.0
 40
16.624496
  0
CIRCLE
  8
LY_1
  6
CONTINUOUS
 62
     3
  5
6A
 10
-12.0
 20
24.5
 30
0.0
 40
6.0
  0
CIRCLE
  8
LY_1
  6
CONTINUOUS
 62
     3
  5
6B
 10
-12.0
 20
24.5
 30
0.0
 40
4.5
  0
ARC
  8
LY_1
  6
CONTINUOUS
 62
     3
  5
6C
 10
-26.0
 20
23.573486
 30
0.0
 40
3.0
 50
293.578213
 51
0.000036
  0
ARC
  8
LY_1
  6
CONTINUOUS
 62
     3
  5
6D
 10
26.0
 20
23.573486
 30
0.0
 40
3.0
 50
179.999964
 51
246.421805
  0
ARC
  8
LY_1
  6
CONTINUOUS
 62
     3
  5
6E
 10
-26.226471
 20
23.474121
 30
0.0
 40
3.0
 50
195.00017
 51
293.796178
  0
ARC
  8
LY_1
  6
CONTINUOUS
 62
     3
  5
6F
 10
26.226471
 20
23.474121
 30
0.0
 40
3.0
 50
246.203803
 51
344.999853
  0
ARC
  8
LY_1
  6
CONTINUOUS
 62
     3
  5
70
 10
0.0
 20
-36.0
 30
0.0
 40
62.0
 50
66.203822
 51
66.421841
  0
ARC
  8
LY_1
  6
CONTINUOUS
 62
     3
  5
71
 10
-26.226471
 20
-23.474121
 30
0.0
 40
3.0
 50
66.203822
 51
164.99983
  0
ARC
  8
LY_1
  6
CONTINUOUS
 62
     3
  5
72
 10
26.226471
 20
-23.474121
 30
0.0
 40
3.0
 50
15.000147
 51
113.796197
  0
ARC
  8
LY_1
  6
CONTINUOUS
 62
     3
  5
73
 10
0.0
 20
36.0
 30
0.0
 40
62.0
 50
246.197246
 51
293.796178
  0
LINE
  8
LY_1
  6
CONTINUOUS
 62
     3
  5
74
 10
9.520771
 20
2.746225
 30
0.0
 11
9.520771
 21
2.546759
 31
0.0
  0
LINE
  8
LY_1
  6
CONTINUOUS
 62
     3
  5
75
 10
-0.530162
 20
2.74591
 30
0.0
 11
-0.530162
 21
2.546488
 31
0.0
  0
LINE
  8
LY_1
  6
CONTINUOUS
 62
     3
  5
76
 10
-0.530162
 20
2.74591
 30
0.0
 11
0.96752
 21
2.74591
 31
0.0
  0
LINE
  8
LY_1
  6
CONTINUOUS
 62
     3
  5
77
 10
2.957813
 20
1.593637
 30
0.0
 11
5.14593
 21
1.593637
 31
0.0
  0
LINE
  8
LY_1
  6
CONTINUOUS
 62
     3
  5
78
 10
2.957813
 20
1.593637
 30
0.0
 11
2.957813
 21
-2.546753
 31
0.0
  0
LINE
  8
LY_1
  6
CONTINUOUS
 62
     3
  5
79
 10
0.96752
 20
2.74591
 30
0.0
 11
0.96752
 21
-2.546753
 31
0.0
  0
LINE
  8
LY_1
  6
CONTINUOUS
 62
     3
  5
7A
 10
-1.52531
 20
3.541523
 30
0.0
 11
5.14593
 21
3.541523
 31
0.0
  0
LINE
  8
LY_1
  6
CONTINUOUS
 62
     3
  5
7B
 10
9.520771
 20
2.746225
 30
0.0
 11
13.369995
 21
2.746225
 31
0.0
  0
LINE
  8
LY_1
  6
CONTINUOUS
 62
     3
  5
7C
 10
8.142375
 20
-3.541877
 30
0.0
 11
14.876023
 21
-3.541877
 31
0.0
  0
LINE
  8
LY_1
  6
CONTINUOUS
 62
     3
  5
7D
 10
14.876023
 20
-1.593857
 30
0.0
 11
11.152451
 21
-1.593857
 31
0.0
  0
LINE
  8
LY_1
  6
CONTINUOUS
 62
     3
  5
7E
 10
15.47089
 20
1.803033
 30
0.0
 11
11.130089
 21
-1.530682
 31
0.0
  0
LINE
  8
LY_1
  6
CONTINUOUS
 62
     3
  5
7F
 10
13.392388
 20
2.682922
 30
0.0
 11
7.551669
 21
-1.802723
 31
0.0
  0
LINE
  8
LY_1
  6
CONTINUOUS
 62
     3
  5
80
 10
8.525694
 20
3.541883
 30
0.0
 11
14.880162
 21
3.541883
 31
0.0
  0
LINE
  8
LY_1
  6
CONTINUOUS
 62
     3
  5
81
 10
-5.935021
 20
-2.546753
 30
0.0
 11
-5.935021
 21
2.546759
 31
0.0
  0
LINE
  8
LY_1
  6
CONTINUOUS
 62
     3
  5
82
 10
-3.944682
 20
2.546759
 30
0.0
 11
-3.944682
 21
-2.546753
 31
0.0
  0
LINE
  8
LY_1
  6
CONTINUOUS
 62
     3
  5
83
 10
-11.246387
 20
0.593286
 30
0.0
 11
-9.137492
 21
2.029668
 31
0.0
  0
LINE
  8
LY_1
  6
CONTINUOUS
 62
     3
  5
84
 10
-11.246419
 20
0.593223
 30
0.0
 11
-7.791937
 21
-1.759648
 31
0.0
  0
LINE
  8
LY_1
  6
CONTINUOUS
 62
     3
  5
85
 10
-13.817059
 20
0.028957
 30
0.0
 11
-8.959973
 21
3.337152
 31
0.0
  0
LINE
  8
LY_1
  6
CONTINUOUS
 62
     3
  5
86
 10
-13.81699
 20
-0.029144
 30
0.0
 11
-8.896108
 21
-3.38079
 31
0.0
  0
LINE
  8
LY_1
  6
CONTINUOUS
 62
     3
  5
87
 10
-13.859931
 20
2.54687
 30
0.0
 11
-13.859931
 21
-2.546866
 31
0.0
  0
LINE
  8
LY_1
  6
CONTINUOUS
 62
     3
  5
88
 10
-15.850045
 20
2.54687
 30
0.0
 11
-15.850045
 21
-2.546866
 31
0.0
  0
LINE
  8
LY_1
  6
CONTINUOUS
 62
     3
  5
89
 10
69.675388
 20
43.12139
 30
0.0
 11
116.675388
 21
43.121436
 31
0.0
  0
LINE
  8
LY_1
  6
CONTINUOUS
 62
     3
  5
8A
 10
-23.5
 20
43.121414
 30
0.0
 11
23.5
 21
43.121414
 31
0.0
  0
LINE
  8
LY_1
  6
CONTINUOUS
 62
     3
  5
8B
 10
-6.0
 20
93.925737
 30
0.0
 11
-5.959737
 21
94.694
 31
0.0
  0
LINE
  8
LY_1
  6
CONTINUOUS
 62
     3
  5
8C
 10
-17.999999
 20
93.925732
 30
0.0
 11
-18.470127
 21
102.896301
 31
0.0
  0
LINE
  8
LY_1
  6
CONTINUOUS
 62
     3
  5
8D
 10
-14.886754
 20
92.575745
 30
0.0
 11
-14.886754
 21
89.347427
 31
0.0
  0
LINE
  8
LY_1
  6
CONTINUOUS
 62
     3
  5
8E
 10
-9.113246
 20
92.575745
 30
0.0
 11
-9.113246
 21
89.347427
 31
0.0
  0
LINE
  8
LY_1
  6
CONTINUOUS
 62
     3
  5
8F
 10
-29.5
 20
12.413031
 30
0.0
 11
-40.0
 21
12.413031
 31
0.0
  0
LINE
  8
LY_1
  6
CONTINUOUS
 62
     3
  5
90
 10
29.5
 20
12.413031
 30
0.0
 11
40.0
 21
12.413031
 31
0.0
  0
LINE
  8
LY_1
  6
CONTINUOUS
 62
     3
  5
91
 10
-29.5
 20
-12.413031
 30
0.0
 11
-40.0
 21
-12.413031
 31
0.0
  0
LINE
  8
LY_1
  6
CONTINUOUS
 62
     3
  5
92
 10
29.5
 20
-12.413031
 30
0.0
 11
40.0
 21
-12.413031
 31
0.0
  0
LINE
  8
LY_1
  6
CONTINUOUS
 62
     3
  5
93
 10
-17.75
 20
92.575745
 30
0.0
 11
-6.25
 21
92.575745
 31
0.0
  0
LINE
  8
LY_1
  6
CONTINUOUS
 62
     3
  5
94
 10
-6.25
 20
89.347427
 30
0.0
 11
-17.75
 21
89.347427
 31
0.0
  0
LINE
  8
LY_1
  6
CONTINUOUS
 62
     3
  5
95
 10
-17.75
 20
89.347427
 30
0.0
 11
-17.75
 21
92.575745
 31
0.0
  0
LINE
  8
LY_1
  6
CONTINUOUS
 62
     3
  5
96
 10
-17.750003
 20
92.575722
 30
0.0
 11
-16.399998
 21
93.925727
 31
0.0
  0
LINE
  8
LY_1
  6
CONTINUOUS
 62
     3
  5
97
 10
-17.749999
 20
89.347437
 30
0.0
 11
-16.500013
 21
88.625757
 31
0.0
  0
LINE
  8
LY_1
  6
CONTINUOUS
 62
     3
  5
98
 10
-6.25
 20
89.347427
 30
0.0
 11
-6.25
 21
92.641571
 31
0.0
  0
LINE
  8
LY_1
  6
CONTINUOUS
 62
     3
  5
99
 10
-6.250001
 20
92.575722
 30
0.0
 11
-7.600006
 21
93.925727
 31
0.0
  0
LINE
  8
LY_1
  6
CONTINUOUS
 62
     3
  5
9A
 10
-6.249999
 20
89.347438
 30
0.0
 11
-7.499985
 21
88.625759
 31
0.0
  0
LINE
  8
LY_1
  6
CONTINUOUS
 62
     3
  5
9B
 10
-16.5
 20
88.625748
 30
0.0
 11
-7.5
 21
88.625748
 31
0.0
  0
LINE
  8
LY_1
  6
CONTINUOUS
 62
     3
  5
9C
 10
-18.0
 20
93.925735
 30
0.0
 11
-6.000001
 21
93.925735
 31
0.0
  0
LINE
  8
LY_1
  6
CENTER
 62
   110
  5
9E
 10
-12.0
 20
83.625748
 30
0.0
 11
-12.0
 21
100.325745
 31
0.0
  0
LINE
  8
LY_1
  6
CONTINUOUS
 62
     3
  5
9F
 10
-28.485413
 20
117.425735
 30
0.0
 11
-40.0
 21
117.425735
 31
0.0
  0
LINE
  8
LY_1
  6
CONTINUOUS
 62
     3
  5
A0
 10
-28.485413
 20
138.925735
 30
0.0
 11
-28.485413
 21
95.925735
 31
0.0
  0
LINE
  8
LY_1
  6
CONTINUOUS
 62
     3
  5
A1
 10
-28.485413
 20
138.925735
 30
0.0
 11
-40.0
 21
138.925735
 31
0.0
  0
LINE
  8
LY_1
  6
CONTINUOUS
 62
     3
  5
A2
 10
-28.485413
 20
95.925735
 30
0.0
 11
-40.0
 21
95.925735
 31
0.0
  0
LINE
  8
LY_1
  6
CONTINUOUS
 62
     3
  5
A3
 10
-40.0
 20
138.925735
 30
0.0
 11
-40.0
 21
95.925735
 31
0.0
  0
LINE
  8
LY_1
  6
CONTINUOUS
 62
     3
  5
A4
 10
28.485413
 20
117.425735
 30
0.0
 11
40.0
 21
117.425735
 31
0.0
  0
LINE
  8
LY_1
  6
CONTINUOUS
 62
     3
  5
A5
 10
28.485413
 20
138.925735
 30
0.0
 11
28.485413
 21
95.925735
 31
0.0
  0
LINE
  8
LY_1
  6
CONTINUOUS
 62
     3
  5
A6
 10
28.485413
 20
138.925735
 30
0.0
 11
40.0
 21
138.925735
 31
0.0
  0
LINE
  8
LY_1
  6
CONTINUOUS
 62
     3
  5
A7
 10
28.485413
 20
95.925735
 30
0.0
 11
40.0
 21
95.925735
 31
0.0
  0
LINE
  8
LY_1
  6
CONTINUOUS
 62
     3
  5
A8
 10
40.0
 20
138.925735
 30
0.0
 11
40.0
 21
95.925735
 31
0.0
  0
LINE
  8
LY_1
  6
CENTER
 62
   110
  5
A9
 10
0.0
 20
57.0
 30
0.0
 11
0.0
 21
-31.0
 31
0.0
  0
LINE
  8
LY_1
  6
CONTINUOUS
 62
     3
  5
AA
 10
93.175385
 20
50.787567
 30
0.0
 11
93.175385
 21
44.0
 31
0.0
  0
LINE
  8
LY_1
  6
CONTINUOUS
 62
     3
  5
AB
 10
80.92952
 20
50.787567
 30
0.0
 11
80.92952
 21
44.0
 31
0.0
  0
LINE
  8
LY_1
  6
CONTINUOUS
 62
     3
  5
AC
 10
105.421249
 20
50.787567
 30
0.0
 11
105.421249
 21
44.0
 31
0.0
  0
LINE
  8
LY_1
  6
CONTINUOUS
 62
     3
  5
AD
 10
-12.245866
 20
50.787567
 30
0.0
 11
-12.245866
 21
44.0
 31
0.0
  0
LINE
  8
LY_1
  6
CONTINUOUS
 62
     3
  5
AE
 10
0.0
 20
44.0
 30
0.0
 11
0.0
 21
50.787567
 31
0.0
  0
LINE
  8
LY_1
  6
CONTINUOUS
 62
     3
  5
AF
 10
12.245866
 20
50.787567
 30
0.0
 11
12.245866
 21
44.0
 31
0.0
  0
LINE
  8
LY_1
  6
CONTINUOUS
 62
     3
  5
B0
 10
-0.000004
 20
100.107456
 30
0.0
 11
-12.245863
 21
105.179856
 31
0.0
  0
LINE
  8
LY_1
  6
CONTINUOUS
 62
     3
  5
B1
 10
12.245879
 20
129.671596
 30
0.0
 11
-0.000008
 21
134.744008
 31
0.0
  0
LINE
  8
LY_1
  6
CONTINUOUS
 62
     3
  5
B2
 10
-12.245876
 20
105.179847
 30
0.0
 11
-17.318283
 21
117.425719
 31
0.0
  0
LINE
  8
LY_1
  6
CONTINUOUS
 62
     3
  5
B3
 10
17.318262
 20
117.425731
 30
0.0
 11
12.245861
 21
129.67159
 31
0.0
  0
LINE
  8
LY_1
  6
CONTINUOUS
 62
     3
  5
B4
 10
-17.318272
 20
117.425734
 30
0.0
 11
-12.245866
 21
129.671607
 31
0.0
  0
LINE
  8
LY_1
  6
CONTINUOUS
 62
     3
  5
B5
 10
12.245874
 20
105.179865
 30
0.0
 11
17.31828
 21
117.425738
 31
0.0
  0
LINE
  8
LY_1
  6
CONTINUOUS
 62
     3
  5
B6
 10
-12.245875
 20
129.671597
 30
0.0
 11
-0.000016
 21
134.743998
 31
0.0
  0
LINE
  8
LY_1
  6
CONTINUOUS
 62
     3
  5
B7
 10
-0.000018
 20
100.107447
 30
0.0
 11
12.245854
 21
105.179854
 31
0.0
  0
LINE
  8
LY_1
  6
CENTER
 62
   110
  5
B8
 10
-45.0
 20
117.425735
 30
0.0
 11
45.0
 21
117.425735
 31
0.0
  0
LINE
  8
LY_1
  6
CONTINUOUS
 62
     3
  5
B9
 10
64.664001
 20
24.5
 30
0.0
 11
69.075348
 21
24.5
 31
0.0
  0
LINE
  8
LY_1
  6
CONTINUOUS
 62
     3
  5
BA
 10
64.664001
 20
29.5
 30
0.0
 11
64.664001
 21
19.5
 31
0.0
  0
LINE
  8
LY_1
  6
CONTINUOUS
 62
     3
  5
BB
 10
69.075348
 20
19.5
 30
0.0
 11
69.075348
 21
29.5
 31
0.0
  0
LINE
  8
LY_1
  6
CONTINUOUS
 62
     3
  5
BC
 10
69.675385
 20
18.5
 30
0.0
 11
70.158203
 21
18.5
 31
0.0
  0
LINE
  8
LY_1
  6
CONTINUOUS
 62
     3
  5
BD
 10
69.075352
 20
19.499999
 30
0.0
 11
69.675383
 21
20.10003
 31
0.0
  0
LINE
  8
LY_1
  6
CONTINUOUS
 62
     3
  5
BE
 10
64.66402
 20
19.500004
 30
0.0
 11
64.375346
 21
20.000001
 31
0.0
  0
LINE
  8
LY_1
  6
CONTINUOUS
 62
     3
  5
BF
 10
64.664001
 20
19.5
 30
0.0
 11
69.075348
 21
19.5
 31
0.0
  0
LINE
  8
LY_1
  6
CONTINUOUS
 62
     3
  5
C0
 10
69.675385
 20
30.5
 30
0.0
 11
70.175385
 21
30.5
 31
0.0
  0
LINE
  8
LY_1
  6
CONTINUOUS
 62
     3
  5
C1
 10
69.075363
 20
29.499999
 30
0.0
 11
69.675383
 21
28.899979
 31
0.0
  0
LINE
  8
LY_1
  6
CONTINUOUS
 62
     3
  5
C2
 10
64.664022
 20
29.499999
 30
0.0
 11
64.375349
 21
29.000002
 31
0.0
  0
LINE
  8
LY_1
  6
CONTINUOUS
 62
     3
  5
C3
 10
64.664001
 20
29.5
 30
0.0
 11
69.075348
 21
29.5
 31
0.0
  0
LINE
  8
LY_1
  6
CONTINUOUS
 62
     3
  5
C4
 10
64.375336
 20
29.0
 30
0.0
 11
64.375336
 21
20.0
 31
0.0
  0
LINE
  8
LY_1
  6
CONTINUOUS
 62
     3
  5
C5
 10
69.675385
 20
30.5
 30
0.0
 11
69.675385
 21
18.5
 31
0.0
  0
LINE
  8
LY_1
  6
CENTER
 62
   110
  5
C6
 10
59.375336
 20
24.5
 30
0.0
 11
76.075333
 21
24.5
 31
0.0
  0
LINE
  8
LY_1
  6
CENTER
 62
   110
  5
C7
 10
62.351257
 20
0.0
 30
0.0
 11
123.999313
 21
0.0
 31
0.0
  0
LINE
  8
LY_1
  6
CONTINUOUS
 62
     3
  5
C8
 10
76.075378
 20
50.787567
 30
0.0
 11
110.275391
 21
50.787567
 31
0.0
  0
LINE
  8
LY_1
  6
CONTINUOUS
 62
     3
  5
C9
 10
76.075364
 20
43.99997
 30
0.0
 11
69.675382
 21
43.121384
 31
0.0
  0
LINE
  8
LY_1
  6
CONTINUOUS
 62
     3
  5
CA
 10
78.175385
 20
52.000006
 30
0.0
 11
76.07539
 21
50.787573
 31
0.0
  0
LINE
  8
LY_1
  6
CONTINUOUS
 62
     3
  5
CB
 10
76.075378
 20
50.787567
 30
0.0
 11
76.075378
 21
44.0
 31
0.0
  0
LINE
  8
LY_1
  6
CONTINUOUS
 62
     3
  5
CC
 10
69.675385
 20
43.121384
 30
0.0
 11
69.675385
 21
36.5
 31
0.0
  0
LINE
  8
LY_1
  6
CONTINUOUS
 62
     3
  5
CD
 10
110.275366
 20
44.000015
 30
0.0
 11
116.675379
 21
43.121425
 31
0.0
  0
LINE
  8
LY_1
  6
CONTINUOUS
 62
     3
  5
CE
 10
108.175413
 20
51.999986
 30
0.0
 11
110.275408
 21
50.787553
 31
0.0
  0
LINE
  8
LY_1
  6
CONTINUOUS
 62
     3
  5
CF
 10
110.275391
 20
50.787567
 30
0.0
 11
110.275391
 21
44.0
 31
0.0
  0
LINE
  8
LY_1
  6
CONTINUOUS
 62
     3
  5
D0
 10
78.175369
 20
52.0
 30
0.0
 11
108.1754
 21
52.0
 31
0.0
  0
LINE
  8
LY_1
  6
CONTINUOUS
 62
     3
  5
D1
 10
76.075378
 20
44.0
 30
0.0
 11
110.275391
 21
44.0
 31
0.0
  0
LINE
  8
LY_1
  6
CONTINUOUS
 62
     3
  5
D2
 10
70.175385
 20
36.5
 30
0.0
 11
70.175385
 21
19.672318
 31
0.0
  0
LINE
  8
LY_1
  6
CONTINUOUS
 62
     3
  5
D3
 10
116.175385
 20
36.5
 30
0.0
 11
116.175385
 21
19.672318
 31
0.0
  0
LINE
  8
LY_1
  6
CONTINUOUS
 62
     3
  5
D4
 10
116.675385
 20
43.121429
 30
0.0
 11
116.675385
 21
36.5
 31
0.0
  0
LINE
  8
LY_1
  6
CONTINUOUS
 62
     3
  5
D5
 10
69.675385
 20
36.5
 30
0.0
 11
116.675385
 21
36.5
 31
0.0
  0
LINE
  8
LY_1
  6
CONTINUOUS
 62
     3
  5
D6
 10
69.675385
 20
40.0
 30
0.0
 11
116.675385
 21
40.0
 31
0.0
  0
LINE
  8
LY_1
  6
CONTINUOUS
 62
     3
  5
D7
 10
71.675398
 20
12.413039
 30
0.0
 11
93.1754
 21
24.826072
 31
0.0
  0
LINE
  8
LY_1
  6
CONTINUOUS
 62
     3
  5
D8
 10
93.175398
 20
-24.826052
 30
0.0
 11
114.6754
 21
-12.41302
 31
0.0
  0
LINE
  8
LY_1
  6
CONTINUOUS
 62
     3
  5
D9
 10
93.175398
 20
24.826052
 30
0.0
 11
114.6754
 21
12.41302
 31
0.0
  0
LINE
  8
LY_1
  6
CONTINUOUS
 62
     3
  5
DA
 10
71.675398
 20
-12.413039
 30
0.0
 11
93.1754
 21
-24.826072
 31
0.0
  0
LINE
  8
LY_1
  6
CONTINUOUS
 62
     3
  5
DB
 10
114.675385
 20
12.413031
 30
0.0
 11
114.675385
 21
-12.413031
 31
0.0
  0
LINE
  8
LY_1
  6
CONTINUOUS
 62
     3
  5
DC
 10
71.675385
 20
12.413031
 30
0.0
 11
71.675385
 21
-12.413031
 31
0.0
  0
LINE
  8
LY_1
  6
CENTER
 62
   110
  5
DD
 10
93.175385
 20
57.0
 30
0.0
 11
93.175385
 21
-31.0
 31
0.0
  0
LINE
  8
LY_1
  6
CONTINUOUS
 62
     3
  5
DE
 10
-17.100006
 20
50.787567
 30
0.0
 11
17.100006
 21
50.787567
 31
0.0
  0
LINE
  8
LY_1
  6
CONTINUOUS
 62
     3
  5
DF
 10
-17.100005
 20
43.999992
 30
0.0
 11
-23.500006
 21
43.121404
 31
0.0
  0
LINE
  8
LY_1
  6
CONTINUOUS
 62
     3
  5
E0
 10
-15.00001
 20
51.999998
 30
0.0
 11
-17.100006
 21
50.787565
 31
0.0
  0
LINE
  8
LY_1
  6
CONTINUOUS
 62
     3
  5
E1
 10
-17.100006
 20
50.787567
 30
0.0
 11
-17.100006
 21
44.0
 31
0.0
  0
LINE
  8
LY_1
  6
CONTINUOUS
 62
     3
  5
E2
 10
-23.5
 20
43.121414
 30
0.0
 11
-23.5
 21
36.5
 31
0.0
  0
LINE
  8
LY_1
  6
CONTINUOUS
 62
     3
  5
E3
 10
17.100006
 20
43.999992
 30
0.0
 11
23.500006
 21
43.121404
 31
0.0
  0
LINE
  8
LY_1
  6
CONTINUOUS
 62
     3
  5
E4
 10
15.00001
 20
51.999998
 30
0.0
 11
17.100006
 21
50.787565
 31
0.0
  0
LINE
  8
LY_1
  6
CONTINUOUS
 62
     3
  5
E5
 10
17.100006
 20
50.787567
 30
0.0
 11
17.100006
 21
44.0
 31
0.0
  0
LINE
  8
LY_1
  6
CONTINUOUS
 62
     3
  5
E6
 10
-15.00001
 20
52.0
 30
0.0
 11
15.00001
 21
52.0
 31
0.0
  0
LINE
  8
LY_1
  6
CONTINUOUS
 62
     3
  5
E7
 10
-17.100006
 20
44.0
 30
0.0
 11
17.100006
 21
44.0
 31
0.0
  0
LINE
  8
LY_1
  6
CONTINUOUS
 62
     3
  5
E8
 10
-14.88675
 20
19.500001
 30
0.0
 11
-17.7735
 21
24.499997
 31
0.0
  0
LINE
  8
LY_1
  6
CONTINUOUS
 62
     3
  5
E9
 10
-6.226496
 20
24.500001
 30
0.0
 11
-9.113246
 21
29.499997
 31
0.0
  0
LINE
  8
LY_1
  6
CONTINUOUS
 62
     3
  5
EA
 10
-17.773501
 20
24.5
 30
0.0
 11
-14.886752
 21
29.499996
 31
0.0
  0
LINE
  8
LY_1
  6
CONTINUOUS
 62
     3
  5
EB
 10
-9.113247
 20
19.5
 30
0.0
 11
-6.226498
 21
24.499996
 31
0.0
  0
LINE
  8
LY_1
  6
CONTINUOUS
 62
     3
  5
EC
 10
-14.88675
 20
29.5
 30
0.0
 11
-9.113247
 21
29.5
 31
0.0
  0
LINE
  8
LY_1
  6
CONTINUOUS
 62
     3
  5
ED
 10
-14.88675
 20
19.5
 30
0.0
 11
-9.113247
 21
19.5
 31
0.0
  0
LINE
  8
LY_1
  6
CENTER
 62
   110
  5
EE
 10
-12.0
 20
35.470245
 30
0.0
 11
-12.0
 21
13.529756
 31
0.0
  0
LINE
  8
LY_1
  6
CENTER
 62
   110
  5
EF
 10
-22.960327
 20
24.5
 30
0.0
 11
-0.999999
 21
24.5
 31
0.0
  0
LINE
  8
LY_1
  6
CONTINUOUS
 62
     3
  5
F0
 10
-23.0
 20
36.5
 30
0.0
 11
-23.0
 21
23.573486
 31
0.0
  0
LINE
  8
LY_1
  6
CONTINUOUS
 62
     3
  5
F1
 10
23.0
 20
36.5
 30
0.0
 11
23.0
 21
23.573486
 31
0.0
  0
LINE
  8
LY_1
  6
CONTINUOUS
 62
     3
  5
F2
 10
23.5
 20
43.121414
 30
0.0
 11
23.5
 21
36.5
 31
0.0
  0
LINE
  8
LY_1
  6
CONTINUOUS
 62
     3
  5
F3
 10
-23.5
 20
36.5
 30
0.0
 11
23.5
 21
36.5
 31
0.0
  0
LINE
  8
LY_1
  6
CONTINUOUS
 62
     3
  5
F4
 10
-23.5
 20
40.0
 30
0.0
 11
23.5
 21
40.0
 31
0.0
  0
LINE
  8
LY_1
  6
CONTINUOUS
 62
     3
  5
F5
 10
-29.124251
 20
22.697666
 30
0.0
 11
-29.500008
 21
24.10001
 31
0.0
  0
LINE
  8
LY_1
  6
CONTINUOUS
 62
     3
  5
F6
 10
-29.5
 20
24.100006
 30
0.0
 11
-40.0
 21
24.100006
 31
0.0
  0
LINE
  8
LY_1
  6
CONTINUOUS
 62
     3
  5
F7
 10
29.124251
 20
22.697666
 30
0.0
 11
29.500008
 21
24.10001
 31
0.0
  0
LINE
  8
LY_1
  6
CONTINUOUS
 62
     3
  5
F8
 10
29.5
 20
24.100006
 30
0.0
 11
40.0
 21
24.100006
 31
0.0
  0
LINE
  8
LY_1
  6
CONTINUOUS
 62
     3
  5
F9
 10
-29.124251
 20
-22.697666
 30
0.0
 11
-29.500008
 21
-24.10001
 31
0.0
  0
LINE
  8
LY_1
  6
CONTINUOUS
 62
     3
  5
FA
 10
-29.500015
 20
-24.100006
 30
0.0
 11
-40.0
 21
-24.100006
 31
0.0
  0
LINE
  8
LY_1
  6
CONTINUOUS
 62
     3
  5
FB
 10
-29.5
 20
24.100006
 30
0.0
 11
-29.5
 21
-24.100006
 31
0.0
  0
LINE
  8
LY_1
  6
CONTINUOUS
 62
     3
  5
FC
 10
-40.0
 20
24.100006
 30
0.0
 11
-40.0
 21
-24.100006
 31
0.0
  0
LINE
  8
LY_1
  6
CONTINUOUS
 62
     3
  5
FD
 10
29.124251
 20
-22.697666
 30
0.0
 11
29.500008
 21
-24.10001
 31
0.0
  0
LINE
  8
LY_1
  6
CONTINUOUS
 62
     3
  5
FE
 10
29.500015
 20
-24.100006
 30
0.0
 11
40.0
 21
-24.100006
 31
0.0
  0
LINE
  8
LY_1
  6
CONTINUOUS
 62
     3
  5
FF
 10
29.5
 20
24.100006
 30
0.0
 11
29.5
 21
-24.100006
 31
0.0
  0
LINE
  8
LY_1
  6
CONTINUOUS
 62
     3
  5
100
 10
40.0
 20
24.100006
 30
0.0
 11
40.0
 21
-24.100006
 31
0.0
  0
LINE
  8
LY_1
  6
CENTER
 62
   110
  5
101
 10
-45.0
 20
0.0
 30
0.0
 11
45.0
 21
0.0
 31
0.0
  0
LINE
  8
LY_1
  6
CENTER
 62
   110
  5
102
 10
0.0
 20
148.425735
 30
0.0
 11
0.0
 21
86.425735
 31
0.0
  0
ENDSEC
  0
EOF
