  0
SECTION
  2
HEADER
  9
$ACADVER
  1
AC1009
  9
$DWGCODEPAGE
  3
dos932
  9
$INSBASE
 10
0.0
 20
0.0
 30
0.0
  9
$EXTMIN
 10
-36.74281
 20
-68.114703
 30
0.0
  9
$EXTMAX
 10
109.310303
 20
104.662659
 30
0.0
  9
$LIMMIN
 10
-36.74281
 20
-68.114703
  9
$LIMMAX
 10
109.310303
 20
104.662659
  9
$ORTHOMODE
 70
     0
  9
$REGENMODE
 70
     1
  9
$FILLMODE
 70
     1
  9
$QTEXTMODE
 70
     0
  9
$MIRRTEXT
 70
     1
  9
$DRAGMODE
 70
     2
  9
$LTSCALE
 40
1.0
  9
$OSMODE
 70
     0
  9
$ATTMODE
 70
     1
  9
$TEXTSIZE
 40
3.3
  9
$TRACEWID
 40
0.05
  9
$TEXTSTYLE
  7
MX_NOTE_STANDARD
  9
$CLAYER
  8
LY_1
  9
$CELTYPE
  6
CONTINUOUS
  9
$CECOLOR
 62
   256
  9
$DIMSCALE
 40
1.0
  9
$DIMASZ
 40
2.5
  9
$DIMEXO
 40
0.0
  9
$DIMDLI
 40
3.75
  9
$DIMRND
 40
0.0
  9
$DIMDLE
 40
0.0
  9
$DIMEXE
 40
1.1938
  9
$DIMTP
 40
0.0
  9
$DIMTM
 40
0.0
  9
$DIMTXT
 40
3.3
  9
$DIMCEN
 40
2.5
  9
$DIMTSZ
 40
0.0
  9
$DIMTOL
 70
     0
  9
$DIMLIM
 70
     0
  9
$DIMTIH
 70
     0
  9
$DIMTOH
 70
     0
  9
$DIMSE1
 70
     0
  9
$DIMSE2
 70
     0
  9
$DIMTAD
 70
     1
  9
$DIMZIN
 70
     8
  9
$DIMBLK
  1

  9
$DIMASO
 70
     1
  9
$DIMSHO
 70
     1
  9
$DIMPOST
  1

  9
$DIMAPOST
  1

  9
$DIMALT
 70
     0
  9
$DIMALTD
 70
     4
  9
$DIMALTF
 40
0.03937
  9
$DIMLFAC
 40
1.0
  9
$DIMTOFL
 70
     1
  9
$DIMTVP
 40
0.0
  9
$DIMTIX
 70
     0
  9
$DIMSOXD
 70
     0
  9
$DIMSAH
 70
     1
  9
$DIMBLK1
  1
_OPEN30
  9
$DIMBLK2
  1
_OPEN30
  9
$DIMSTYLE
  2
MXDIMSTYLE
  9
$DIMCLRD
 70
     0
  9
$DIMCLRE
 70
     0
  9
$DIMCLRT
 70
     0
  9
$DIMTFAC
 40
1.0
  9
$DIMGAP
 40
1.0
  9
$LUNITS
 70
     2
  9
$LUPREC
 70
     4
  9
$AXISMODE
 70
     0
  9
$AXISUNIT
 10
0.0
 20
0.0
  9
$SKETCHINC
 40
0.1
  9
$FILLETRAD
 40
0.0
  9
$AUNITS
 70
     0
  9
$AUPREC
 70
     0
  9
$MENU
  1
acad
  9
$ELEVATION
 40
0.0
  9
$PELEVATION
 40
0.0
  9
$THICKNESS
 40
0.0
  9
$LIMCHECK
 70
     0
  9
$BLIPMODE
 70
     1
  9
$CHAMFERA
 40
0.0
  9
$CHAMFERB
 40
0.0
  9
$SKPOLY
 70
     0
  9
$TDCREATE
 40
2454901.550243055
  9
$TDUPDATE
 40
2454901.550243055
  9
$TDINDWG
 40
0.0000000000
  9
$TDUSRTIMER
 40
0.0000000000
  9
$USRTIMER
 70
     1
  9
$ANGBASE
 50
0.0
  9
$ANGDIR
 70
     0
  9
$PDMODE
 70
     0
  9
$PDSIZE
 40
0.0
  9
$PLINEWID
 40
0.0
  9
$COORDS
 70
     1
  9
$SPLFRAME
 70
     0
  9
$SPLINETYPE
 70
     6
  9
$SPLINESEGS
 70
     8
  9
$ATTDIA
 70
     0
  9
$ATTREQ
 70
     1
  9
$HANDLING
 70
     1
  9
$HANDSEED
  5
13A
  9
$SURFTAB1
 70
     6
  9
$SURFTAB2
 70
     6
  9
$SURFTYPE
 70
     6
  9
$SURFU
 70
     6
  9
$SURFV
 70
     6
  9
$UCSNAME
  2

  9
$UCSORG
 10
0.0
 20
0.0
 30
0.0
  9
$UCSXDIR
 10
1.0
 20
0.0
 30
0.0
  9
$UCSYDIR
 10
0.0
 20
1.0
 30
0.0
  9
$PUCSNAME
  2

  9
$PUCSORG
 10
0.0
 20
0.0
 30
0.0
  9
$PUCSXDIR
 10
1.0
 20
0.0
 30
0.0
  9
$PUCSYDIR
 10
0.0
 20
1.0
 30
0.0
  9
$USERI1
 70
     0
  9
$USERI2
 70
     0
  9
$USERI3
 70
     0
  9
$USERI4
 70
     0
  9
$USERI5
 70
     0
  9
$USERR1
 40
0.0
  9
$USERR2
 40
0.0
  9
$USERR3
 40
0.0
  9
$USERR4
 40
0.0
  9
$USERR5
 40
0.0
  9
$WORLDVIEW
 70
     1
  9
$SHADEDGE
 70
     3
  9
$SHADEDIF
 70
    70
  9
$TILEMODE
 70
     1
  9
$MAXACTVP
 70
    16
  9
$PINSBASE
 10
0.0
 20
0.0
 30
0.0
  9
$PLIMCHECK
 70
     0
  9
$PEXTMIN
 10
1.000000E+20
 20
1.000000E+20
 30
1.000000E+20
  9
$PEXTMAX
 10
-1.000000E+20
 20
-1.000000E+20
 30
-1.000000E+20
  9
$PLIMMIN
 10
0.0
 20
0.0
  9
$PLIMMAX
 10
12.0
 20
9.0
  9
$UNITMODE
 70
     0
  9
$VISRETAIN
 70
     0
  9
$PLINEGEN
 70
     1
  9
$PSLTSCALE
 70
     0
  9
$TREEDEPTH
 70
  3020
  0
ENDSEC
  0
SECTION
  2
TABLES
  0
TABLE
  2
VPORT
 70
     1
  0
VPORT
  2
*ACTIVE
 70
     0
 10
0.0
 20
0.0
 11
1.0
 21
1.0
 12
36.283746
 22
18.273978
 13
0.0
 23
0.0
 14
1.0
 24
1.0
 15
0.0
 25
0.0
 16
0.0
 26
0.0
 36
1.0
 17
0.0
 27
0.0
 37
0.0
 40
174.505135
 41
1.732051
 42
50.0
 43
0.0
 44
0.0
 50
0.0
 51
0.0
 71
     0
 72
   100
 73
     1
 74
     1
 75
     0
 76
     0
 77
     0
 78
     0
  0
ENDTAB
  0
TABLE
  2
LTYPE
 70
     2
  0
LTYPE
  2
CONTINUOUS
 70
    64
  3
Solid line
 72
    65
 73
     0
 40
0.0
  0
LTYPE
  2
CENTER
 70
    64
  3
Center ____ _ ____ _ ____ _ ____ _ ____ _ ____
 72
    65
 73
     4
 40
50.8
 49
31.75
 49
-6.35
 49
6.35
 49
-6.35
  0
ENDTAB
  0
TABLE
  2
LAYER
 70
     3
  0
LAYER
  2
0
 70
     0
 62
     7
  6
CONTINUOUS
  0
LAYER
  2
LY_1
 70
     0
 62
     7
  6
CONTINUOUS
  0
LAYER
  2
DEFPOINTS
 70
     0
 62
     7
  6
CONTINUOUS
  0
ENDTAB
  0
TABLE
  2
STYLE
 70
     2
  0
STYLE
  2
MX_NOTE_STANDARD
 70
     0
 40
0.0
 41
1.0
 50
0.0
 71
     0
 42
3.3
  3
txt.shx
  4
extfont.shx
  0
STYLE
  2
MX_DIMTXSTY_2
 70
     0
 40
0.0
 41
0.85
 50
0.0
 71
     0
 42
3.3
  3
txt.shx
  4
extfont.shx
  0
ENDTAB
  0
TABLE
  2
VIEW
 70
     0
  0
ENDTAB
  0
TABLE
  2
UCS
 70
     0
  0
ENDTAB
  0
TABLE
  2
APPID
 70
     1
  0
APPID
  2
ACAD
 70
     0
  0
ENDTAB
  0
TABLE
  2
DIMSTYLE
 70
     1
  0
DIMSTYLE
  2
MXDIMSTYLE
 70
     0
  3

  4

  5

  6
_OPEN30
  7
_OPEN30
 40
1.0
 41
2.5
 42
0.0
 43
3.75
 44
1.1938
 45
0.0
 46
0.0
 47
0.0
 48
0.0
 71
     0
 72
     0
 73
     0
 74
     0
 75
     0
 76
     0
 77
     1
 78
     8
140
3.3
141
2.5
142
0.0
143
0.03937
144
1.0
145
0.0
146
1.0
147
1.0
170
     0
171
     4
172
     1
173
     1
174
     0
175
     0
176
     0
177
     0
178
     0
  0
ENDTAB
  0
ENDSEC
  0
SECTION
  2
BLOCKS
  0
BLOCK
  8
0
  6
BYBLOCK
 62
     0
  5
20
  2
_OPEN30
 70
     2
 10
0.0
 20
0.0
 30
0.0
  3
_OPEN30
  0
LINE
  8
0
  6
BYBLOCK
 62
     0
  5
21
 10
-1.0
 20
0.267949
 30
0.0
 11
0.0
 21
0.0
 31
0.0
  0
LINE
  8
0
  6
BYBLOCK
 62
     0
  5
22
 10
0.0
 20
0.0
 30
0.0
 11
-1.0
 21
-0.267949
 31
0.0
  0
LINE
  8
0
  6
BYBLOCK
 62
     0
  5
23
 10
0.0
 20
0.0
 30
0.0
 11
-1.0
 21
0.0
 31
0.0
  0
ENDBLK
  8
0
  6
BYBLOCK
 62
     0
  5
24
  0
BLOCK
  8
0
  6
BYBLOCK
 62
     0
  5
26
  2
*D1
 70
     1
 10
0.0
 20
0.0
 30
0.0
  3
*D1
  0
LINE
  8
0
  6
CONTINUOUS
 62
   110
  5
27
 10
43.0
 20
38.5
 30
0.0
 11
43.0
 21
0.0
 31
0.0
  0
LINE
  8
0
  6
CONTINUOUS
 62
   110
  5
28
 10
9.000005
 20
38.5
 30
0.0
 11
44.193787
 21
38.5
 31
0.0
  0
LINE
  8
0
  6
CONTINUOUS
 62
   110
  5
29
 10
35.0
 20
0.0
 30
0.0
 11
44.193787
 21
0.0
 31
0.0
  0
INSERT
  8
0
  6
CONTINUOUS
 62
   110
  5
30
  2
_OPEN
 10
43.0
 20
38.5
 30
0.0
 41
2.19
 42
2.19
 50
90.0
 43
2.19
  0
INSERT
  8
0
  6
CONTINUOUS
 62
   110
  5
31
  2
_OPEN
 10
43.0
 20
0.0
 30
0.0
 41
2.19
 42
2.19
 50
270.0
 43
2.19
  0
TEXT
  8
0
  6
CONTINUOUS
 62
   110
  5
33
 10
42.0
 20
17.023346
 30
0.0
 40
3.3
  1
39
 50
90.0
 41
0.98743
  7
MX_DIMTXSTY_2
 11
40.35
 21
17.023346
 31
0.0
 73
     2
  0
POINT
  8
DEFPOINTS
  6
CONTINUOUS
 62
     0
  5
34
 10
9.000005
 20
38.5
 30
0.0
  0
POINT
  8
DEFPOINTS
  6
CONTINUOUS
 62
     0
  5
35
 10
35.0
 20
0.0
 30
0.0
  0
POINT
  8
DEFPOINTS
  6
CONTINUOUS
 62
     0
  5
36
 10
43.0
 20
0.0
 30
0.0
  0
ENDBLK
  8
0
  6
BYBLOCK
 62
     0
  5
37
  0
BLOCK
  8
0
  6
BYBLOCK
 62
     0
  5
2B
  2
_OPEN
 70
     2
 10
0.0
 20
0.0
 30
0.0
  3
_OPEN
  0
LINE
  8
0
  6
BYBLOCK
 62
     0
  5
2C
 10
-1.0
 20
0.166667
 30
0.0
 11
0.0
 21
0.0
 31
0.0
  0
LINE
  8
0
  6
BYBLOCK
 62
     0
  5
2D
 10
0.0
 20
0.0
 30
0.0
 11
-1.0
 21
-0.166667
 31
0.0
  0
LINE
  8
0
  6
BYBLOCK
 62
     0
  5
2E
 10
0.0
 20
0.0
 30
0.0
 11
-1.0
 21
0.0
 31
0.0
  0
ENDBLK
  8
0
  6
BYBLOCK
 62
     0
  5
2F
  0
BLOCK
  8
0
  6
BYBLOCK
 62
     0
  5
3A
  2
*D3
 70
     1
 10
0.0
 20
0.0
 30
0.0
  3
*D3
  0
LINE
  8
0
  6
CONTINUOUS
 62
   110
  5
3B
 10
30.0
 20
-31.0
 30
0.0
 11
-30.0
 21
-31.0
 31
0.0
  0
LINE
  8
0
  6
CONTINUOUS
 62
   110
  5
3C
 10
30.0
 20
-15.7
 30
0.0
 11
30.0
 21
-32.193787
 31
0.0
  0
LINE
  8
0
  6
CONTINUOUS
 62
   110
  5
3D
 10
-30.0
 20
-15.7
 30
0.0
 11
-30.0
 21
-32.193787
 31
0.0
  0
INSERT
  8
0
  6
CONTINUOUS
 62
   110
  5
3E
  2
_OPEN
 10
30.0
 20
-31.0
 30
0.0
 41
2.19
 42
2.19
 43
2.19
  0
INSERT
  8
0
  6
CONTINUOUS
 62
   110
  5
3F
  2
_OPEN
 10
-30.0
 20
-31.0
 30
0.0
 41
2.19
 42
2.19
 50
180.0
 43
2.19
  0
TEXT
  8
0
  6
CONTINUOUS
 62
   110
  5
40
 10
-2.177282
 20
-30.0
 30
0.0
 40
3.3
  1
60
 41
1.077196
  7
MX_DIMTXSTY_2
 11
-2.177282
 21
-28.35
 31
0.0
 73
     2
  0
POINT
  8
DEFPOINTS
  6
CONTINUOUS
 62
     0
  5
41
 10
30.0
 20
-15.7
 30
0.0
  0
POINT
  8
DEFPOINTS
  6
CONTINUOUS
 62
     0
  5
42
 10
-30.0
 20
-15.7
 30
0.0
  0
POINT
  8
DEFPOINTS
  6
CONTINUOUS
 62
     0
  5
43
 10
-30.0
 20
-31.0
 30
0.0
  0
ENDBLK
  8
0
  6
BYBLOCK
 62
     0
  5
44
  0
ENDSEC
  0
SECTION
  2
ENTITIES
  0
DIMENSION
  8
LY_1
  6
CONTINUOUS
 62
   110
  5
38
  2
*D1
 10
43.0
 20
0.0
 30
0.0
 11
43.0
 21
19.25
 31
0.0
 70
   128
  1
<>
 13
9.000005
 23
38.5
 33
0.0
 14
35.0
 24
0.0
 34
0.0
 50
90.0
  3
MXDIMSTYLE
1001
ACAD
1000
DSTYLE
1002
{
1070
     6
1000
_OPEN
1070
     7
1000
_OPEN
1070
    41
1040
2.19
1070
    44
1040
1.193787
1070
   271
1070
     0
1070
   284
1070
     8
1070
   340
1005
32
1070
   343
1005
2A
1070
   344
1005
2A
1002
}
  0
DIMENSION
  8
LY_1
  6
CONTINUOUS
 62
   110
  5
45
  2
*D3
 10
-30.0
 20
-31.0
 30
0.0
 11
0.0
 21
-31.0
 31
0.0
 70
   128
  1
<>
 13
30.0
 23
-15.7
 33
0.0
 14
-30.0
 24
-15.7
 34
0.0
  3
MXDIMSTYLE
1001
ACAD
1000
DSTYLE
1002
{
1070
     6
1000
_OPEN
1070
     7
1000
_OPEN
1070
    41
1040
2.19
1070
    44
1040
1.193787
1070
   271
1070
     0
1070
   284
1070
     8
1070
   340
1005
32
1070
   343
1005
2A
1070
   344
1005
2A
1002
}
  0
TEXT
  8
LY_1
  6
CONTINUOUS
 62
   110
  5
46
 10
-36.081913
 20
-51.083591
 30
0.0
 40
4.167181
  1
      SWING CHECK VALVE 1/2
 41
0.951574
  7
MX_NOTE_STANDARD
 11
-36.081913
 21
-49.0
 31
0.0
 73
     2
  0
TEXT
  8
LY_1
  6
CONTINUOUS
 62
   110
  5
47
 10
-36.109061
 20
-67.083591
 30
0.0
 40
4.167181
  1
KITZ
 41
0.912486
  7
MX_NOTE_STANDARD
 11
-36.109061
 21
-65.0
 31
0.0
 73
     2
  0
TEXT
  8
LY_1
  6
CONTINUOUS
 62
   110
  5
48
 10
-36.028544
 20
-59.083591
 30
0.0
 40
4.167181
  1
FIG   R1/2
 41
1.028417
  7
MX_NOTE_STANDARD
 11
-36.028544
 21
-57.0
 31
0.0
 73
     2
  0
TEXT
  8
LY_1
  6
CONTINUOUS
 62
   110
  5
49
 10
-36.10692
 20
-43.083591
 30
0.0
 40
4.167181
  1
NAME  CLASS 125 CAST BRONZE
 41
0.915569
  7
MX_NOTE_STANDARD
 11
-36.10692
 21
-41.0
 31
0.0
 73
     2
  0
POLYLINE
  8
LY_1
  6
CONTINUOUS
 62
     3
  5
4A
 66
     1
 10
0.0
 20
0.0
 30
0.0
  0
VERTEX
  8
LY_1
  6
CONTINUOUS
 62
     3
  5
100
 10
8.251051
 20
-1.134675
 30
0.0
  0
VERTEX
  8
LY_1
  6
CONTINUOUS
 62
     3
  5
101
 10
8.248312
 20
-1.137089
 30
0.0
  0
VERTEX
  8
LY_1
  6
CONTINUOUS
 62
     3
  5
102
 10
8.245937
 20
-1.139848
 30
0.0
  0
VERTEX
  8
LY_1
  6
CONTINUOUS
 62
     3
  5
103
 10
8.243971
 20
-1.1429
 30
0.0
  0
VERTEX
  8
LY_1
  6
CONTINUOUS
 62
     3
  5
104
 10
8.242452
 20
-1.146187
 30
0.0
  0
VERTEX
  8
LY_1
  6
CONTINUOUS
 62
     3
  5
105
 10
8.241408
 20
-1.149647
 30
0.0
  0
VERTEX
  8
LY_1
  6
CONTINUOUS
 62
     3
  5
106
 10
8.240859
 20
-1.153214
 30
0.0
  0
VERTEX
  8
LY_1
  6
CONTINUOUS
 62
     3
  5
107
 10
8.240815
 20
-1.156821
 30
0.0
  0
VERTEX
  8
LY_1
  6
CONTINUOUS
 62
     3
  5
108
 10
8.241277
 20
-1.1604
 30
0.0
  0
VERTEX
  8
LY_1
  6
CONTINUOUS
 62
     3
  5
109
 10
8.242236
 20
-1.163884
 30
0.0
  0
VERTEX
  8
LY_1
  6
CONTINUOUS
 62
     3
  5
10A
 10
8.243674
 20
-1.167205
 30
0.0
  0
VERTEX
  8
LY_1
  6
CONTINUOUS
 62
     3
  5
10B
 10
8.245565
 20
-1.170302
 30
0.0
  0
VERTEX
  8
LY_1
  6
CONTINUOUS
 62
     3
  5
10C
 10
8.247871
 20
-1.173116
 30
0.0
  0
VERTEX
  8
LY_1
  6
CONTINUOUS
 62
     3
  5
10D
 10
8.250551
 20
-1.175593
 30
0.0
  0
VERTEX
  8
LY_1
  6
CONTINUOUS
 62
     3
  5
10E
 10
8.253552
 20
-1.177687
 30
0.0
  0
VERTEX
  8
LY_1
  6
CONTINUOUS
 62
     3
  5
10F
 10
8.256818
 20
-1.179359
 30
0.0
  0
VERTEX
  8
LY_1
  6
CONTINUOUS
 62
     3
  5
110
 10
8.260288
 20
-1.180576
 30
0.0
  0
VERTEX
  8
LY_1
  6
CONTINUOUS
 62
     3
  5
111
 10
8.263895
 20
-1.181315
 30
0.0
  0
VERTEX
  8
LY_1
  6
CONTINUOUS
 62
     3
  5
112
 10
8.267572
 20
-1.181563
 30
0.0
  0
VERTEX
  8
LY_1
  6
CONTINUOUS
 62
     3
  5
113
 10
8.267572
 20
-1.181563
 30
0.0
  0
SEQEND
  8
LY_1
  6
CONTINUOUS
 62
     3
  5
114
  0
POLYLINE
  8
LY_1
  6
CONTINUOUS
 62
     3
  5
4B
 66
     1
 10
0.0
 20
0.0
 30
0.0
  0
VERTEX
  8
LY_1
  6
CONTINUOUS
 62
     3
  5
115
 10
9.928083
 20
1.988972
 30
0.0
  0
VERTEX
  8
LY_1
  6
CONTINUOUS
 62
     3
  5
116
 10
9.930984
 20
1.991551
 30
0.0
  0
VERTEX
  8
LY_1
  6
CONTINUOUS
 62
     3
  5
117
 10
9.93347
 20
1.994517
 30
0.0
  0
VERTEX
  8
LY_1
  6
CONTINUOUS
 62
     3
  5
118
 10
9.935487
 20
1.997807
 30
0.0
  0
VERTEX
  8
LY_1
  6
CONTINUOUS
 62
     3
  5
119
 10
9.936993
 20
2.001349
 30
0.0
  0
VERTEX
  8
LY_1
  6
CONTINUOUS
 62
     3
  5
11A
 10
9.937954
 20
2.005068
 30
0.0
  0
VERTEX
  8
LY_1
  6
CONTINUOUS
 62
     3
  5
11B
 10
9.938351
 20
2.008885
 30
0.0
  0
VERTEX
  8
LY_1
  6
CONTINUOUS
 62
     3
  5
11C
 10
9.938175
 20
2.012718
 30
0.0
  0
VERTEX
  8
LY_1
  6
CONTINUOUS
 62
     3
  5
11D
 10
9.93743
 20
2.016484
 30
0.0
  0
VERTEX
  8
LY_1
  6
CONTINUOUS
 62
     3
  5
11E
 10
9.936132
 20
2.020104
 30
0.0
  0
VERTEX
  8
LY_1
  6
CONTINUOUS
 62
     3
  5
11F
 10
9.934308
 20
2.023499
 30
0.0
  0
VERTEX
  8
LY_1
  6
CONTINUOUS
 62
     3
  5
120
 10
9.931997
 20
2.026598
 30
0.0
  0
VERTEX
  8
LY_1
  6
CONTINUOUS
 62
     3
  5
121
 10
9.929249
 20
2.029334
 30
0.0
  0
VERTEX
  8
LY_1
  6
CONTINUOUS
 62
     3
  5
122
 10
9.926123
 20
2.031649
 30
0.0
  0
VERTEX
  8
LY_1
  6
CONTINUOUS
 62
     3
  5
123
 10
9.922686
 20
2.033492
 30
0.0
  0
VERTEX
  8
LY_1
  6
CONTINUOUS
 62
     3
  5
124
 10
9.91901
 20
2.034825
 30
0.0
  0
VERTEX
  8
LY_1
  6
CONTINUOUS
 62
     3
  5
125
 10
9.915176
 20
2.035619
 30
0.0
  0
VERTEX
  8
LY_1
  6
CONTINUOUS
 62
     3
  5
126
 10
9.913372
 20
2.035799
 30
0.0
  0
VERTEX
  8
LY_1
  6
CONTINUOUS
 62
     3
  5
127
 10
9.911561
 20
2.035859
 30
0.0
  0
SEQEND
  8
LY_1
  6
CONTINUOUS
 62
     3
  5
128
  0
POLYLINE
  8
LY_1
  6
CONTINUOUS
 62
     3
  5
4C
 66
     1
 10
0.0
 20
0.0
 30
0.0
  0
VERTEX
  8
LY_1
  6
CONTINUOUS
 62
     3
  5
129
 10
-10.24285
 20
0.021555
 30
0.0
  0
VERTEX
  8
LY_1
  6
CONTINUOUS
 62
     3
  5
12A
 10
-10.24573
 20
0.019302
 30
0.0
  0
VERTEX
  8
LY_1
  6
CONTINUOUS
 62
     3
  5
12B
 10
-10.248267
 20
0.016684
 30
0.0
  0
VERTEX
  8
LY_1
  6
CONTINUOUS
 62
     3
  5
12C
 10
-10.250413
 20
0.013749
 30
0.0
  0
VERTEX
  8
LY_1
  6
CONTINUOUS
 62
     3
  5
12D
 10
-10.252127
 20
0.010554
 30
0.0
  0
VERTEX
  8
LY_1
  6
CONTINUOUS
 62
     3
  5
12E
 10
-10.253377
 20
0.00716
 30
0.0
  0
VERTEX
  8
LY_1
  6
CONTINUOUS
 62
     3
  5
12F
 10
-10.254139
 20
0.003629
 30
0.0
  0
VERTEX
  8
LY_1
  6
CONTINUOUS
 62
     3
  5
130
 10
-10.254398
 20
0.000029
 30
0.0
  0
VERTEX
  8
LY_1
  6
CONTINUOUS
 62
     3
  5
131
 10
-10.254151
 20
-0.003571
 30
0.0
  0
VERTEX
  8
LY_1
  6
CONTINUOUS
 62
     3
  5
132
 10
-10.253401
 20
-0.007104
 30
0.0
  0
VERTEX
  8
LY_1
  6
CONTINUOUS
 62
     3
  5
133
 10
-10.252163
 20
-0.010503
 30
0.0
  0
VERTEX
  8
LY_1
  6
CONTINUOUS
 62
     3
  5
134
 10
-10.25046
 20
-0.013704
 30
0.0
  0
VERTEX
  8
LY_1
  6
CONTINUOUS
 62
     3
  5
135
 10
-10.248324
 20
-0.016645
 30
0.0
  0
VERTEX
  8
LY_1
  6
CONTINUOUS
 62
     3
  5
136
 10
-10.245796
 20
-0.019272
 30
0.0
  0
VERTEX
  8
LY_1
  6
CONTINUOUS
 62
     3
  5
137
 10
-10.242924
 20
-0.021534
 30
0.0
  0
SEQEND
  8
LY_1
  6
CONTINUOUS
 62
     3
  5
138
  0
ARC
  8
LY_1
  6
CONTINUOUS
 62
     3
  5
4D
 10
11.031035
 20
1.906789
 30
0.0
 40
0.718903
 50
307.524111
 51
89.999982
  0
ARC
  8
LY_1
  6
CONTINUOUS
 62
     3
  5
4E
 10
11.027966
 20
-1.903584
 30
0.0
 40
0.722061
 50
270.000018
 51
89.999982
  0
ARC
  8
LY_1
  6
CONTINUOUS
 62
     3
  5
4F
 10
6.036145
 20
-1.906701
 30
0.0
 40
0.719027
 50
127.524112
 51
270.000001
  0
ARC
  8
LY_1
  6
CONTINUOUS
 62
     3
  5
50
 10
6.320309
 20
1.887976
 30
0.0
 40
0.737711
 50
89.999982
 51
359.999983
  0
ARC
  8
LY_1
  6
CONTINUOUS
 62
     3
  5
51
 10
3.814807
 20
1.90347
 30
0.0
 40
0.72203
 50
270.000018
 51
89.999982
  0
ARC
  8
LY_1
  6
CONTINUOUS
 62
     3
  5
52
 10
1.454942
 20
-1.887972
 30
0.0
 40
0.737733
 50
180.000036
 51
0.000001
  0
ARC
  8
LY_1
  6
CONTINUOUS
 62
     3
  5
53
 10
-1.13075
 20
1.887775
 30
0.0
 40
0.73767
 50
89.999982
 51
359.999983
  0
ARC
  8
LY_1
  6
CONTINUOUS
 62
     3
  5
54
 10
-3.662017
 20
-1.887972
 30
0.0
 40
0.737723
 50
180.000036
 51
0.000001
  0
ARC
  8
LY_1
  6
CONTINUOUS
 62
     3
  5
55
 10
-3.662017
 20
1.887976
 30
0.0
 40
0.737723
 50
0.000018
 51
180.000019
  0
ARC
  8
LY_1
  6
CONTINUOUS
 62
     3
  5
56
 10
-6.149673
 20
1.750748
 30
0.0
 40
0.875
 50
90.778951
 51
124.259063
  0
ARC
  8
LY_1
  6
CONTINUOUS
 62
     3
  5
57
 10
-6.172406
 20
1.90387
 30
0.0
 40
0.721884
 50
213.574514
 51
89.143203
  0
ARC
  8
LY_1
  6
CONTINUOUS
 62
     3
  5
58
 10
-6.185699
 20
-1.905318
 30
0.0
 40
0.727021
 50
235.740937
 51
55.740955
  0
ARC
  8
LY_1
  6
CONTINUOUS
 62
     3
  5
59
 10
-11.012356
 20
-1.888055
 30
0.0
 40
0.737679
 50
179.999964
 51
359.999983
  0
ARC
  8
LY_1
  6
CONTINUOUS
 62
     3
  5
5A
 10
-11.012356
 20
1.888059
 30
0.0
 40
0.737679
 50
0.000018
 51
180.000019
  0
CIRCLE
  8
LY_1
  6
CONTINUOUS
 62
     3
  5
5B
 10
-7.0
 20
16.0
 30
0.0
 40
5.5
  0
ARC
  8
LY_1
  6
CONTINUOUS
 62
     3
  5
5C
 10
0.0
 20
108.662659
 30
0.0
 40
45.0
 50
255.164902
 51
255.814425
  0
ARC
  8
LY_1
  6
CONTINUOUS
 62
     3
  5
5D
 10
0.0
 20
108.662659
 30
0.0
 40
45.0
 50
267.707533
 51
295.046212
  0
ARC
  8
LY_1
  6
CONTINUOUS
 62
     3
  5
5E
 10
-19.8974
 20
97.243088
 30
0.0
 40
2.0
 50
232.205576
 51
295.046322
  0
ARC
  8
LY_1
  6
CONTINUOUS
 62
     3
  5
5F
 10
-19.8974
 20
66.08223
 30
0.0
 40
2.0
 50
64.953678
 51
127.794424
  0
ARC
  8
LY_1
  6
CONTINUOUS
 62
     3
  5
60
 10
19.8974
 20
97.243088
 30
0.0
 40
2.0
 50
244.95366
 51
307.794436
  0
ARC
  8
LY_1
  6
CONTINUOUS
 62
     3
  5
61
 10
0.0
 20
54.662659
 30
0.0
 40
45.0
 50
64.953788
 51
115.050602
  0
ARC
  8
LY_1
  6
CONTINUOUS
 62
     3
  5
62
 10
19.8974
 20
66.08223
 30
0.0
 40
2.0
 50
52.205564
 51
115.04634
  0
ARC
  8
LY_1
  6
CONTINUOUS
 62
     3
  5
63
 10
0.0
 20
108.662659
 30
0.0
 40
45.0
 50
244.949398
 51
253.872357
  0
ARC
  8
LY_1
  6
CONTINUOUS
 62
     3
  5
64
 10
45.310303
 20
12.961481
 30
0.0
 40
25.0
 50
342.456499
 51
359.999999
  0
ARC
  8
LY_1
  6
CONTINUOUS
 62
     3
  5
65
 10
127.310303
 20
12.961481
 30
0.0
 40
25.0
 50
179.999981
 51
197.543513
  0
ARC
  8
LY_1
  6
CONTINUOUS
 62
     3
  5
66
 10
86.310303
 20
0.0
 30
0.0
 40
18.0
 50
162.456487
 51
17.543515
  0
CIRCLE
  8
LY_1
  6
CONTINUOUS
 62
     3
  5
67
 10
86.310303
 20
0.0
 30
0.0
 40
9.3155
  0
CIRCLE
  8
LY_1
  6
CONTINUOUS
 62
     3
  5
68
 10
86.310303
 20
0.0
 30
0.0
 40
10.4775
  0
CIRCLE
  8
LY_1
  6
CONTINUOUS
 62
     3
  5
69
 10
0.0
 20
81.662659
 30
0.0
 40
16.5
  0
CIRCLE
  8
LY_1
  6
CONTINUOUS
 62
     3
  5
6A
 10
0.0
 20
81.662659
 30
0.0
 40
9.0
  0
CIRCLE
  8
LY_1
  6
CONTINUOUS
 62
     3
  5
6B
 10
-7.0
 20
16.0
 30
0.0
 40
4.0
  0
ARC
  8
LY_1
  6
CONTINUOUS
 62
     3
  5
6C
 10
-19.0
 20
17.079468
 30
0.0
 40
3.0
 50
293.317901
 51
359.999909
  0
ARC
  8
LY_1
  6
CONTINUOUS
 62
     3
  5
6D
 10
0.0
 20
-27.0
 30
0.0
 40
45.0
 50
113.317975
 51
115.046231
  0
ARC
  8
LY_1
  6
CONTINUOUS
 62
     3
  5
6E
 10
19.0
 20
17.079468
 30
0.0
 40
3.0
 50
180.000091
 51
246.68208
  0
ARC
  8
LY_1
  6
CONTINUOUS
 62
     3
  5
6F
 10
-19.8974
 20
15.580432
 30
0.0
 40
2.0
 50
195.00006
 51
295.046322
  0
ARC
  8
LY_1
  6
CONTINUOUS
 62
     3
  5
70
 10
19.8974
 20
15.580432
 30
0.0
 40
2.0
 50
244.95366
 51
344.999952
  0
ARC
  8
LY_1
  6
CONTINUOUS
 62
     3
  5
71
 10
0.0
 20
-27.0
 30
0.0
 40
45.0
 50
64.953788
 51
66.682044
  0
ARC
  8
LY_1
  6
CONTINUOUS
 62
     3
  5
72
 10
-19.8974
 20
-15.580432
 30
0.0
 40
2.0
 50
64.953678
 51
164.99994
  0
ARC
  8
LY_1
  6
CONTINUOUS
 62
     3
  5
73
 10
19.8974
 20
-15.580432
 30
0.0
 40
2.0
 50
15.000048
 51
115.04634
  0
ARC
  8
LY_1
  6
CONTINUOUS
 62
     3
  5
74
 10
0.0
 20
27.0
 30
0.0
 40
45.0
 50
244.949398
 51
295.046212
  0
LINE
  8
LY_1
  6
CONTINUOUS
 62
     3
  5
75
 10
7.057985
 20
2.035845
 30
0.0
 11
7.057985
 21
1.887976
 31
0.0
  0
LINE
  8
LY_1
  6
CONTINUOUS
 62
     3
  5
76
 10
-0.393022
 20
2.035611
 30
0.0
 11
-0.393022
 21
1.887775
 31
0.0
  0
LINE
  8
LY_1
  6
CONTINUOUS
 62
     3
  5
77
 10
-0.393022
 20
2.035611
 30
0.0
 11
0.717246
 21
2.035611
 31
0.0
  0
LINE
  8
LY_1
  6
CONTINUOUS
 62
     3
  5
78
 10
2.192701
 20
1.181403
 30
0.0
 11
3.814807
 21
1.181403
 31
0.0
  0
LINE
  8
LY_1
  6
CONTINUOUS
 62
     3
  5
79
 10
2.192701
 20
1.181403
 30
0.0
 11
2.192701
 21
-1.887972
 31
0.0
  0
LINE
  8
LY_1
  6
CONTINUOUS
 62
     3
  5
7A
 10
0.717246
 20
2.035611
 30
0.0
 11
0.717246
 21
-1.887972
 31
0.0
  0
LINE
  8
LY_1
  6
CONTINUOUS
 62
     3
  5
7B
 10
-1.13075
 20
2.62542
 30
0.0
 11
3.814807
 21
2.62542
 31
0.0
  0
LINE
  8
LY_1
  6
CONTINUOUS
 62
     3
  5
7C
 10
7.057985
 20
2.035845
 30
0.0
 11
9.91151
 21
2.035845
 31
0.0
  0
LINE
  8
LY_1
  6
CONTINUOUS
 62
     3
  5
7D
 10
6.036145
 20
-2.625682
 30
0.0
 11
11.027966
 21
-2.625682
 31
0.0
  0
LINE
  8
LY_1
  6
CONTINUOUS
 62
     3
  5
7E
 10
11.027966
 20
-1.181566
 30
0.0
 11
8.26759
 21
-1.181566
 31
0.0
  0
LINE
  8
LY_1
  6
CONTINUOUS
 62
     3
  5
7F
 10
11.468956
 20
1.336633
 30
0.0
 11
8.251012
 21
-1.134733
 31
0.0
  0
LINE
  8
LY_1
  6
CONTINUOUS
 62
     3
  5
80
 10
9.928111
 20
1.988916
 30
0.0
 11
5.59824
 21
-1.336404
 31
0.0
  0
LINE
  8
LY_1
  6
CONTINUOUS
 62
     3
  5
81
 10
6.320309
 20
2.625687
 30
0.0
 11
11.031035
 21
2.625687
 31
0.0
  0
LINE
  8
LY_1
  6
CONTINUOUS
 62
     3
  5
82
 10
-4.399779
 20
-1.887972
 30
0.0
 11
-4.399779
 21
1.887976
 31
0.0
  0
LINE
  8
LY_1
  6
CONTINUOUS
 62
     3
  5
83
 10
-2.924291
 20
1.887976
 30
0.0
 11
-2.924291
 21
-1.887972
 31
0.0
  0
LINE
  8
LY_1
  6
CONTINUOUS
 62
     3
  5
84
 10
-8.337226
 20
0.439818
 30
0.0
 11
-6.773851
 21
1.504643
 31
0.0
  0
LINE
  8
LY_1
  6
CONTINUOUS
 62
     3
  5
85
 10
-8.337251
 20
0.439771
 30
0.0
 11
-5.776357
 21
-1.304471
 31
0.0
  0
LINE
  8
LY_1
  6
CONTINUOUS
 62
     3
  5
86
 10
-10.24293
 20
0.021467
 30
0.0
 11
-6.642252
 21
2.473914
 31
0.0
  0
LINE
  8
LY_1
  6
CONTINUOUS
 62
     3
  5
87
 10
-10.242878
 20
-0.021605
 30
0.0
 11
-6.594906
 21
-2.506264
 31
0.0
  0
LINE
  8
LY_1
  6
CONTINUOUS
 62
     3
  5
88
 10
-10.274713
 20
1.888059
 30
0.0
 11
-10.274713
 21
-1.888055
 31
0.0
  0
LINE
  8
LY_1
  6
CONTINUOUS
 62
     3
  5
89
 10
-11.750033
 20
1.888059
 30
0.0
 11
-11.750033
 21
-1.888055
 31
0.0
  0
LINE
  8
LY_1
  6
CONTINUOUS
 62
     3
  5
8A
 10
69.810302
 20
31.797087
 30
0.0
 11
102.810302
 21
31.797072
 31
0.0
  0
LINE
  8
LY_1
  6
CONTINUOUS
 62
     3
  5
8B
 10
69.810303
 20
29.5
 30
0.0
 11
102.810303
 21
29.5
 31
0.0
  0
LINE
  8
LY_1
  6
CONTINUOUS
 62
     3
  5
8C
 10
16.5
 20
31.797073
 30
0.0
 11
-16.5
 21
31.797073
 31
0.0
  0
LINE
  8
LY_1
  6
CONTINUOUS
 62
     3
  5
8D
 10
-22.0
 20
8.082904
 30
0.0
 11
-30.0
 21
8.082904
 31
0.0
  0
LINE
  8
LY_1
  6
CONTINUOUS
 62
     3
  5
8E
 10
22.0
 20
8.082904
 30
0.0
 11
30.0
 21
8.082904
 31
0.0
  0
LINE
  8
LY_1
  6
CONTINUOUS
 62
     3
  5
8F
 10
-22.0
 20
-8.082904
 30
0.0
 11
-30.0
 21
-8.082904
 31
0.0
  0
LINE
  8
LY_1
  6
CONTINUOUS
 62
     3
  5
90
 10
22.0
 20
-8.082904
 30
0.0
 11
30.0
 21
-8.082904
 31
0.0
  0
LINE
  8
LY_1
  6
CONTINUOUS
 62
     3
  5
91
 10
-12.5
 20
70.892334
 30
0.0
 11
-12.5
 21
65.162659
 31
0.0
  0
LINE
  8
LY_1
  6
CONTINUOUS
 62
     3
  5
92
 10
-1.5
 20
65.230988
 30
0.0
 11
-1.5
 21
65.162659
 31
0.0
  0
LINE
  8
LY_1
  6
CONTINUOUS
 62
     3
  5
93
 10
-12.5
 20
65.162659
 30
0.0
 11
-1.5
 21
65.162659
 31
0.0
  0
LINE
  8
LY_1
  6
CONTINUOUS
 62
     3
  5
94
 10
-21.123062
 20
81.662659
 30
0.0
 11
-30.0
 21
81.662659
 31
0.0
  0
LINE
  8
LY_1
  6
CONTINUOUS
 62
     3
  5
95
 10
-21.123062
 20
67.662659
 30
0.0
 11
-21.123062
 21
95.662659
 31
0.0
  0
LINE
  8
LY_1
  6
CONTINUOUS
 62
     3
  5
96
 10
-21.123062
 20
95.662659
 30
0.0
 11
-30.0
 21
95.662659
 31
0.0
  0
LINE
  8
LY_1
  6
CONTINUOUS
 62
     3
  5
97
 10
-21.123062
 20
67.662659
 30
0.0
 11
-30.0
 21
67.662659
 31
0.0
  0
LINE
  8
LY_1
  6
CONTINUOUS
 62
     3
  5
98
 10
-30.0
 20
95.662659
 30
0.0
 11
-30.0
 21
67.662659
 31
0.0
  0
LINE
  8
LY_1
  6
CONTINUOUS
 62
     3
  5
99
 10
21.123062
 20
81.662659
 30
0.0
 11
30.0
 21
81.662659
 31
0.0
  0
LINE
  8
LY_1
  6
CONTINUOUS
 62
     3
  5
9A
 10
21.123062
 20
67.662659
 30
0.0
 11
21.123062
 21
95.662659
 31
0.0
  0
LINE
  8
LY_1
  6
CONTINUOUS
 62
     3
  5
9B
 10
21.123062
 20
95.662659
 30
0.0
 11
30.0
 21
95.662659
 31
0.0
  0
LINE
  8
LY_1
  6
CONTINUOUS
 62
     3
  5
9C
 10
21.123062
 20
67.662659
 30
0.0
 11
30.0
 21
67.662659
 31
0.0
  0
LINE
  8
LY_1
  6
CONTINUOUS
 62
     3
  5
9D
 10
30.0
 20
95.662659
 30
0.0
 11
30.0
 21
67.662659
 31
0.0
  0
LINE
  8
LY_1
  6
CENTER
 62
   110
  5
9F
 10
-35.0
 20
81.662659
 30
0.0
 11
35.0
 21
81.662659
 31
0.0
  0
LINE
  8
LY_1
  6
CENTER
 62
   110
  5
A0
 10
0.0
 20
43.5
 30
0.0
 11
0.0
 21
-23.0
 31
0.0
  0
LINE
  8
LY_1
  6
CENTER
 62
   110
  5
A1
 10
63.310303
 20
0.0
 30
0.0
 11
109.310303
 21
0.0
 31
0.0
  0
LINE
  8
LY_1
  6
CONTINUOUS
 62
     3
  5
A2
 10
86.310303
 20
32.643204
 30
0.0
 11
86.310303
 21
37.922653
 31
0.0
  0
LINE
  8
LY_1
  6
CONTINUOUS
 62
     3
  5
A3
 10
69.810303
 20
21.5
 30
0.0
 11
70.310303
 21
21.5
 31
0.0
  0
LINE
  8
LY_1
  6
CONTINUOUS
 62
     3
  5
A4
 10
69.810303
 20
10.5
 30
0.0
 11
70.188828
 21
10.5
 31
0.0
  0
LINE
  8
LY_1
  6
CONTINUOUS
 62
     3
  5
A5
 10
69.810303
 20
21.5
 30
0.0
 11
69.810303
 21
10.5
 31
0.0
  0
LINE
  8
LY_1
  6
CONTINUOUS
 62
     3
  5
A6
 10
102.810303
 20
31.797073
 30
0.0
 11
102.810303
 21
27.0
 31
0.0
  0
LINE
  8
LY_1
  6
CONTINUOUS
 62
     3
  5
A7
 10
69.810303
 20
31.797089
 30
0.0
 11
69.810303
 21
27.0
 31
0.0
  0
LINE
  8
LY_1
  6
CONTINUOUS
 62
     3
  5
A8
 10
70.310303
 20
27.0
 30
0.0
 11
70.310303
 21
12.961481
 31
0.0
  0
LINE
  8
LY_1
  6
CONTINUOUS
 62
     3
  5
A9
 10
102.310303
 20
27.0
 30
0.0
 11
102.310303
 21
12.961481
 31
0.0
  0
LINE
  8
LY_1
  6
CONTINUOUS
 62
     3
  5
AA
 10
69.810303
 20
27.0
 30
0.0
 11
102.810303
 21
27.0
 31
0.0
  0
LINE
  8
LY_1
  6
CONTINUOUS
 62
     3
  5
AB
 10
72.310307
 20
8.082907
 30
0.0
 11
86.310302
 21
16.165808
 31
0.0
  0
LINE
  8
LY_1
  6
CONTINUOUS
 62
     3
  5
AC
 10
86.310307
 20
-16.165804
 30
0.0
 11
100.310302
 21
-8.082903
 31
0.0
  0
LINE
  8
LY_1
  6
CONTINUOUS
 62
     3
  5
AD
 10
86.310307
 20
16.165804
 30
0.0
 11
100.310302
 21
8.082903
 31
0.0
  0
LINE
  8
LY_1
  6
CONTINUOUS
 62
     3
  5
AE
 10
72.310307
 20
-8.082907
 30
0.0
 11
86.310302
 21
-16.165808
 31
0.0
  0
LINE
  8
LY_1
  6
CONTINUOUS
 62
     3
  5
AF
 10
100.310303
 20
8.082904
 30
0.0
 11
100.310303
 21
-8.082904
 31
0.0
  0
LINE
  8
LY_1
  6
CONTINUOUS
 62
     3
  5
B0
 10
72.310303
 20
8.082904
 30
0.0
 11
72.310303
 21
-8.082904
 31
0.0
  0
LINE
  8
LY_1
  6
CENTER
 62
   110
  5
B1
 10
86.310303
 20
43.5
 30
0.0
 11
86.310303
 21
-23.0
 31
0.0
  0
LINE
  8
LY_1
  6
CONTINUOUS
 62
     3
  5
B2
 10
76.310303
 20
32.643204
 30
0.0
 11
96.310303
 21
32.643204
 31
0.0
  0
LINE
  8
LY_1
  6
CONTINUOUS
 62
     3
  5
B3
 10
76.310303
 20
37.922653
 30
0.0
 11
96.310303
 21
37.922653
 31
0.0
  0
LINE
  8
LY_1
  6
CONTINUOUS
 62
     3
  5
B4
 10
76.310303
 20
37.922653
 30
0.0
 11
76.310303
 21
32.643204
 31
0.0
  0
LINE
  8
LY_1
  6
CONTINUOUS
 62
     3
  5
B5
 10
76.310309
 20
32.643217
 30
0.0
 11
69.810309
 21
31.797091
 31
0.0
  0
LINE
  8
LY_1
  6
CONTINUOUS
 62
     3
  5
B6
 10
77.310295
 20
38.500003
 30
0.0
 11
76.310301
 21
37.922656
 31
0.0
  0
LINE
  8
LY_1
  6
CONTINUOUS
 62
     3
  5
B7
 10
96.310303
 20
37.922653
 30
0.0
 11
96.310303
 21
32.643204
 31
0.0
  0
LINE
  8
LY_1
  6
CONTINUOUS
 62
     3
  5
B8
 10
96.310298
 20
32.643196
 30
0.0
 11
102.810298
 21
31.797071
 31
0.0
  0
LINE
  8
LY_1
  6
CONTINUOUS
 62
     3
  5
B9
 10
95.310311
 20
38.499996
 30
0.0
 11
96.310305
 21
37.922649
 31
0.0
  0
LINE
  8
LY_1
  6
CONTINUOUS
 62
     3
  5
BA
 10
77.310303
 20
38.5
 30
0.0
 11
95.310303
 21
38.5
 31
0.0
  0
LINE
  8
LY_1
  6
CONTINUOUS
 62
     3
  5
BB
 10
-5.773502
 20
37.287567
 30
0.0
 11
-5.773502
 21
32.5
 31
0.0
  0
LINE
  8
LY_1
  6
CONTINUOUS
 62
     3
  5
BC
 10
5.773502
 20
37.287567
 30
0.0
 11
5.773502
 21
32.5
 31
0.0
  0
LINE
  8
LY_1
  6
CONTINUOUS
 62
     3
  5
BD
 10
-5.773499
 20
71.66265
 30
0.0
 11
-11.547005
 21
81.662656
 31
0.0
  0
LINE
  8
LY_1
  6
CONTINUOUS
 62
     3
  5
BE
 10
11.547009
 20
81.66265
 30
0.0
 11
5.773503
 21
91.662656
 31
0.0
  0
LINE
  8
LY_1
  6
CONTINUOUS
 62
     3
  5
BF
 10
-11.547009
 20
81.66265
 30
0.0
 11
-5.773503
 21
91.662656
 31
0.0
  0
LINE
  8
LY_1
  6
CONTINUOUS
 62
     3
  5
C0
 10
5.773499
 20
71.66265
 30
0.0
 11
11.547005
 21
81.662656
 31
0.0
  0
LINE
  8
LY_1
  6
CONTINUOUS
 62
     3
  5
C1
 10
-5.773502
 20
91.662659
 30
0.0
 11
5.773502
 21
91.662659
 31
0.0
  0
LINE
  8
LY_1
  6
CONTINUOUS
 62
     3
  5
C2
 10
-5.773502
 20
71.662659
 30
0.0
 11
5.773502
 21
71.662659
 31
0.0
  0
LINE
  8
LY_1
  6
CONTINUOUS
 62
     3
  5
C3
 10
-11.1
 20
37.287567
 30
0.0
 11
11.1
 21
37.287567
 31
0.0
  0
LINE
  8
LY_1
  6
CONTINUOUS
 62
     3
  5
C4
 10
-11.1
 20
32.500008
 30
0.0
 11
-16.5
 21
31.797073
 31
0.0
  0
LINE
  8
LY_1
  6
CONTINUOUS
 62
     3
  5
C5
 10
-9.000005
 20
38.499999
 30
0.0
 11
-11.1
 21
37.287566
 31
0.0
  0
LINE
  8
LY_1
  6
CONTINUOUS
 62
     3
  5
C6
 10
-11.1
 20
37.287567
 30
0.0
 11
-11.1
 21
32.5
 31
0.0
  0
LINE
  8
LY_1
  6
CONTINUOUS
 62
     3
  5
C7
 10
11.1
 20
32.500008
 30
0.0
 11
16.5
 21
31.797073
 31
0.0
  0
LINE
  8
LY_1
  6
CONTINUOUS
 62
     3
  5
C8
 10
9.000005
 20
38.499999
 30
0.0
 11
11.1
 21
37.287566
 31
0.0
  0
LINE
  8
LY_1
  6
CONTINUOUS
 62
     3
  5
C9
 10
11.1
 20
37.287567
 30
0.0
 11
11.1
 21
32.500015
 31
0.0
  0
LINE
  8
LY_1
  6
CONTINUOUS
 62
     3
  5
CA
 10
-9.000005
 20
38.5
 30
0.0
 11
9.000005
 21
38.5
 31
0.0
  0
LINE
  8
LY_1
  6
CONTINUOUS
 62
     3
  5
CB
 10
-11.1
 20
32.5
 30
0.0
 11
11.1
 21
32.5
 31
0.0
  0
LINE
  8
LY_1
  6
CONTINUOUS
 62
     3
  5
CC
 10
-16.5
 20
29.5
 30
0.0
 11
16.5
 21
29.5
 31
0.0
  0
LINE
  8
LY_1
  6
CONTINUOUS
 62
     3
  5
CD
 10
65.848969
 20
16.0
 30
0.0
 11
69.210297
 21
16.0
 31
0.0
  0
LINE
  8
LY_1
  6
CONTINUOUS
 62
     3
  5
CE
 10
-9.598076
 20
63.862671
 30
0.0
 11
-9.598076
 21
61.605484
 31
0.0
  0
LINE
  8
LY_1
  6
CONTINUOUS
 62
     3
  5
CF
 10
-4.401924
 20
63.862671
 30
0.0
 11
-4.401924
 21
61.605484
 31
0.0
  0
LINE
  8
LY_1
  6
CONTINUOUS
 62
     3
  5
D0
 10
-12.2
 20
61.605484
 30
0.0
 11
-1.8
 21
61.605484
 31
0.0
  0
LINE
  8
LY_1
  6
CONTINUOUS
 62
     3
  5
D1
 10
-12.2
 20
63.862653
 30
0.0
 11
-1.8
 21
63.862668
 31
0.0
  0
LINE
  8
LY_1
  6
CONTINUOUS
 62
     3
  5
D2
 10
-1.799995
 20
63.862662
 30
0.0
 11
-3.09999
 21
65.162657
 31
0.0
  0
LINE
  8
LY_1
  6
CONTINUOUS
 62
     3
  5
D3
 10
-1.800004
 20
61.605491
 30
0.0
 11
-2.999987
 21
60.912681
 31
0.0
  0
LINE
  8
LY_1
  6
CONTINUOUS
 62
     3
  5
D4
 10
-1.8
 20
63.862671
 30
0.0
 11
-1.8
 21
61.605484
 31
0.0
  0
LINE
  8
LY_1
  6
CONTINUOUS
 62
     3
  5
D5
 10
-12.200009
 20
63.862652
 30
0.0
 11
-10.900003
 21
65.162657
 31
0.0
  0
LINE
  8
LY_1
  6
CONTINUOUS
 62
     3
  5
D6
 10
-12.199998
 20
61.605492
 30
0.0
 11
-11.000003
 21
60.912675
 31
0.0
  0
LINE
  8
LY_1
  6
CONTINUOUS
 62
     3
  5
D7
 10
-12.2
 20
63.862656
 30
0.0
 11
-12.2
 21
61.605484
 31
0.0
  0
LINE
  8
LY_1
  6
CONTINUOUS
 62
     3
  5
D8
 10
-11.00001
 20
60.912674
 30
0.0
 11
-2.99999
 21
60.912674
 31
0.0
  0
LINE
  8
LY_1
  6
CENTER
 62
   110
  5
D9
 10
-7.0
 20
71.612671
 30
0.0
 11
-7.0
 21
55.912674
 31
0.0
  0
LINE
  8
LY_1
  6
CONTINUOUS
 62
     3
  5
DA
 10
65.848969
 20
11.5
 30
0.0
 11
65.848969
 21
20.5
 31
0.0
  0
LINE
  8
LY_1
  6
CONTINUOUS
 62
     3
  5
DB
 10
69.210297
 20
11.5
 30
0.0
 11
69.210297
 21
20.5
 31
0.0
  0
LINE
  8
LY_1
  6
CONTINUOUS
 62
     3
  5
DC
 10
65.848974
 20
11.500001
 30
0.0
 11
65.560293
 21
12.000012
 31
0.0
  0
LINE
  8
LY_1
  6
CONTINUOUS
 62
     3
  5
DD
 10
65.848969
 20
11.5
 30
0.0
 11
69.210297
 21
11.5
 31
0.0
  0
LINE
  8
LY_1
  6
CONTINUOUS
 62
     3
  5
DE
 10
69.210298
 20
11.500001
 30
0.0
 11
69.810296
 21
12.1
 31
0.0
  0
LINE
  8
LY_1
  6
CONTINUOUS
 62
     3
  5
DF
 10
65.848975
 20
20.499999
 30
0.0
 11
65.560294
 21
19.999989
 31
0.0
  0
LINE
  8
LY_1
  6
CONTINUOUS
 62
     3
  5
E0
 10
65.848969
 20
20.5
 30
0.0
 11
69.210297
 21
20.5
 31
0.0
  0
LINE
  8
LY_1
  6
CONTINUOUS
 62
     3
  5
E1
 10
65.560287
 20
19.999985
 30
0.0
 11
65.560287
 21
12.00001
 31
0.0
  0
LINE
  8
LY_1
  6
CONTINUOUS
 62
     3
  5
E2
 10
69.210308
 20
20.5
 30
0.0
 11
69.810296
 21
19.900012
 31
0.0
  0
LINE
  8
LY_1
  6
CENTER
 62
   110
  5
E3
 10
60.560287
 20
16.0
 30
0.0
 11
74.737595
 21
16.0
 31
0.0
  0
LINE
  8
LY_1
  6
CONTINUOUS
 62
     3
  5
E4
 10
-9.598078
 20
11.5
 30
0.0
 11
-12.196154
 21
15.999999
 31
0.0
  0
LINE
  8
LY_1
  6
CONTINUOUS
 62
     3
  5
E5
 10
-1.803848
 20
16.0
 30
0.0
 11
-4.401924
 21
20.5
 31
0.0
  0
LINE
  8
LY_1
  6
CONTINUOUS
 62
     3
  5
E6
 10
-12.196155
 20
15.999999
 30
0.0
 11
-9.598078
 21
20.499999
 31
0.0
  0
LINE
  8
LY_1
  6
CONTINUOUS
 62
     3
  5
E7
 10
-4.401923
 20
11.5
 30
0.0
 11
-1.803848
 21
15.999999
 31
0.0
  0
LINE
  8
LY_1
  6
CONTINUOUS
 62
     3
  5
E8
 10
-9.598079
 20
20.5
 30
0.0
 11
-4.401924
 21
20.5
 31
0.0
  0
LINE
  8
LY_1
  6
CONTINUOUS
 62
     3
  5
E9
 10
-9.598079
 20
11.5
 30
0.0
 11
-4.401924
 21
11.5
 31
0.0
  0
LINE
  8
LY_1
  6
CENTER
 62
   110
  5
EA
 10
-17.196106
 20
16.0
 30
0.0
 11
3.196153
 21
16.0
 31
0.0
  0
LINE
  8
LY_1
  6
CENTER
 62
   110
  5
EB
 10
-7.0
 20
26.196121
 30
0.0
 11
-7.0
 21
5.803864
 31
0.0
  0
LINE
  8
LY_1
  6
CONTINUOUS
 62
     3
  5
EC
 10
-16.0
 20
27.0
 30
0.0
 11
-16.0
 21
17.079468
 31
0.0
  0
LINE
  8
LY_1
  6
CONTINUOUS
 62
     3
  5
ED
 10
-16.5
 20
31.797073
 30
0.0
 11
-16.5
 21
27.0
 31
0.0
  0
LINE
  8
LY_1
  6
CONTINUOUS
 62
     3
  5
EE
 10
16.0
 20
27.0
 30
0.0
 11
16.0
 21
17.079468
 31
0.0
  0
LINE
  8
LY_1
  6
CONTINUOUS
 62
     3
  5
EF
 10
16.5
 20
31.797073
 30
0.0
 11
16.5
 21
27.0
 31
0.0
  0
LINE
  8
LY_1
  6
CONTINUOUS
 62
     3
  5
F0
 10
-16.5
 20
27.0
 30
0.0
 11
16.5
 21
27.0
 31
0.0
  0
LINE
  8
LY_1
  6
CONTINUOUS
 62
     3
  5
F1
 10
-21.829257
 20
15.062796
 30
0.0
 11
-21.999996
 21
15.700001
 31
0.0
  0
LINE
  8
LY_1
  6
CONTINUOUS
 62
     3
  5
F2
 10
-22.0
 20
15.7
 30
0.0
 11
-30.0
 21
15.7
 31
0.0
  0
LINE
  8
LY_1
  6
CONTINUOUS
 62
     3
  5
F3
 10
21.829257
 20
15.062796
 30
0.0
 11
21.999996
 21
15.700001
 31
0.0
  0
LINE
  8
LY_1
  6
CONTINUOUS
 62
     3
  5
F4
 10
22.0
 20
15.7
 30
0.0
 11
30.0
 21
15.7
 31
0.0
  0
LINE
  8
LY_1
  6
CONTINUOUS
 62
     3
  5
F5
 10
-21.829257
 20
-15.062796
 30
0.0
 11
-21.999996
 21
-15.700001
 31
0.0
  0
LINE
  8
LY_1
  6
CONTINUOUS
 62
     3
  5
F6
 10
-22.0
 20
-15.7
 30
0.0
 11
-30.0
 21
-15.7
 31
0.0
  0
LINE
  8
LY_1
  6
CONTINUOUS
 62
     3
  5
F7
 10
-22.0
 20
15.7
 30
0.0
 11
-22.0
 21
-15.7
 31
0.0
  0
LINE
  8
LY_1
  6
CONTINUOUS
 62
     3
  5
F8
 10
-30.0
 20
15.7
 30
0.0
 11
-30.0
 21
-15.7
 31
0.0
  0
LINE
  8
LY_1
  6
CONTINUOUS
 62
     3
  5
F9
 10
21.829257
 20
-15.062796
 30
0.0
 11
21.999996
 21
-15.700001
 31
0.0
  0
LINE
  8
LY_1
  6
CONTINUOUS
 62
     3
  5
FA
 10
22.0
 20
-15.7
 30
0.0
 11
30.0
 21
-15.7
 31
0.0
  0
LINE
  8
LY_1
  6
CONTINUOUS
 62
     3
  5
FB
 10
22.0
 20
15.7
 30
0.0
 11
22.0
 21
-15.7
 31
0.0
  0
LINE
  8
LY_1
  6
CONTINUOUS
 62
     3
  5
FC
 10
30.0
 20
15.7
 30
0.0
 11
30.0
 21
-15.7
 31
0.0
  0
LINE
  8
LY_1
  6
CENTER
 62
   110
  5
FD
 10
-35.0
 20
0.0
 30
0.0
 11
35.0
 21
0.0
 31
0.0
  0
LINE
  8
LY_1
  6
CENTER
 62
   110
  5
FE
 10
0.0
 20
104.662659
 30
0.0
 11
0.0
 21
58.662659
 31
0.0
  0
ENDSEC
  0
EOF
