  0
SECTION
  2
HEADER
  9
$ACADVER
  1
AC1009
  9
$DWGCODEPAGE
  3
dos932
  9
$INSBASE
 10
0.0
 20
0.0
 30
0.0
  9
$EXTMIN
 10
-52.74281
 20
-81.114703
 30
0.0
  9
$EXTMAX
 10
148.663437
 20
161.425735
 30
0.0
  9
$LIMMIN
 10
-52.74281
 20
-81.114703
  9
$LIMMAX
 10
148.663437
 20
161.425735
  9
$ORTHOMODE
 70
     0
  9
$REGENMODE
 70
     1
  9
$FILLMODE
 70
     1
  9
$QTEXTMODE
 70
     0
  9
$MIRRTEXT
 70
     1
  9
$DRAGMODE
 70
     2
  9
$LTSCALE
 40
1.0
  9
$OSMODE
 70
     0
  9
$ATTMODE
 70
     1
  9
$TEXTSIZE
 40
3.3
  9
$TRACEWID
 40
0.05
  9
$TEXTSTYLE
  7
MX_NOTE_STANDARD
  9
$CLAYER
  8
LY_1
  9
$CELTYPE
  6
CONTINUOUS
  9
$CECOLOR
 62
   256
  9
$DIMSCALE
 40
1.0
  9
$DIMASZ
 40
2.5
  9
$DIMEXO
 40
0.0
  9
$DIMDLI
 40
3.75
  9
$DIMRND
 40
0.0
  9
$DIMDLE
 40
0.0
  9
$DIMEXE
 40
1.1938
  9
$DIMTP
 40
0.0
  9
$DIMTM
 40
0.0
  9
$DIMTXT
 40
3.3
  9
$DIMCEN
 40
2.5
  9
$DIMTSZ
 40
0.0
  9
$DIMTOL
 70
     0
  9
$DIMLIM
 70
     0
  9
$DIMTIH
 70
     0
  9
$DIMTOH
 70
     0
  9
$DIMSE1
 70
     0
  9
$DIMSE2
 70
     0
  9
$DIMTAD
 70
     1
  9
$DIMZIN
 70
     8
  9
$DIMBLK
  1

  9
$DIMASO
 70
     1
  9
$DIMSHO
 70
     1
  9
$DIMPOST
  1

  9
$DIMAPOST
  1

  9
$DIMALT
 70
     0
  9
$DIMALTD
 70
     4
  9
$DIMALTF
 40
0.03937
  9
$DIMLFAC
 40
1.0
  9
$DIMTOFL
 70
     1
  9
$DIMTVP
 40
0.0
  9
$DIMTIX
 70
     0
  9
$DIMSOXD
 70
     0
  9
$DIMSAH
 70
     1
  9
$DIMBLK1
  1
_OPEN30
  9
$DIMBLK2
  1
_OPEN30
  9
$DIMSTYLE
  2
MXDIMSTYLE
  9
$DIMCLRD
 70
     0
  9
$DIMCLRE
 70
     0
  9
$DIMCLRT
 70
     0
  9
$DIMTFAC
 40
1.0
  9
$DIMGAP
 40
1.0
  9
$LUNITS
 70
     2
  9
$LUPREC
 70
     4
  9
$AXISMODE
 70
     0
  9
$AXISUNIT
 10
0.0
 20
0.0
  9
$SKETCHINC
 40
0.1
  9
$FILLETRAD
 40
0.0
  9
$AUNITS
 70
     0
  9
$AUPREC
 70
     0
  9
$MENU
  1
acad
  9
$ELEVATION
 40
0.0
  9
$PELEVATION
 40
0.0
  9
$THICKNESS
 40
0.0
  9
$LIMCHECK
 70
     0
  9
$BLIPMODE
 70
     1
  9
$CHAMFERA
 40
0.0
  9
$CHAMFERB
 40
0.0
  9
$SKPOLY
 70
     0
  9
$TDCREATE
 40
2454901.550243055
  9
$TDUPDATE
 40
2454901.550243055
  9
$TDINDWG
 40
0.0000000000
  9
$TDUSRTIMER
 40
0.0000000000
  9
$USRTIMER
 70
     1
  9
$ANGBASE
 50
0.0
  9
$ANGDIR
 70
     0
  9
$PDMODE
 70
     0
  9
$PDSIZE
 40
0.0
  9
$PLINEWID
 40
0.0
  9
$COORDS
 70
     1
  9
$SPLFRAME
 70
     0
  9
$SPLINETYPE
 70
     6
  9
$SPLINESEGS
 70
     8
  9
$ATTDIA
 70
     0
  9
$ATTREQ
 70
     1
  9
$HANDLING
 70
     1
  9
$HANDSEED
  5
13A
  9
$SURFTAB1
 70
     6
  9
$SURFTAB2
 70
     6
  9
$SURFTYPE
 70
     6
  9
$SURFU
 70
     6
  9
$SURFV
 70
     6
  9
$UCSNAME
  2

  9
$UCSORG
 10
0.0
 20
0.0
 30
0.0
  9
$UCSXDIR
 10
1.0
 20
0.0
 30
0.0
  9
$UCSYDIR
 10
0.0
 20
1.0
 30
0.0
  9
$PUCSNAME
  2

  9
$PUCSORG
 10
0.0
 20
0.0
 30
0.0
  9
$PUCSXDIR
 10
1.0
 20
0.0
 30
0.0
  9
$PUCSYDIR
 10
0.0
 20
1.0
 30
0.0
  9
$USERI1
 70
     0
  9
$USERI2
 70
     0
  9
$USERI3
 70
     0
  9
$USERI4
 70
     0
  9
$USERI5
 70
     0
  9
$USERR1
 40
0.0
  9
$USERR2
 40
0.0
  9
$USERR3
 40
0.0
  9
$USERR4
 40
0.0
  9
$USERR5
 40
0.0
  9
$WORLDVIEW
 70
     1
  9
$SHADEDGE
 70
     3
  9
$SHADEDIF
 70
    70
  9
$TILEMODE
 70
     1
  9
$MAXACTVP
 70
    16
  9
$PINSBASE
 10
0.0
 20
0.0
 30
0.0
  9
$PLIMCHECK
 70
     0
  9
$PEXTMIN
 10
1.000000E+20
 20
1.000000E+20
 30
1.000000E+20
  9
$PEXTMAX
 10
-1.000000E+20
 20
-1.000000E+20
 30
-1.000000E+20
  9
$PLIMMIN
 10
0.0
 20
0.0
  9
$PLIMMAX
 10
12.0
 20
9.0
  9
$UNITMODE
 70
     0
  9
$VISRETAIN
 70
     0
  9
$PLINEGEN
 70
     1
  9
$PSLTSCALE
 70
     0
  9
$TREEDEPTH
 70
  3020
  0
ENDSEC
  0
SECTION
  2
TABLES
  0
TABLE
  2
VPORT
 70
     1
  0
VPORT
  2
*ACTIVE
 70
     0
 10
0.0
 20
0.0
 11
1.0
 21
1.0
 12
47.960313
 22
40.155516
 13
0.0
 23
0.0
 14
1.0
 24
1.0
 15
0.0
 25
0.0
 16
0.0
 26
0.0
 36
1.0
 17
0.0
 27
0.0
 37
0.0
 40
244.965843
 41
1.732051
 42
50.0
 43
0.0
 44
0.0
 50
0.0
 51
0.0
 71
     0
 72
   100
 73
     1
 74
     1
 75
     0
 76
     0
 77
     0
 78
     0
  0
ENDTAB
  0
TABLE
  2
LTYPE
 70
     2
  0
LTYPE
  2
CONTINUOUS
 70
    64
  3
Solid line
 72
    65
 73
     0
 40
0.0
  0
LTYPE
  2
CENTER
 70
    64
  3
Center ____ _ ____ _ ____ _ ____ _ ____ _ ____
 72
    65
 73
     4
 40
50.8
 49
31.75
 49
-6.35
 49
6.35
 49
-6.35
  0
ENDTAB
  0
TABLE
  2
LAYER
 70
     3
  0
LAYER
  2
0
 70
     0
 62
     7
  6
CONTINUOUS
  0
LAYER
  2
LY_1
 70
     0
 62
     7
  6
CONTINUOUS
  0
LAYER
  2
DEFPOINTS
 70
     0
 62
     7
  6
CONTINUOUS
  0
ENDTAB
  0
TABLE
  2
STYLE
 70
     2
  0
STYLE
  2
MX_NOTE_STANDARD
 70
     0
 40
0.0
 41
1.0
 50
0.0
 71
     0
 42
3.3
  3
txt.shx
  4
extfont.shx
  0
STYLE
  2
MX_DIMTXSTY_2
 70
     0
 40
0.0
 41
0.85
 50
0.0
 71
     0
 42
3.3
  3
txt.shx
  4
extfont.shx
  0
ENDTAB
  0
TABLE
  2
VIEW
 70
     0
  0
ENDTAB
  0
TABLE
  2
UCS
 70
     0
  0
ENDTAB
  0
TABLE
  2
APPID
 70
     1
  0
APPID
  2
ACAD
 70
     0
  0
ENDTAB
  0
TABLE
  2
DIMSTYLE
 70
     1
  0
DIMSTYLE
  2
MXDIMSTYLE
 70
     0
  3

  4

  5

  6
_OPEN30
  7
_OPEN30
 40
1.0
 41
2.5
 42
0.0
 43
3.75
 44
1.1938
 45
0.0
 46
0.0
 47
0.0
 48
0.0
 71
     0
 72
     0
 73
     0
 74
     0
 75
     0
 76
     0
 77
     1
 78
     8
140
3.3
141
2.5
142
0.0
143
0.03937
144
1.0
145
0.0
146
1.0
147
1.0
170
     0
171
     4
172
     1
173
     1
174
     0
175
     0
176
     0
177
     0
178
     0
  0
ENDTAB
  0
ENDSEC
  0
SECTION
  2
BLOCKS
  0
BLOCK
  8
0
  6
BYBLOCK
 62
     0
  5
20
  2
_OPEN30
 70
     2
 10
0.0
 20
0.0
 30
0.0
  3
_OPEN30
  0
LINE
  8
0
  6
BYBLOCK
 62
     0
  5
21
 10
-1.0
 20
0.267949
 30
0.0
 11
0.0
 21
0.0
 31
0.0
  0
LINE
  8
0
  6
BYBLOCK
 62
     0
  5
22
 10
0.0
 20
0.0
 30
0.0
 11
-1.0
 21
-0.267949
 31
0.0
  0
LINE
  8
0
  6
BYBLOCK
 62
     0
  5
23
 10
0.0
 20
0.0
 30
0.0
 11
-1.0
 21
0.0
 31
0.0
  0
ENDBLK
  8
0
  6
BYBLOCK
 62
     0
  5
24
  0
BLOCK
  8
0
  6
BYBLOCK
 62
     0
  5
26
  2
*D1
 70
     1
 10
0.0
 20
0.0
 30
0.0
  3
*D1
  0
LINE
  8
0
  6
CONTINUOUS
 62
   110
  5
27
 10
59.0
 20
61.5
 30
0.0
 11
59.0
 21
0.0
 31
0.0
  0
LINE
  8
0
  6
CONTINUOUS
 62
   110
  5
28
 10
17.5
 20
61.5
 30
0.0
 11
60.193787
 21
61.5
 31
0.0
  0
LINE
  8
0
  6
CONTINUOUS
 62
   110
  5
29
 10
51.0
 20
0.0
 30
0.0
 11
60.193787
 21
0.0
 31
0.0
  0
INSERT
  8
0
  6
CONTINUOUS
 62
   110
  5
30
  2
_OPEN
 10
59.0
 20
61.5
 30
0.0
 41
2.19
 42
2.19
 50
90.0
 43
2.19
  0
INSERT
  8
0
  6
CONTINUOUS
 62
   110
  5
31
  2
_OPEN
 10
59.0
 20
0.0
 30
0.0
 41
2.19
 42
2.19
 50
270.0
 43
2.19
  0
TEXT
  8
0
  6
CONTINUOUS
 62
   110
  5
33
 10
58.0
 20
28.523346
 30
0.0
 40
3.3
  1
62
 50
90.0
 41
0.98743
  7
MX_DIMTXSTY_2
 11
56.35
 21
28.523346
 31
0.0
 73
     2
  0
POINT
  8
DEFPOINTS
  6
CONTINUOUS
 62
     0
  5
34
 10
17.5
 20
61.5
 30
0.0
  0
POINT
  8
DEFPOINTS
  6
CONTINUOUS
 62
     0
  5
35
 10
51.0
 20
0.0
 30
0.0
  0
POINT
  8
DEFPOINTS
  6
CONTINUOUS
 62
     0
  5
36
 10
59.0
 20
0.0
 30
0.0
  0
ENDBLK
  8
0
  6
BYBLOCK
 62
     0
  5
37
  0
BLOCK
  8
0
  6
BYBLOCK
 62
     0
  5
2B
  2
_OPEN
 70
     2
 10
0.0
 20
0.0
 30
0.0
  3
_OPEN
  0
LINE
  8
0
  6
BYBLOCK
 62
     0
  5
2C
 10
-1.0
 20
0.166667
 30
0.0
 11
0.0
 21
0.0
 31
0.0
  0
LINE
  8
0
  6
BYBLOCK
 62
     0
  5
2D
 10
0.0
 20
0.0
 30
0.0
 11
-1.0
 21
-0.166667
 31
0.0
  0
LINE
  8
0
  6
BYBLOCK
 62
     0
  5
2E
 10
0.0
 20
0.0
 30
0.0
 11
-1.0
 21
0.0
 31
0.0
  0
ENDBLK
  8
0
  6
BYBLOCK
 62
     0
  5
2F
  0
BLOCK
  8
0
  6
BYBLOCK
 62
     0
  5
3A
  2
*D3
 70
     1
 10
0.0
 20
0.0
 30
0.0
  3
*D3
  0
LINE
  8
0
  6
CONTINUOUS
 62
   110
  5
3B
 10
46.0
 20
-44.0
 30
0.0
 11
-46.0
 21
-44.0
 31
0.0
  0
LINE
  8
0
  6
CONTINUOUS
 62
   110
  5
3C
 10
46.0
 20
-29.149994
 30
0.0
 11
46.0
 21
-45.193787
 31
0.0
  0
LINE
  8
0
  6
CONTINUOUS
 62
   110
  5
3D
 10
-46.0
 20
-29.149994
 30
0.0
 11
-46.0
 21
-45.193787
 31
0.0
  0
INSERT
  8
0
  6
CONTINUOUS
 62
   110
  5
3E
  2
_OPEN
 10
46.0
 20
-44.0
 30
0.0
 41
2.19
 42
2.19
 43
2.19
  0
INSERT
  8
0
  6
CONTINUOUS
 62
   110
  5
3F
  2
_OPEN
 10
-46.0
 20
-44.0
 30
0.0
 41
2.19
 42
2.19
 50
180.0
 43
2.19
  0
TEXT
  8
0
  6
CONTINUOUS
 62
   110
  5
40
 10
-2.226654
 20
-43.0
 30
0.0
 40
3.3
  1
92
 41
0.98743
  7
MX_DIMTXSTY_2
 11
-2.226654
 21
-41.35
 31
0.0
 73
     2
  0
POINT
  8
DEFPOINTS
  6
CONTINUOUS
 62
     0
  5
41
 10
46.0
 20
-29.149994
 30
0.0
  0
POINT
  8
DEFPOINTS
  6
CONTINUOUS
 62
     0
  5
42
 10
-46.0
 20
-29.149994
 30
0.0
  0
POINT
  8
DEFPOINTS
  6
CONTINUOUS
 62
     0
  5
43
 10
-46.0
 20
-44.0
 30
0.0
  0
ENDBLK
  8
0
  6
BYBLOCK
 62
     0
  5
44
  0
ENDSEC
  0
SECTION
  2
ENTITIES
  0
DIMENSION
  8
LY_1
  6
CONTINUOUS
 62
   110
  5
38
  2
*D1
 10
59.0
 20
0.0
 30
0.0
 11
59.0
 21
30.75
 31
0.0
 70
   128
  1
<>
 13
17.5
 23
61.5
 33
0.0
 14
51.0
 24
0.0
 34
0.0
 50
90.0
  3
MXDIMSTYLE
1001
ACAD
1000
DSTYLE
1002
{
1070
     6
1000
_OPEN
1070
     7
1000
_OPEN
1070
    41
1040
2.19
1070
    44
1040
1.193787
1070
   271
1070
     0
1070
   284
1070
     8
1070
   340
1005
32
1070
   343
1005
2A
1070
   344
1005
2A
1002
}
  0
DIMENSION
  8
LY_1
  6
CONTINUOUS
 62
   110
  5
45
  2
*D3
 10
-46.0
 20
-44.0
 30
0.0
 11
0.0
 21
-44.0
 31
0.0
 70
   128
  1
<>
 13
46.0
 23
-29.149994
 33
0.0
 14
-46.0
 24
-29.149994
 34
0.0
  3
MXDIMSTYLE
1001
ACAD
1000
DSTYLE
1002
{
1070
     6
1000
_OPEN
1070
     7
1000
_OPEN
1070
    41
1040
2.19
1070
    44
1040
1.193787
1070
   271
1070
     0
1070
   284
1070
     8
1070
   340
1005
32
1070
   343
1005
2A
1070
   344
1005
2A
1002
}
  0
TEXT
  8
LY_1
  6
CONTINUOUS
 62
   110
  5
46
 10
-52.076161
 20
-64.083591
 30
0.0
 40
4.167181
  1
      SWING CHECK VALVE 11/4
 41
0.959855
  7
MX_NOTE_STANDARD
 11
-52.076161
 21
-62.0
 31
0.0
 73
     2
  0
TEXT
  8
LY_1
  6
CONTINUOUS
 62
   110
  5
47
 10
-52.109061
 20
-80.083591
 30
0.0
 40
4.167181
  1
KITZ
 41
0.912486
  7
MX_NOTE_STANDARD
 11
-52.109061
 21
-78.0
 31
0.0
 73
     2
  0
TEXT
  8
LY_1
  6
CONTINUOUS
 62
   110
  5
48
 10
-52.016639
 20
-72.083591
 30
0.0
 40
4.167181
  1
FIG   R11/4
 41
1.045557
  7
MX_NOTE_STANDARD
 11
-52.016639
 21
-70.0
 31
0.0
 73
     2
  0
TEXT
  8
LY_1
  6
CONTINUOUS
 62
   110
  5
49
 10
-52.10692
 20
-56.083591
 30
0.0
 40
4.167181
  1
NAME  CLASS 125 CAST BRONZE
 41
0.915569
  7
MX_NOTE_STANDARD
 11
-52.10692
 21
-54.0
 31
0.0
 73
     2
  0
POLYLINE
  8
LY_1
  6
CONTINUOUS
 62
     3
  5
4A
 66
     1
 10
0.0
 20
0.0
 30
0.0
  0
VERTEX
  8
LY_1
  6
CONTINUOUS
 62
     3
  5
100
 10
13.307014
 20
-1.829966
 30
0.0
  0
VERTEX
  8
LY_1
  6
CONTINUOUS
 62
     3
  5
101
 10
13.302596
 20
-1.83386
 30
0.0
  0
VERTEX
  8
LY_1
  6
CONTINUOUS
 62
     3
  5
102
 10
13.298767
 20
-1.838309
 30
0.0
  0
VERTEX
  8
LY_1
  6
CONTINUOUS
 62
     3
  5
103
 10
13.295597
 20
-1.843231
 30
0.0
  0
VERTEX
  8
LY_1
  6
CONTINUOUS
 62
     3
  5
104
 10
13.293147
 20
-1.848532
 30
0.0
  0
VERTEX
  8
LY_1
  6
CONTINUOUS
 62
     3
  5
105
 10
13.291463
 20
-1.854112
 30
0.0
  0
VERTEX
  8
LY_1
  6
CONTINUOUS
 62
     3
  5
106
 10
13.290577
 20
-1.859865
 30
0.0
  0
VERTEX
  8
LY_1
  6
CONTINUOUS
 62
     3
  5
107
 10
13.290506
 20
-1.865683
 30
0.0
  0
VERTEX
  8
LY_1
  6
CONTINUOUS
 62
     3
  5
108
 10
13.291251
 20
-1.871455
 30
0.0
  0
VERTEX
  8
LY_1
  6
CONTINUOUS
 62
     3
  5
109
 10
13.292798
 20
-1.877072
 30
0.0
  0
VERTEX
  8
LY_1
  6
CONTINUOUS
 62
     3
  5
10A
 10
13.295118
 20
-1.882429
 30
0.0
  0
VERTEX
  8
LY_1
  6
CONTINUOUS
 62
     3
  5
10B
 10
13.298166
 20
-1.887424
 30
0.0
  0
VERTEX
  8
LY_1
  6
CONTINUOUS
 62
     3
  5
10C
 10
13.301887
 20
-1.891962
 30
0.0
  0
VERTEX
  8
LY_1
  6
CONTINUOUS
 62
     3
  5
10D
 10
13.306207
 20
-1.895957
 30
0.0
  0
VERTEX
  8
LY_1
  6
CONTINUOUS
 62
     3
  5
10E
 10
13.311048
 20
-1.899335
 30
0.0
  0
VERTEX
  8
LY_1
  6
CONTINUOUS
 62
     3
  5
10F
 10
13.316315
 20
-1.90203
 30
0.0
  0
VERTEX
  8
LY_1
  6
CONTINUOUS
 62
     3
  5
110
 10
13.321911
 20
-1.903993
 30
0.0
  0
VERTEX
  8
LY_1
  6
CONTINUOUS
 62
     3
  5
111
 10
13.327729
 20
-1.905185
 30
0.0
  0
VERTEX
  8
LY_1
  6
CONTINUOUS
 62
     3
  5
112
 10
13.333659
 20
-1.905585
 30
0.0
  0
VERTEX
  8
LY_1
  6
CONTINUOUS
 62
     3
  5
113
 10
13.333659
 20
-1.905585
 30
0.0
  0
SEQEND
  8
LY_1
  6
CONTINUOUS
 62
     3
  5
114
  0
POLYLINE
  8
LY_1
  6
CONTINUOUS
 62
     3
  5
4B
 66
     1
 10
0.0
 20
0.0
 30
0.0
  0
VERTEX
  8
LY_1
  6
CONTINUOUS
 62
     3
  5
115
 10
16.011674
 20
3.207745
 30
0.0
  0
VERTEX
  8
LY_1
  6
CONTINUOUS
 62
     3
  5
116
 10
16.016353
 20
3.211905
 30
0.0
  0
VERTEX
  8
LY_1
  6
CONTINUOUS
 62
     3
  5
117
 10
16.020362
 20
3.216689
 30
0.0
  0
VERTEX
  8
LY_1
  6
CONTINUOUS
 62
     3
  5
118
 10
16.023616
 20
3.221994
 30
0.0
  0
VERTEX
  8
LY_1
  6
CONTINUOUS
 62
     3
  5
119
 10
16.026043
 20
3.227707
 30
0.0
  0
VERTEX
  8
LY_1
  6
CONTINUOUS
 62
     3
  5
11A
 10
16.027594
 20
3.233705
 30
0.0
  0
VERTEX
  8
LY_1
  6
CONTINUOUS
 62
     3
  5
11B
 10
16.028234
 20
3.239861
 30
0.0
  0
VERTEX
  8
LY_1
  6
CONTINUOUS
 62
     3
  5
11C
 10
16.027951
 20
3.246042
 30
0.0
  0
VERTEX
  8
LY_1
  6
CONTINUOUS
 62
     3
  5
11D
 10
16.026749
 20
3.252116
 30
0.0
  0
VERTEX
  8
LY_1
  6
CONTINUOUS
 62
     3
  5
11E
 10
16.024654
 20
3.257954
 30
0.0
  0
VERTEX
  8
LY_1
  6
CONTINUOUS
 62
     3
  5
11F
 10
16.021713
 20
3.26343
 30
0.0
  0
VERTEX
  8
LY_1
  6
CONTINUOUS
 62
     3
  5
120
 10
16.017986
 20
3.268428
 30
0.0
  0
VERTEX
  8
LY_1
  6
CONTINUOUS
 62
     3
  5
121
 10
16.013555
 20
3.272841
 30
0.0
  0
VERTEX
  8
LY_1
  6
CONTINUOUS
 62
     3
  5
122
 10
16.008513
 20
3.276574
 30
0.0
  0
VERTEX
  8
LY_1
  6
CONTINUOUS
 62
     3
  5
123
 10
16.00297
 20
3.279547
 30
0.0
  0
VERTEX
  8
LY_1
  6
CONTINUOUS
 62
     3
  5
124
 10
15.997042
 20
3.281696
 30
0.0
  0
VERTEX
  8
LY_1
  6
CONTINUOUS
 62
     3
  5
125
 10
15.990858
 20
3.282977
 30
0.0
  0
VERTEX
  8
LY_1
  6
CONTINUOUS
 62
     3
  5
126
 10
15.98795
 20
3.283267
 30
0.0
  0
VERTEX
  8
LY_1
  6
CONTINUOUS
 62
     3
  5
127
 10
15.985028
 20
3.283363
 30
0.0
  0
SEQEND
  8
LY_1
  6
CONTINUOUS
 62
     3
  5
128
  0
POLYLINE
  8
LY_1
  6
CONTINUOUS
 62
     3
  5
4C
 66
     1
 10
0.0
 20
0.0
 30
0.0
  0
VERTEX
  8
LY_1
  6
CONTINUOUS
 62
     3
  5
129
 10
-16.519456
 20
0.034671
 30
0.0
  0
VERTEX
  8
LY_1
  6
CONTINUOUS
 62
     3
  5
12A
 10
-16.524078
 20
0.031028
 30
0.0
  0
VERTEX
  8
LY_1
  6
CONTINUOUS
 62
     3
  5
12B
 10
-16.528146
 20
0.0268
 30
0.0
  0
VERTEX
  8
LY_1
  6
CONTINUOUS
 62
     3
  5
12C
 10
-16.531585
 20
0.022066
 30
0.0
  0
VERTEX
  8
LY_1
  6
CONTINUOUS
 62
     3
  5
12D
 10
-16.534329
 20
0.016916
 30
0.0
  0
VERTEX
  8
LY_1
  6
CONTINUOUS
 62
     3
  5
12E
 10
-16.536326
 20
0.011447
 30
0.0
  0
VERTEX
  8
LY_1
  6
CONTINUOUS
 62
     3
  5
12F
 10
-16.537539
 20
0.005761
 30
0.0
  0
VERTEX
  8
LY_1
  6
CONTINUOUS
 62
     3
  5
130
 10
-16.537945
 20
-0.000034
 30
0.0
  0
VERTEX
  8
LY_1
  6
CONTINUOUS
 62
     3
  5
131
 10
-16.537536
 20
-0.005828
 30
0.0
  0
VERTEX
  8
LY_1
  6
CONTINUOUS
 62
     3
  5
132
 10
-16.53632
 20
-0.011513
 30
0.0
  0
VERTEX
  8
LY_1
  6
CONTINUOUS
 62
     3
  5
133
 10
-16.534321
 20
-0.016981
 30
0.0
  0
VERTEX
  8
LY_1
  6
CONTINUOUS
 62
     3
  5
134
 10
-16.531574
 20
-0.02213
 30
0.0
  0
VERTEX
  8
LY_1
  6
CONTINUOUS
 62
     3
  5
135
 10
-16.528134
 20
-0.026863
 30
0.0
  0
VERTEX
  8
LY_1
  6
CONTINUOUS
 62
     3
  5
136
 10
-16.524063
 20
-0.031089
 30
0.0
  0
VERTEX
  8
LY_1
  6
CONTINUOUS
 62
     3
  5
137
 10
-16.519439
 20
-0.03473
 30
0.0
  0
SEQEND
  8
LY_1
  6
CONTINUOUS
 62
     3
  5
138
  0
ARC
  8
LY_1
  6
CONTINUOUS
 62
     3
  5
4D
 10
17.790482
 20
3.075205
 30
0.0
 40
1.159422
 50
307.524111
 51
89.999982
  0
ARC
  8
LY_1
  6
CONTINUOUS
 62
     3
  5
4E
 10
17.785522
 20
-3.070034
 30
0.0
 40
1.164515
 50
270.000018
 51
89.999982
  0
ARC
  8
LY_1
  6
CONTINUOUS
 62
     3
  5
4F
 10
9.73489
 20
-3.075064
 30
0.0
 40
1.159622
 50
127.524112
 51
270.000001
  0
ARC
  8
LY_1
  6
CONTINUOUS
 62
     3
  5
50
 10
10.19318
 20
3.044863
 30
0.0
 40
1.189755
 50
89.999982
 51
359.999983
  0
ARC
  8
LY_1
  6
CONTINUOUS
 62
     3
  5
51
 10
6.15239
 20
3.069853
 30
0.0
 40
1.164466
 50
270.000018
 51
89.999982
  0
ARC
  8
LY_1
  6
CONTINUOUS
 62
     3
  5
52
 10
2.346479
 20
-3.044856
 30
0.0
 40
1.18979
 50
180.000036
 51
0.000001
  0
ARC
  8
LY_1
  6
CONTINUOUS
 62
     3
  5
53
 10
-1.823635
 20
3.044539
 30
0.0
 40
1.189689
 50
89.999982
 51
359.999983
  0
ARC
  8
LY_1
  6
CONTINUOUS
 62
     3
  5
54
 10
-5.905977
 20
-3.044856
 30
0.0
 40
1.189775
 50
180.000036
 51
0.000001
  0
ARC
  8
LY_1
  6
CONTINUOUS
 62
     3
  5
55
 10
-5.905977
 20
3.044863
 30
0.0
 40
1.189775
 50
0.000018
 51
180.000019
  0
ARC
  8
LY_1
  6
CONTINUOUS
 62
     3
  5
56
 10
-9.917984
 20
2.823546
 30
0.0
 40
1.41117
 50
90.778951
 51
124.259063
  0
ARC
  8
LY_1
  6
CONTINUOUS
 62
     3
  5
57
 10
-9.954647
 20
3.070497
 30
0.0
 40
1.16423
 50
213.574514
 51
89.143203
  0
ARC
  8
LY_1
  6
CONTINUOUS
 62
     3
  5
58
 10
-9.976085
 20
-3.072833
 30
0.0
 40
1.172514
 50
235.740937
 51
55.740955
  0
ARC
  8
LY_1
  6
CONTINUOUS
 62
     3
  5
59
 10
-17.760345
 20
-3.044991
 30
0.0
 40
1.189703
 50
179.999964
 51
359.999983
  0
ARC
  8
LY_1
  6
CONTINUOUS
 62
     3
  5
5A
 10
-17.760345
 20
3.044996
 30
0.0
 40
1.189703
 50
0.000018
 51
180.000019
  0
ARC
  8
LY_1
  6
CONTINUOUS
 62
     3
  5
5B
 10
0.0
 20
174.925735
 30
0.0
 40
80.5
 50
263.043388
 51
291.803676
  0
CIRCLE
  8
LY_1
  6
CONTINUOUS
 62
     3
  5
5C
 10
0.0
 20
125.425735
 30
0.0
 40
28.0
  0
ARC
  8
LY_1
  6
CONTINUOUS
 62
     3
  5
5D
 10
-31.199905
 20
153.916534
 30
0.0
 40
3.5
 50
225.369868
 51
291.803621
  0
ARC
  8
LY_1
  6
CONTINUOUS
 62
     3
  5
5E
 10
-31.199905
 20
96.934937
 30
0.0
 40
3.5
 50
68.196379
 51
134.630132
  0
ARC
  8
LY_1
  6
CONTINUOUS
 62
     3
  5
5F
 10
31.199905
 20
153.916534
 30
0.0
 40
3.5
 50
248.19636
 51
314.63012
  0
ARC
  8
LY_1
  6
CONTINUOUS
 62
     3
  5
60
 10
0.0
 20
75.925735
 30
0.0
 40
80.5
 50
68.196324
 51
111.808557
  0
ARC
  8
LY_1
  6
CONTINUOUS
 62
     3
  5
61
 10
31.199905
 20
96.934937
 30
0.0
 40
3.5
 50
45.36988
 51
111.80364
  0
ARC
  8
LY_1
  6
CONTINUOUS
 62
     3
  5
62
 10
0.0
 20
174.925735
 30
0.0
 40
80.5
 50
248.191443
 51
254.693947
  0
CIRCLE
  8
LY_1
  6
CONTINUOUS
 62
     3
  5
63
 10
0.0
 20
125.425735
 30
0.0
 40
17.5
  0
ARC
  8
LY_1
  6
CONTINUOUS
 62
     3
  5
64
 10
40.675385
 20
24.331055
 30
0.0
 40
45.0
 50
341.328285
 51
0.000006
  0
ARC
  8
LY_1
  6
CONTINUOUS
 62
     3
  5
65
 10
184.675385
 20
24.331055
 30
0.0
 40
45.0
 50
180.000019
 51
198.671734
  0
ARC
  8
LY_1
  6
CONTINUOUS
 62
     3
  5
66
 10
112.675385
 20
0.0
 30
0.0
 40
31.0
 50
161.328303
 51
18.671698
  0
CIRCLE
  8
LY_1
  6
CONTINUOUS
 62
     3
  5
67
 10
112.675385
 20
0.0
 30
0.0
 40
19.475998
  0
CIRCLE
  8
LY_1
  6
CONTINUOUS
 62
   110
  5
68
 10
112.675385
 20
0.0
 30
0.0
 40
20.955002
  0
CIRCLE
  8
LY_1
  6
CONTINUOUS
 62
     3
  5
69
 10
-15.5
 20
29.5
 30
0.0
 40
6.5
  0
CIRCLE
  8
LY_1
  6
CONTINUOUS
 62
     3
  5
6A
 10
-15.5
 20
29.5
 30
0.0
 40
4.5
  0
ARC
  8
LY_1
  6
CONTINUOUS
 62
     3
  5
6B
 10
-30.0
 20
28.424637
 30
0.0
 40
3.0
 50
291.056016
 51
359.999855
  0
ARC
  8
LY_1
  6
CONTINUOUS
 62
     3
  5
6C
 10
0.0
 20
-49.5
 30
0.0
 40
80.5
 50
111.056089
 51
111.803694
  0
ARC
  8
LY_1
  6
CONTINUOUS
 62
     3
  5
6D
 10
30.0
 20
28.424637
 30
0.0
 40
3.0
 50
180.000145
 51
248.943965
  0
ARC
  8
LY_1
  6
CONTINUOUS
 62
     3
  5
6E
 10
-31.199905
 20
28.490799
 30
0.0
 40
3.5
 50
195.000115
 51
291.803621
  0
ARC
  8
LY_1
  6
CONTINUOUS
 62
     3
  5
6F
 10
31.199905
 20
28.490799
 30
0.0
 40
3.5
 50
248.19636
 51
344.999901
  0
ARC
  8
LY_1
  6
CONTINUOUS
 62
     3
  5
70
 10
0.0
 20
-49.5
 30
0.0
 40
80.5
 50
68.196324
 51
68.943929
  0
ARC
  8
LY_1
  6
CONTINUOUS
 62
     3
  5
71
 10
-31.199905
 20
-28.490799
 30
0.0
 40
3.5
 50
68.196379
 51
164.999885
  0
ARC
  8
LY_1
  6
CONTINUOUS
 62
     3
  5
72
 10
31.199905
 20
-28.490799
 30
0.0
 40
3.5
 50
15.000099
 51
111.80364
  0
ARC
  8
LY_1
  6
CONTINUOUS
 62
     3
  5
73
 10
0.0
 20
49.5
 30
0.0
 40
80.5
 50
248.191443
 51
291.803676
  0
LINE
  8
LY_1
  6
CONTINUOUS
 62
     3
  5
74
 10
11.382877
 20
3.283342
 30
0.0
 11
11.382877
 21
3.044863
 31
0.0
  0
LINE
  8
LY_1
  6
CONTINUOUS
 62
     3
  5
75
 10
-0.633853
 20
3.282965
 30
0.0
 11
-0.633853
 21
3.044539
 31
0.0
  0
LINE
  8
LY_1
  6
CONTINUOUS
 62
     3
  5
76
 10
-0.633853
 20
3.282965
 30
0.0
 11
1.156751
 21
3.282965
 31
0.0
  0
LINE
  8
LY_1
  6
CONTINUOUS
 62
     3
  5
77
 10
3.536313
 20
1.905326
 30
0.0
 11
6.15239
 21
1.905326
 31
0.0
  0
LINE
  8
LY_1
  6
CONTINUOUS
 62
     3
  5
78
 10
3.536313
 20
1.905326
 30
0.0
 11
3.536313
 21
-3.044856
 31
0.0
  0
LINE
  8
LY_1
  6
CONTINUOUS
 62
     3
  5
79
 10
1.156751
 20
3.282965
 30
0.0
 11
1.156751
 21
-3.044856
 31
0.0
  0
LINE
  8
LY_1
  6
CONTINUOUS
 62
     3
  5
7A
 10
-1.823635
 20
4.234187
 30
0.0
 11
6.15239
 21
4.234187
 31
0.0
  0
LINE
  8
LY_1
  6
CONTINUOUS
 62
     3
  5
7B
 10
11.382877
 20
3.283342
 30
0.0
 11
15.984947
 21
3.283342
 31
0.0
  0
LINE
  8
LY_1
  6
CONTINUOUS
 62
     3
  5
7C
 10
9.73489
 20
-4.23461
 30
0.0
 11
17.785522
 21
-4.23461
 31
0.0
  0
LINE
  8
LY_1
  6
CONTINUOUS
 62
     3
  5
7D
 10
17.785522
 20
-1.905589
 30
0.0
 11
13.333687
 21
-1.905589
 31
0.0
  0
LINE
  8
LY_1
  6
CONTINUOUS
 62
     3
  5
7E
 10
18.496742
 20
2.155677
 30
0.0
 11
13.306951
 21
-1.830058
 31
0.0
  0
LINE
  8
LY_1
  6
CONTINUOUS
 62
     3
  5
7F
 10
16.011719
 20
3.207657
 30
0.0
 11
9.028652
 21
-2.155306
 31
0.0
  0
LINE
  8
LY_1
  6
CONTINUOUS
 62
     3
  5
80
 10
10.19318
 20
4.234618
 30
0.0
 11
17.790482
 21
4.234618
 31
0.0
  0
LINE
  8
LY_1
  6
CONTINUOUS
 62
     3
  5
81
 10
-7.095815
 20
-3.044856
 30
0.0
 11
-7.095815
 21
3.044863
 31
0.0
  0
LINE
  8
LY_1
  6
CONTINUOUS
 62
     3
  5
82
 10
-4.716197
 20
3.044863
 30
0.0
 11
-4.716197
 21
-3.044856
 31
0.0
  0
LINE
  8
LY_1
  6
CONTINUOUS
 62
     3
  5
83
 10
-13.445996
 20
0.709323
 30
0.0
 11
-10.924637
 21
2.426638
 31
0.0
  0
LINE
  8
LY_1
  6
CONTINUOUS
 62
     3
  5
84
 10
-13.446034
 20
0.709248
 30
0.0
 11
-9.315911
 21
-2.103806
 31
0.0
  0
LINE
  8
LY_1
  6
CONTINUOUS
 62
     3
  5
85
 10
-16.519448
 20
0.034622
 30
0.0
 11
-10.712397
 21
3.989844
 31
0.0
  0
LINE
  8
LY_1
  6
CONTINUOUS
 62
     3
  5
86
 10
-16.519366
 20
-0.034844
 30
0.0
 11
-10.63604
 21
-4.042017
 31
0.0
  0
LINE
  8
LY_1
  6
CONTINUOUS
 62
     3
  5
87
 10
-16.570709
 20
3.044996
 30
0.0
 11
-16.570709
 21
-3.044991
 31
0.0
  0
LINE
  8
LY_1
  6
CONTINUOUS
 62
     3
  5
88
 10
-18.950058
 20
3.044996
 30
0.0
 11
-18.950058
 21
-3.044991
 31
0.0
  0
LINE
  8
LY_1
  6
CONTINUOUS
 62
     3
  5
89
 10
84.675387
 20
50.600953
 30
0.0
 11
140.675387
 21
50.600983
 31
0.0
  0
LINE
  8
LY_1
  6
CONTINUOUS
 62
     3
  5
8A
 10
-28.0
 20
50.600967
 30
0.0
 11
28.0
 21
50.600967
 31
0.0
  0
LINE
  8
LY_1
  6
CONTINUOUS
 62
     3
  5
8B
 10
112.675385
 20
59.970016
 30
0.0
 11
112.675385
 21
51.5
 31
0.0
  0
LINE
  8
LY_1
  6
CONTINUOUS
 62
     3
  5
8C
 10
92.525391
 20
59.970016
 30
0.0
 11
132.825378
 21
59.970016
 31
0.0
  0
LINE
  8
LY_1
  6
CONTINUOUS
 62
     3
  5
8D
 10
98.133423
 20
59.970016
 30
0.0
 11
98.133423
 21
51.5
 31
0.0
  0
LINE
  8
LY_1
  6
CONTINUOUS
 62
     3
  5
8E
 10
127.217346
 20
59.970016
 30
0.0
 11
127.217346
 21
51.5
 31
0.0
  0
LINE
  8
LY_1
  6
CONTINUOUS
 62
     3
  5
8F
 10
-14.541963
 20
59.970016
 30
0.0
 11
-14.541963
 21
51.5
 31
0.0
  0
LINE
  8
LY_1
  6
CONTINUOUS
 62
     3
  5
90
 10
-20.149994
 20
59.970016
 30
0.0
 11
20.149994
 21
59.970016
 31
0.0
  0
LINE
  8
LY_1
  6
CONTINUOUS
 62
     3
  5
91
 10
14.541963
 20
59.970016
 30
0.0
 11
14.541963
 21
51.5
 31
0.0
  0
LINE
  8
LY_1
  6
CONTINUOUS
 62
     3
  5
92
 10
0.0
 20
51.5
 30
0.0
 11
0.0
 21
61.5
 31
0.0
  0
LINE
  8
LY_1
  6
CONTINUOUS
 62
     3
  5
93
 10
-35.0
 20
15.011107
 30
0.0
 11
-46.0
 21
15.011107
 31
0.0
  0
LINE
  8
LY_1
  6
CONTINUOUS
 62
     3
  5
94
 10
35.0
 20
15.011107
 30
0.0
 11
46.0
 21
15.011107
 31
0.0
  0
LINE
  8
LY_1
  6
CONTINUOUS
 62
     3
  5
95
 10
-35.0
 20
-15.011107
 30
0.0
 11
-46.0
 21
-15.011107
 31
0.0
  0
LINE
  8
LY_1
  6
CONTINUOUS
 62
     3
  5
96
 10
35.0
 20
-15.011107
 30
0.0
 11
46.0
 21
-15.011107
 31
0.0
  0
LINE
  8
LY_1
  6
CONTINUOUS
 62
     3
  5
97
 10
-18.386749
 20
97.575714
 30
0.0
 11
-18.386749
 21
94.347397
 31
0.0
  0
LINE
  8
LY_1
  6
CONTINUOUS
 62
     3
  5
98
 10
-12.613244
 20
97.575714
 30
0.0
 11
-12.613244
 21
94.347397
 31
0.0
  0
LINE
  8
LY_1
  6
CONTINUOUS
 62
     3
  5
99
 10
-22.0
 20
98.925735
 30
0.0
 11
-22.0
 21
108.105225
 31
0.0
  0
LINE
  8
LY_1
  6
CONTINUOUS
 62
     3
  5
9A
 10
-22.0
 20
98.925735
 30
0.0
 11
-9.041571
 21
98.925735
 31
0.0
  0
LINE
  8
LY_1
  6
CENTER
 62
   110
  5
9C
 10
0.0
 20
66.5
 30
0.0
 11
0.0
 21
-36.0
 31
0.0
  0
LINE
  8
LY_1
  6
CONTINUOUS
 62
     3
  5
9D
 10
-33.658752
 20
125.425735
 30
0.0
 11
-46.0
 21
125.425735
 31
0.0
  0
LINE
  8
LY_1
  6
CONTINUOUS
 62
     3
  5
9E
 10
-33.658752
 20
151.425735
 30
0.0
 11
-33.658752
 21
99.425735
 31
0.0
  0
LINE
  8
LY_1
  6
CONTINUOUS
 62
     3
  5
9F
 10
-33.658752
 20
151.425735
 30
0.0
 11
-46.0
 21
151.425735
 31
0.0
  0
LINE
  8
LY_1
  6
CONTINUOUS
 62
     3
  5
A0
 10
-33.658752
 20
99.425735
 30
0.0
 11
-46.0
 21
99.425735
 31
0.0
  0
LINE
  8
LY_1
  6
CONTINUOUS
 62
     3
  5
A1
 10
-46.0
 20
151.425735
 30
0.0
 11
-46.0
 21
99.425735
 31
0.0
  0
LINE
  8
LY_1
  6
CONTINUOUS
 62
     3
  5
A2
 10
33.658752
 20
125.425735
 30
0.0
 11
46.0
 21
125.425735
 31
0.0
  0
LINE
  8
LY_1
  6
CONTINUOUS
 62
     3
  5
A3
 10
33.658752
 20
151.425735
 30
0.0
 11
33.658752
 21
99.425735
 31
0.0
  0
LINE
  8
LY_1
  6
CONTINUOUS
 62
     3
  5
A4
 10
33.658752
 20
151.425735
 30
0.0
 11
46.0
 21
151.425735
 31
0.0
  0
LINE
  8
LY_1
  6
CONTINUOUS
 62
     3
  5
A5
 10
33.658752
 20
99.425735
 30
0.0
 11
46.0
 21
99.425735
 31
0.0
  0
LINE
  8
LY_1
  6
CONTINUOUS
 62
     3
  5
A6
 10
46.0
 20
151.425735
 30
0.0
 11
46.0
 21
99.425735
 31
0.0
  0
LINE
  8
LY_1
  6
CONTINUOUS
 62
     3
  5
A7
 10
-0.000029
 20
104.860274
 30
0.0
 11
-14.541983
 21
110.883748
 31
0.0
  0
LINE
  8
LY_1
  6
CONTINUOUS
 62
     3
  5
A8
 10
14.541954
 20
139.967691
 30
0.0
 11
-0.000028
 21
145.991177
 31
0.0
  0
LINE
  8
LY_1
  6
CONTINUOUS
 62
     3
  5
A9
 10
-14.541946
 20
110.883738
 30
0.0
 11
-20.565432
 21
125.425719
 31
0.0
  0
LINE
  8
LY_1
  6
CONTINUOUS
 62
     3
  5
AA
 10
20.565469
 20
125.425723
 30
0.0
 11
14.541995
 21
139.967676
 31
0.0
  0
LINE
  8
LY_1
  6
CONTINUOUS
 62
     3
  5
AB
 10
-20.565474
 20
125.42574
 30
0.0
 11
-14.542
 21
139.967694
 31
0.0
  0
LINE
  8
LY_1
  6
CONTINUOUS
 62
     3
  5
AC
 10
14.541944
 20
110.883757
 30
0.0
 11
20.565429
 21
125.425739
 31
0.0
  0
LINE
  8
LY_1
  6
CONTINUOUS
 62
     3
  5
AD
 10
-14.541965
 20
139.967686
 30
0.0
 11
0.000002
 21
145.991166
 31
0.0
  0
LINE
  8
LY_1
  6
CONTINUOUS
 62
     3
  5
AE
 10
0.000007
 20
104.860265
 30
0.0
 11
14.541988
 21
110.883751
 31
0.0
  0
LINE
  8
LY_1
  6
CENTER
 62
   110
  5
AF
 10
-51.0
 20
125.425735
 30
0.0
 11
51.0
 21
125.425735
 31
0.0
  0
LINE
  8
LY_1
  6
CENTER
 62
   110
  5
B0
 10
76.686951
 20
0.0
 30
0.0
 11
148.663437
 21
0.0
 31
0.0
  0
LINE
  8
LY_1
  6
CONTINUOUS
 62
     3
  5
B1
 10
95.175371
 20
61.49999
 30
0.0
 11
92.525376
 21
59.970014
 31
0.0
  0
LINE
  8
LY_1
  6
CONTINUOUS
 62
     3
  5
B2
 10
92.525387
 20
51.499979
 30
0.0
 11
84.675393
 21
50.600959
 31
0.0
  0
LINE
  8
LY_1
  6
CONTINUOUS
 62
     3
  5
B3
 10
92.525391
 20
59.970016
 30
0.0
 11
92.525391
 21
51.5
 31
0.0
  0
LINE
  8
LY_1
  6
CONTINUOUS
 62
     3
  5
B4
 10
84.675385
 20
50.600952
 30
0.0
 11
84.675385
 21
43.0
 31
0.0
  0
LINE
  8
LY_1
  6
CONTINUOUS
 62
     3
  5
B5
 10
130.175363
 20
61.500006
 30
0.0
 11
132.825359
 21
59.97003
 31
0.0
  0
LINE
  8
LY_1
  6
CONTINUOUS
 62
     3
  5
B6
 10
132.825383
 20
51.500012
 30
0.0
 11
140.675392
 21
50.60099
 31
0.0
  0
LINE
  8
LY_1
  6
CONTINUOUS
 62
     3
  5
B7
 10
132.825378
 20
59.970016
 30
0.0
 11
132.825378
 21
51.5
 31
0.0
  0
LINE
  8
LY_1
  6
CONTINUOUS
 62
     3
  5
B8
 10
95.175385
 20
61.5
 30
0.0
 11
130.175385
 21
61.5
 31
0.0
  0
LINE
  8
LY_1
  6
CONTINUOUS
 62
     3
  5
B9
 10
92.525391
 20
51.5
 30
0.0
 11
132.825378
 21
51.5
 31
0.0
  0
LINE
  8
LY_1
  6
CONTINUOUS
 62
     3
  5
BA
 10
85.675385
 20
43.0
 30
0.0
 11
85.675385
 21
24.331055
 31
0.0
  0
LINE
  8
LY_1
  6
CONTINUOUS
 62
     3
  5
BB
 10
139.675385
 20
43.0
 30
0.0
 11
139.675385
 21
24.331055
 31
0.0
  0
LINE
  8
LY_1
  6
CONTINUOUS
 62
     3
  5
BC
 10
140.675385
 20
50.600983
 30
0.0
 11
140.675385
 21
43.0
 31
0.0
  0
LINE
  8
LY_1
  6
CONTINUOUS
 62
     3
  5
BD
 10
84.675385
 20
43.0
 30
0.0
 11
140.675385
 21
43.0
 31
0.0
  0
LINE
  8
LY_1
  6
CONTINUOUS
 62
     3
  5
BE
 10
84.675385
 20
47.0
 30
0.0
 11
140.675385
 21
47.0
 31
0.0
  0
LINE
  8
LY_1
  6
CONTINUOUS
 62
     3
  5
BF
 10
86.675366
 20
15.011098
 30
0.0
 11
112.675368
 21
30.022206
 31
0.0
  0
LINE
  8
LY_1
  6
CONTINUOUS
 62
     3
  5
C0
 10
112.675366
 20
-30.022223
 30
0.0
 11
138.675368
 21
-15.011114
 31
0.0
  0
LINE
  8
LY_1
  6
CONTINUOUS
 62
     3
  5
C1
 10
112.675366
 20
30.022223
 30
0.0
 11
138.675368
 21
15.011114
 31
0.0
  0
LINE
  8
LY_1
  6
CONTINUOUS
 62
     3
  5
C2
 10
86.675366
 20
-15.011098
 30
0.0
 11
112.675368
 21
-30.022206
 31
0.0
  0
LINE
  8
LY_1
  6
CONTINUOUS
 62
     3
  5
C3
 10
138.675385
 20
15.011107
 30
0.0
 11
138.675385
 21
-15.011107
 31
0.0
  0
LINE
  8
LY_1
  6
CONTINUOUS
 62
     3
  5
C4
 10
86.675385
 20
15.011107
 30
0.0
 11
86.675385
 21
-15.011107
 31
0.0
  0
LINE
  8
LY_1
  6
CENTER
 62
   110
  5
C5
 10
112.675385
 20
66.5
 30
0.0
 11
112.675385
 21
-36.0
 31
0.0
  0
LINE
  8
LY_1
  6
CONTINUOUS
 62
     3
  5
C6
 10
-21.25
 20
97.575714
 30
0.0
 11
-9.75
 21
97.575714
 31
0.0
  0
LINE
  8
LY_1
  6
CONTINUOUS
 62
     3
  5
C7
 10
-9.75
 20
94.347397
 30
0.0
 11
-21.25
 21
94.347397
 31
0.0
  0
LINE
  8
LY_1
  6
CONTINUOUS
 62
     3
  5
C8
 10
-21.25
 20
94.347397
 30
0.0
 11
-21.25
 21
97.575714
 31
0.0
  0
LINE
  8
LY_1
  6
CONTINUOUS
 62
     3
  5
C9
 10
-21.250006
 20
97.575717
 30
0.0
 11
-19.899991
 21
98.925732
 31
0.0
  0
LINE
  8
LY_1
  6
CONTINUOUS
 62
     3
  5
CA
 10
-21.250002
 20
94.347418
 30
0.0
 11
-20.000016
 21
93.625738
 31
0.0
  0
LINE
  8
LY_1
  6
CONTINUOUS
 62
     3
  5
CB
 10
-9.75
 20
94.347397
 30
0.0
 11
-9.75
 21
97.575684
 31
0.0
  0
LINE
  8
LY_1
  6
CONTINUOUS
 62
     3
  5
CC
 10
-9.750005
 20
97.575717
 30
0.0
 11
-11.10002
 21
98.925732
 31
0.0
  0
LINE
  8
LY_1
  6
CONTINUOUS
 62
     3
  5
CD
 10
-9.75001
 20
94.34741
 30
0.0
 11
-10.999996
 21
93.625731
 31
0.0
  0
LINE
  8
LY_1
  6
CONTINUOUS
 62
     3
  5
CE
 10
-20.0
 20
93.625717
 30
0.0
 11
-11.0
 21
93.625717
 31
0.0
  0
LINE
  8
LY_1
  6
CENTER
 62
   110
  5
CF
 10
-15.5
 20
88.625717
 30
0.0
 11
-15.5
 21
105.325714
 31
0.0
  0
LINE
  8
LY_1
  6
CONTINUOUS
 62
     3
  5
D0
 10
81.164032
 20
29.5
 30
0.0
 11
85.575378
 21
29.5
 31
0.0
  0
LINE
  8
LY_1
  6
CONTINUOUS
 62
     3
  5
D1
 10
81.164032
 20
34.5
 30
0.0
 11
81.164032
 21
24.5
 31
0.0
  0
LINE
  8
LY_1
  6
CONTINUOUS
 62
     3
  5
D2
 10
85.575378
 20
24.5
 30
0.0
 11
85.575378
 21
34.5
 31
0.0
  0
LINE
  8
LY_1
  6
CONTINUOUS
 62
     3
  5
D3
 10
85.57537
 20
24.499994
 30
0.0
 11
85.67458
 21
24.599204
 31
0.0
  0
LINE
  8
LY_1
  6
CONTINUOUS
 62
     3
  5
D4
 10
81.164041
 20
24.499987
 30
0.0
 11
80.875367
 21
24.999984
 31
0.0
  0
LINE
  8
LY_1
  6
CONTINUOUS
 62
     3
  5
D5
 10
81.164032
 20
24.5
 30
0.0
 11
85.575378
 21
24.5
 31
0.0
  0
LINE
  8
LY_1
  6
CONTINUOUS
 62
     3
  5
D6
 10
85.575381
 20
34.499993
 30
0.0
 11
85.675378
 21
34.399996
 31
0.0
  0
LINE
  8
LY_1
  6
CONTINUOUS
 62
     3
  5
D7
 10
81.164036
 20
34.500004
 30
0.0
 11
80.875363
 21
34.000008
 31
0.0
  0
LINE
  8
LY_1
  6
CONTINUOUS
 62
     3
  5
D8
 10
81.164032
 20
34.5
 30
0.0
 11
85.575378
 21
34.5
 31
0.0
  0
LINE
  8
LY_1
  6
CONTINUOUS
 62
     3
  5
D9
 10
80.875366
 20
34.0
 30
0.0
 11
80.875366
 21
25.0
 31
0.0
  0
LINE
  8
LY_1
  6
CENTER
 62
   110
  5
DA
 10
75.875366
 20
29.5
 30
0.0
 11
92.575363
 21
29.5
 31
0.0
  0
LINE
  8
LY_1
  6
CONTINUOUS
 62
     3
  5
DB
 10
-18.386749
 20
24.499998
 30
0.0
 11
-21.273498
 21
29.499994
 31
0.0
  0
LINE
  8
LY_1
  6
CONTINUOUS
 62
     3
  5
DC
 10
-9.726495
 20
29.499998
 30
0.0
 11
-12.613244
 21
34.499994
 31
0.0
  0
LINE
  8
LY_1
  6
CONTINUOUS
 62
     3
  5
DD
 10
-21.273495
 20
29.499996
 30
0.0
 11
-18.386747
 21
34.49999
 31
0.0
  0
LINE
  8
LY_1
  6
CONTINUOUS
 62
     3
  5
DE
 10
-12.613241
 20
24.499996
 30
0.0
 11
-9.726493
 21
29.49999
 31
0.0
  0
LINE
  8
LY_1
  6
CONTINUOUS
 62
     3
  5
DF
 10
-18.386749
 20
34.5
 30
0.0
 11
-12.613247
 21
34.5
 31
0.0
  0
LINE
  8
LY_1
  6
CONTINUOUS
 62
     3
  5
E0
 10
-18.386749
 20
24.5
 30
0.0
 11
-12.613247
 21
24.5
 31
0.0
  0
LINE
  8
LY_1
  6
CENTER
 62
   110
  5
E1
 10
-15.5
 20
40.470245
 30
0.0
 11
-15.5
 21
18.529755
 31
0.0
  0
LINE
  8
LY_1
  6
CENTER
 62
   110
  5
E2
 10
-26.460327
 20
29.5
 30
0.0
 11
-4.499999
 21
29.5
 31
0.0
  0
LINE
  8
LY_1
  6
CONTINUOUS
 62
     3
  5
E3
 10
-17.499995
 20
61.499998
 30
0.0
 11
-20.149993
 21
59.970021
 31
0.0
  0
LINE
  8
LY_1
  6
CONTINUOUS
 62
     3
  5
E4
 10
-20.149994
 20
51.499996
 30
0.0
 11
-28.000007
 21
50.600973
 31
0.0
  0
LINE
  8
LY_1
  6
CONTINUOUS
 62
     3
  5
E5
 10
-20.149994
 20
59.970016
 30
0.0
 11
-20.149994
 21
51.5
 31
0.0
  0
LINE
  8
LY_1
  6
CONTINUOUS
 62
     3
  5
E6
 10
-28.0
 20
50.600967
 30
0.0
 11
-28.0
 21
43.0
 31
0.0
  0
LINE
  8
LY_1
  6
CONTINUOUS
 62
     3
  5
E7
 10
17.499995
 20
61.499998
 30
0.0
 11
20.149993
 21
59.970021
 31
0.0
  0
LINE
  8
LY_1
  6
CONTINUOUS
 62
     3
  5
E8
 10
20.149994
 20
51.499996
 30
0.0
 11
28.000007
 21
50.600973
 31
0.0
  0
LINE
  8
LY_1
  6
CONTINUOUS
 62
     3
  5
E9
 10
20.149994
 20
59.970016
 30
0.0
 11
20.149994
 21
51.5
 31
0.0
  0
LINE
  8
LY_1
  6
CONTINUOUS
 62
     3
  5
EA
 10
-17.5
 20
61.5
 30
0.0
 11
17.5
 21
61.5
 31
0.0
  0
LINE
  8
LY_1
  6
CONTINUOUS
 62
     3
  5
EB
 10
-20.149994
 20
51.5
 30
0.0
 11
20.149994
 21
51.5
 31
0.0
  0
LINE
  8
LY_1
  6
CONTINUOUS
 62
     3
  5
EC
 10
-27.0
 20
43.0
 30
0.0
 11
-27.0
 21
28.424637
 31
0.0
  0
LINE
  8
LY_1
  6
CONTINUOUS
 62
     3
  5
ED
 10
27.0
 20
43.0
 30
0.0
 11
27.0
 21
28.424637
 31
0.0
  0
LINE
  8
LY_1
  6
CONTINUOUS
 62
     3
  5
EE
 10
28.0
 20
50.600967
 30
0.0
 11
28.0
 21
43.0
 31
0.0
  0
LINE
  8
LY_1
  6
CONTINUOUS
 62
     3
  5
EF
 10
-28.0
 20
43.0
 30
0.0
 11
28.0
 21
43.0
 31
0.0
  0
LINE
  8
LY_1
  6
CONTINUOUS
 62
     3
  5
F0
 10
-28.0
 20
47.0
 30
0.0
 11
28.0
 21
47.0
 31
0.0
  0
LINE
  8
LY_1
  6
CONTINUOUS
 62
     3
  5
F1
 10
-34.580644
 20
27.584927
 30
0.0
 11
-35.0
 21
29.149988
 31
0.0
  0
LINE
  8
LY_1
  6
CONTINUOUS
 62
     3
  5
F2
 10
-35.0
 20
29.149994
 30
0.0
 11
-46.0
 21
29.149994
 31
0.0
  0
LINE
  8
LY_1
  6
CONTINUOUS
 62
     3
  5
F3
 10
34.580644
 20
27.584927
 30
0.0
 11
35.0
 21
29.149988
 31
0.0
  0
LINE
  8
LY_1
  6
CONTINUOUS
 62
     3
  5
F4
 10
35.0
 20
29.149994
 30
0.0
 11
46.0
 21
29.149994
 31
0.0
  0
LINE
  8
LY_1
  6
CONTINUOUS
 62
     3
  5
F5
 10
-34.580644
 20
-27.584927
 30
0.0
 11
-35.0
 21
-29.149988
 31
0.0
  0
LINE
  8
LY_1
  6
CONTINUOUS
 62
     3
  5
F6
 10
-35.0
 20
-29.149994
 30
0.0
 11
-46.0
 21
-29.149994
 31
0.0
  0
LINE
  8
LY_1
  6
CONTINUOUS
 62
     3
  5
F7
 10
-35.0
 20
29.149994
 30
0.0
 11
-35.0
 21
-29.149994
 31
0.0
  0
LINE
  8
LY_1
  6
CONTINUOUS
 62
     3
  5
F8
 10
-46.0
 20
29.149994
 30
0.0
 11
-46.0
 21
-29.149994
 31
0.0
  0
LINE
  8
LY_1
  6
CONTINUOUS
 62
     3
  5
F9
 10
34.580644
 20
-27.584927
 30
0.0
 11
35.0
 21
-29.149988
 31
0.0
  0
LINE
  8
LY_1
  6
CONTINUOUS
 62
     3
  5
FA
 10
35.0
 20
-29.149994
 30
0.0
 11
46.0
 21
-29.149994
 31
0.0
  0
LINE
  8
LY_1
  6
CONTINUOUS
 62
     3
  5
FB
 10
35.0
 20
29.149994
 30
0.0
 11
35.0
 21
-29.149994
 31
0.0
  0
LINE
  8
LY_1
  6
CONTINUOUS
 62
     3
  5
FC
 10
46.0
 20
29.149994
 30
0.0
 11
46.0
 21
-29.149994
 31
0.0
  0
LINE
  8
LY_1
  6
CENTER
 62
   110
  5
FD
 10
-51.0
 20
0.0
 30
0.0
 11
51.0
 21
0.0
 31
0.0
  0
LINE
  8
LY_1
  6
CENTER
 62
   110
  5
FE
 10
0.0
 20
161.425735
 30
0.0
 11
0.0
 21
89.425735
 31
0.0
  0
ENDSEC
  0
EOF
