  0
SECTION
  2
HEADER
  9
$ACADVER
  1
AC1009
  9
$DWGCODEPAGE
  3
dos932
  9
$INSBASE
 10
0.0
 20
0.0
 30
0.0
  9
$EXTMIN
 10
-57.74281
 20
-85.614703
 30
0.0
  9
$EXTMAX
 10
160.700363
 20
179.062103
 30
0.0
  9
$LIMMIN
 10
-57.74281
 20
-85.614703
  9
$LIMMAX
 10
160.700363
 20
179.062103
  9
$ORTHOMODE
 70
     0
  9
$REGENMODE
 70
     1
  9
$FILLMODE
 70
     1
  9
$QTEXTMODE
 70
     0
  9
$MIRRTEXT
 70
     1
  9
$DRAGMODE
 70
     2
  9
$LTSCALE
 40
1.0
  9
$OSMODE
 70
     0
  9
$ATTMODE
 70
     1
  9
$TEXTSIZE
 40
3.3
  9
$TRACEWID
 40
0.05
  9
$TEXTSTYLE
  7
MX_NOTE_STANDARD
  9
$CLAYER
  8
LY_1
  9
$CELTYPE
  6
CONTINUOUS
  9
$CECOLOR
 62
   256
  9
$DIMSCALE
 40
1.0
  9
$DIMASZ
 40
2.5
  9
$DIMEXO
 40
0.0
  9
$DIMDLI
 40
3.75
  9
$DIMRND
 40
0.0
  9
$DIMDLE
 40
0.0
  9
$DIMEXE
 40
1.1938
  9
$DIMTP
 40
0.0
  9
$DIMTM
 40
0.0
  9
$DIMTXT
 40
3.3
  9
$DIMCEN
 40
2.5
  9
$DIMTSZ
 40
0.0
  9
$DIMTOL
 70
     0
  9
$DIMLIM
 70
     0
  9
$DIMTIH
 70
     0
  9
$DIMTOH
 70
     0
  9
$DIMSE1
 70
     0
  9
$DIMSE2
 70
     0
  9
$DIMTAD
 70
     1
  9
$DIMZIN
 70
     8
  9
$DIMBLK
  1

  9
$DIMASO
 70
     1
  9
$DIMSHO
 70
     1
  9
$DIMPOST
  1

  9
$DIMAPOST
  1

  9
$DIMALT
 70
     0
  9
$DIMALTD
 70
     4
  9
$DIMALTF
 40
0.03937
  9
$DIMLFAC
 40
1.0
  9
$DIMTOFL
 70
     1
  9
$DIMTVP
 40
0.0
  9
$DIMTIX
 70
     0
  9
$DIMSOXD
 70
     0
  9
$DIMSAH
 70
     1
  9
$DIMBLK1
  1
_OPEN30
  9
$DIMBLK2
  1
_OPEN30
  9
$DIMSTYLE
  2
MXDIMSTYLE
  9
$DIMCLRD
 70
     0
  9
$DIMCLRE
 70
     0
  9
$DIMCLRT
 70
     0
  9
$DIMTFAC
 40
1.0
  9
$DIMGAP
 40
1.0
  9
$LUNITS
 70
     2
  9
$LUPREC
 70
     4
  9
$AXISMODE
 70
     0
  9
$AXISUNIT
 10
0.0
 20
0.0
  9
$SKETCHINC
 40
0.1
  9
$FILLETRAD
 40
0.0
  9
$AUNITS
 70
     0
  9
$AUPREC
 70
     0
  9
$MENU
  1
acad
  9
$ELEVATION
 40
0.0
  9
$PELEVATION
 40
0.0
  9
$THICKNESS
 40
0.0
  9
$LIMCHECK
 70
     0
  9
$BLIPMODE
 70
     1
  9
$CHAMFERA
 40
0.0
  9
$CHAMFERB
 40
0.0
  9
$SKPOLY
 70
     0
  9
$TDCREATE
 40
2454901.550243055
  9
$TDUPDATE
 40
2454901.550243055
  9
$TDINDWG
 40
0.0000000000
  9
$TDUSRTIMER
 40
0.0000000000
  9
$USRTIMER
 70
     1
  9
$ANGBASE
 50
0.0
  9
$ANGDIR
 70
     0
  9
$PDMODE
 70
     0
  9
$PDSIZE
 40
0.0
  9
$PLINEWID
 40
0.0
  9
$COORDS
 70
     1
  9
$SPLFRAME
 70
     0
  9
$SPLINETYPE
 70
     6
  9
$SPLINESEGS
 70
     8
  9
$ATTDIA
 70
     0
  9
$ATTREQ
 70
     1
  9
$HANDLING
 70
     1
  9
$HANDSEED
  5
13A
  9
$SURFTAB1
 70
     6
  9
$SURFTAB2
 70
     6
  9
$SURFTYPE
 70
     6
  9
$SURFU
 70
     6
  9
$SURFV
 70
     6
  9
$UCSNAME
  2

  9
$UCSORG
 10
0.0
 20
0.0
 30
0.0
  9
$UCSXDIR
 10
1.0
 20
0.0
 30
0.0
  9
$UCSYDIR
 10
0.0
 20
1.0
 30
0.0
  9
$PUCSNAME
  2

  9
$PUCSORG
 10
0.0
 20
0.0
 30
0.0
  9
$PUCSXDIR
 10
1.0
 20
0.0
 30
0.0
  9
$PUCSYDIR
 10
0.0
 20
1.0
 30
0.0
  9
$USERI1
 70
     0
  9
$USERI2
 70
     0
  9
$USERI3
 70
     0
  9
$USERI4
 70
     0
  9
$USERI5
 70
     0
  9
$USERR1
 40
0.0
  9
$USERR2
 40
0.0
  9
$USERR3
 40
0.0
  9
$USERR4
 40
0.0
  9
$USERR5
 40
0.0
  9
$WORLDVIEW
 70
     1
  9
$SHADEDGE
 70
     3
  9
$SHADEDIF
 70
    70
  9
$TILEMODE
 70
     1
  9
$MAXACTVP
 70
    16
  9
$PINSBASE
 10
0.0
 20
0.0
 30
0.0
  9
$PLIMCHECK
 70
     0
  9
$PEXTMIN
 10
1.000000E+20
 20
1.000000E+20
 30
1.000000E+20
  9
$PEXTMAX
 10
-1.000000E+20
 20
-1.000000E+20
 30
-1.000000E+20
  9
$PLIMMIN
 10
0.0
 20
0.0
  9
$PLIMMAX
 10
12.0
 20
9.0
  9
$UNITMODE
 70
     0
  9
$VISRETAIN
 70
     0
  9
$PLINEGEN
 70
     1
  9
$PSLTSCALE
 70
     0
  9
$TREEDEPTH
 70
  3020
  0
ENDSEC
  0
SECTION
  2
TABLES
  0
TABLE
  2
VPORT
 70
     1
  0
VPORT
  2
*ACTIVE
 70
     0
 10
0.0
 20
0.0
 11
1.0
 21
1.0
 12
51.478777
 22
46.7237
 13
0.0
 23
0.0
 14
1.0
 24
1.0
 15
0.0
 25
0.0
 16
0.0
 26
0.0
 36
1.0
 17
0.0
 27
0.0
 37
0.0
 40
267.323574
 41
1.732051
 42
50.0
 43
0.0
 44
0.0
 50
0.0
 51
0.0
 71
     0
 72
   100
 73
     1
 74
     1
 75
     0
 76
     0
 77
     0
 78
     0
  0
ENDTAB
  0
TABLE
  2
LTYPE
 70
     2
  0
LTYPE
  2
CONTINUOUS
 70
    64
  3
Solid line
 72
    65
 73
     0
 40
0.0
  0
LTYPE
  2
CENTER
 70
    64
  3
Center ____ _ ____ _ ____ _ ____ _ ____ _ ____
 72
    65
 73
     4
 40
50.8
 49
31.75
 49
-6.35
 49
6.35
 49
-6.35
  0
ENDTAB
  0
TABLE
  2
LAYER
 70
     3
  0
LAYER
  2
0
 70
     0
 62
     7
  6
CONTINUOUS
  0
LAYER
  2
LY_1
 70
     0
 62
     7
  6
CONTINUOUS
  0
LAYER
  2
DEFPOINTS
 70
     0
 62
     7
  6
CONTINUOUS
  0
ENDTAB
  0
TABLE
  2
STYLE
 70
     2
  0
STYLE
  2
MX_NOTE_STANDARD
 70
     0
 40
0.0
 41
1.0
 50
0.0
 71
     0
 42
3.3
  3
txt.shx
  4
extfont.shx
  0
STYLE
  2
MX_DIMTXSTY_2
 70
     0
 40
0.0
 41
0.85
 50
0.0
 71
     0
 42
3.3
  3
txt.shx
  4
extfont.shx
  0
ENDTAB
  0
TABLE
  2
VIEW
 70
     0
  0
ENDTAB
  0
TABLE
  2
UCS
 70
     0
  0
ENDTAB
  0
TABLE
  2
APPID
 70
     1
  0
APPID
  2
ACAD
 70
     0
  0
ENDTAB
  0
TABLE
  2
DIMSTYLE
 70
     1
  0
DIMSTYLE
  2
MXDIMSTYLE
 70
     0
  3

  4

  5

  6
_OPEN30
  7
_OPEN30
 40
1.0
 41
2.5
 42
0.0
 43
3.75
 44
1.1938
 45
0.0
 46
0.0
 47
0.0
 48
0.0
 71
     0
 72
     0
 73
     0
 74
     0
 75
     0
 76
     0
 77
     1
 78
     8
140
3.3
141
2.5
142
0.0
143
0.03937
144
1.0
145
0.0
146
1.0
147
1.0
170
     0
171
     4
172
     1
173
     1
174
     0
175
     0
176
     0
177
     0
178
     0
  0
ENDTAB
  0
ENDSEC
  0
SECTION
  2
BLOCKS
  0
BLOCK
  8
0
  6
BYBLOCK
 62
     0
  5
20
  2
_OPEN30
 70
     2
 10
0.0
 20
0.0
 30
0.0
  3
_OPEN30
  0
LINE
  8
0
  6
BYBLOCK
 62
     0
  5
21
 10
-1.0
 20
0.267949
 30
0.0
 11
0.0
 21
0.0
 31
0.0
  0
LINE
  8
0
  6
BYBLOCK
 62
     0
  5
22
 10
0.0
 20
0.0
 30
0.0
 11
-1.0
 21
-0.267949
 31
0.0
  0
LINE
  8
0
  6
BYBLOCK
 62
     0
  5
23
 10
0.0
 20
0.0
 30
0.0
 11
-1.0
 21
0.0
 31
0.0
  0
ENDBLK
  8
0
  6
BYBLOCK
 62
     0
  5
24
  0
BLOCK
  8
0
  6
BYBLOCK
 62
     0
  5
26
  2
*D1
 70
     1
 10
0.0
 20
0.0
 30
0.0
  3
*D1
  0
LINE
  8
0
  6
CONTINUOUS
 62
   110
  5
27
 10
64.0
 20
67.0
 30
0.0
 11
64.0
 21
0.0
 31
0.0
  0
LINE
  8
0
  6
CONTINUOUS
 62
   110
  5
28
 10
19.499985
 20
67.0
 30
0.0
 11
65.193787
 21
67.0
 31
0.0
  0
LINE
  8
0
  6
CONTINUOUS
 62
   110
  5
29
 10
56.0
 20
0.0
 30
0.0
 11
65.193787
 21
0.0
 31
0.0
  0
INSERT
  8
0
  6
CONTINUOUS
 62
   110
  5
30
  2
_OPEN
 10
64.0
 20
67.0
 30
0.0
 41
2.19
 42
2.19
 50
90.0
 43
2.19
  0
INSERT
  8
0
  6
CONTINUOUS
 62
   110
  5
31
  2
_OPEN
 10
64.0
 20
0.0
 30
0.0
 41
2.19
 42
2.19
 50
270.0
 43
2.19
  0
TEXT
  8
0
  6
CONTINUOUS
 62
   110
  5
33
 10
63.0
 20
31.273346
 30
0.0
 40
3.3
  1
67
 50
90.0
 41
0.98743
  7
MX_DIMTXSTY_2
 11
61.35
 21
31.273346
 31
0.0
 73
     2
  0
POINT
  8
DEFPOINTS
  6
CONTINUOUS
 62
     0
  5
34
 10
19.499985
 20
67.0
 30
0.0
  0
POINT
  8
DEFPOINTS
  6
CONTINUOUS
 62
     0
  5
35
 10
56.0
 20
0.0
 30
0.0
  0
POINT
  8
DEFPOINTS
  6
CONTINUOUS
 62
     0
  5
36
 10
64.0
 20
0.0
 30
0.0
  0
ENDBLK
  8
0
  6
BYBLOCK
 62
     0
  5
37
  0
BLOCK
  8
0
  6
BYBLOCK
 62
     0
  5
2B
  2
_OPEN
 70
     2
 10
0.0
 20
0.0
 30
0.0
  3
_OPEN
  0
LINE
  8
0
  6
BYBLOCK
 62
     0
  5
2C
 10
-1.0
 20
0.166667
 30
0.0
 11
0.0
 21
0.0
 31
0.0
  0
LINE
  8
0
  6
BYBLOCK
 62
     0
  5
2D
 10
0.0
 20
0.0
 30
0.0
 11
-1.0
 21
-0.166667
 31
0.0
  0
LINE
  8
0
  6
BYBLOCK
 62
     0
  5
2E
 10
0.0
 20
0.0
 30
0.0
 11
-1.0
 21
0.0
 31
0.0
  0
ENDBLK
  8
0
  6
BYBLOCK
 62
     0
  5
2F
  0
BLOCK
  8
0
  6
BYBLOCK
 62
     0
  5
3A
  2
*D3
 70
     1
 10
0.0
 20
0.0
 30
0.0
  3
*D3
  0
LINE
  8
0
  6
CONTINUOUS
 62
   110
  5
3B
 10
51.0
 20
-48.5
 30
0.0
 11
-51.0
 21
-48.5
 31
0.0
  0
LINE
  8
0
  6
CONTINUOUS
 62
   110
  5
3C
 10
51.0
 20
-33.050003
 30
0.0
 11
51.0
 21
-49.693787
 31
0.0
  0
LINE
  8
0
  6
CONTINUOUS
 62
   110
  5
3D
 10
-51.0
 20
-33.050003
 30
0.0
 11
-51.0
 21
-49.693787
 31
0.0
  0
INSERT
  8
0
  6
CONTINUOUS
 62
   110
  5
3E
  2
_OPEN
 10
51.0
 20
-48.5
 30
0.0
 41
2.19
 42
2.19
 43
2.19
  0
INSERT
  8
0
  6
CONTINUOUS
 62
   110
  5
3F
  2
_OPEN
 10
-51.0
 20
-48.5
 30
0.0
 41
2.19
 42
2.19
 50
180.0
 43
2.19
  0
TEXT
  8
0
  6
CONTINUOUS
 62
   110
  5
40
 10
-3.600662
 20
-47.5
 30
0.0
 40
3.3
  1
102
 41
1.007178
  7
MX_NOTE_STANDARD
 11
-3.600662
 21
-45.85
 31
0.0
 73
     2
  0
POINT
  8
DEFPOINTS
  6
CONTINUOUS
 62
     0
  5
41
 10
51.0
 20
-33.050003
 30
0.0
  0
POINT
  8
DEFPOINTS
  6
CONTINUOUS
 62
     0
  5
42
 10
-51.0
 20
-33.050003
 30
0.0
  0
POINT
  8
DEFPOINTS
  6
CONTINUOUS
 62
     0
  5
43
 10
-51.0
 20
-48.5
 30
0.0
  0
ENDBLK
  8
0
  6
BYBLOCK
 62
     0
  5
44
  0
ENDSEC
  0
SECTION
  2
ENTITIES
  0
DIMENSION
  8
LY_1
  6
CONTINUOUS
 62
   110
  5
38
  2
*D1
 10
64.0
 20
0.0
 30
0.0
 11
64.0
 21
33.5
 31
0.0
 70
   128
  1
<>
 13
19.499985
 23
67.0
 33
0.0
 14
56.0
 24
0.0
 34
0.0
 50
90.0
  3
MXDIMSTYLE
1001
ACAD
1000
DSTYLE
1002
{
1070
     6
1000
_OPEN
1070
     7
1000
_OPEN
1070
    41
1040
2.19
1070
    44
1040
1.193787
1070
   271
1070
     0
1070
   284
1070
     8
1070
   340
1005
32
1070
   343
1005
2A
1070
   344
1005
2A
1002
}
  0
DIMENSION
  8
LY_1
  6
CONTINUOUS
 62
   110
  5
45
  2
*D3
 10
-51.0
 20
-48.5
 30
0.0
 11
0.0
 21
-48.5
 31
0.0
 70
   128
  1
<>
 13
51.0
 23
-33.050003
 33
0.0
 14
-51.0
 24
-33.050003
 34
0.0
  3
MXDIMSTYLE
1001
ACAD
1000
DSTYLE
1002
{
1070
     6
1000
_OPEN
1070
     7
1000
_OPEN
1070
    41
1040
2.19
1070
    44
1040
1.193787
1070
   271
1070
     0
1070
   284
1070
     8
1070
   343
1005
2A
1070
   344
1005
2A
1002
}
  0
TEXT
  8
LY_1
  6
CONTINUOUS
 62
   110
  5
46
 10
-57.076161
 20
-68.583591
 30
0.0
 40
4.167181
  1
      SWING CHECK VALVE 11/2
 41
0.959855
  7
MX_NOTE_STANDARD
 11
-57.076161
 21
-66.5
 31
0.0
 73
     2
  0
TEXT
  8
LY_1
  6
CONTINUOUS
 62
   110
  5
47
 10
-57.109061
 20
-84.583591
 30
0.0
 40
4.167181
  1
KITZ
 41
0.912486
  7
MX_NOTE_STANDARD
 11
-57.109061
 21
-82.5
 31
0.0
 73
     2
  0
TEXT
  8
LY_1
  6
CONTINUOUS
 62
   110
  5
48
 10
-57.016639
 20
-76.583591
 30
0.0
 40
4.167181
  1
FIG   R11/2
 41
1.045557
  7
MX_NOTE_STANDARD
 11
-57.016639
 21
-74.5
 31
0.0
 73
     2
  0
TEXT
  8
LY_1
  6
CONTINUOUS
 62
   110
  5
49
 10
-57.10692
 20
-60.583591
 30
0.0
 40
4.167181
  1
NAME  CLASS 125 CAST BRONZE
 41
0.915569
  7
MX_NOTE_STANDARD
 11
-57.10692
 21
-58.5
 31
0.0
 73
     2
  0
POLYLINE
  8
LY_1
  6
CONTINUOUS
 62
     3
  5
4A
 66
     1
 10
0.0
 20
0.0
 30
0.0
  0
VERTEX
  8
LY_1
  6
CONTINUOUS
 62
     3
  5
100
 10
14.00923
 20
-1.926534
 30
0.0
  0
VERTEX
  8
LY_1
  6
CONTINUOUS
 62
     3
  5
101
 10
14.00458
 20
-1.930633
 30
0.0
  0
VERTEX
  8
LY_1
  6
CONTINUOUS
 62
     3
  5
102
 10
14.000548
 20
-1.935317
 30
0.0
  0
VERTEX
  8
LY_1
  6
CONTINUOUS
 62
     3
  5
103
 10
13.997211
 20
-1.940499
 30
0.0
  0
VERTEX
  8
LY_1
  6
CONTINUOUS
 62
     3
  5
104
 10
13.994631
 20
-1.946079
 30
0.0
  0
VERTEX
  8
LY_1
  6
CONTINUOUS
 62
     3
  5
105
 10
13.992858
 20
-1.951954
 30
0.0
  0
VERTEX
  8
LY_1
  6
CONTINUOUS
 62
     3
  5
106
 10
13.991926
 20
-1.95801
 30
0.0
  0
VERTEX
  8
LY_1
  6
CONTINUOUS
 62
     3
  5
107
 10
13.991851
 20
-1.964135
 30
0.0
  0
VERTEX
  8
LY_1
  6
CONTINUOUS
 62
     3
  5
108
 10
13.992635
 20
-1.970212
 30
0.0
  0
VERTEX
  8
LY_1
  6
CONTINUOUS
 62
     3
  5
109
 10
13.994264
 20
-1.976126
 30
0.0
  0
VERTEX
  8
LY_1
  6
CONTINUOUS
 62
     3
  5
10A
 10
13.996706
 20
-1.981765
 30
0.0
  0
VERTEX
  8
LY_1
  6
CONTINUOUS
 62
     3
  5
10B
 10
13.999916
 20
-1.987024
 30
0.0
  0
VERTEX
  8
LY_1
  6
CONTINUOUS
 62
     3
  5
10C
 10
14.003832
 20
-1.991801
 30
0.0
  0
VERTEX
  8
LY_1
  6
CONTINUOUS
 62
     3
  5
10D
 10
14.008381
 20
-1.996007
 30
0.0
  0
VERTEX
  8
LY_1
  6
CONTINUOUS
 62
     3
  5
10E
 10
14.013477
 20
-1.999563
 30
0.0
  0
VERTEX
  8
LY_1
  6
CONTINUOUS
 62
     3
  5
10F
 10
14.019023
 20
-2.002401
 30
0.0
  0
VERTEX
  8
LY_1
  6
CONTINUOUS
 62
     3
  5
110
 10
14.024914
 20
-2.004467
 30
0.0
  0
VERTEX
  8
LY_1
  6
CONTINUOUS
 62
     3
  5
111
 10
14.031039
 20
-2.005722
 30
0.0
  0
VERTEX
  8
LY_1
  6
CONTINUOUS
 62
     3
  5
112
 10
14.037282
 20
-2.006144
 30
0.0
  0
VERTEX
  8
LY_1
  6
CONTINUOUS
 62
     3
  5
113
 10
14.037282
 20
-2.006144
 30
0.0
  0
SEQEND
  8
LY_1
  6
CONTINUOUS
 62
     3
  5
114
  0
POLYLINE
  8
LY_1
  6
CONTINUOUS
 62
     3
  5
4B
 66
     1
 10
0.0
 20
0.0
 30
0.0
  0
VERTEX
  8
LY_1
  6
CONTINUOUS
 62
     3
  5
115
 10
16.856619
 20
3.377019
 30
0.0
  0
VERTEX
  8
LY_1
  6
CONTINUOUS
 62
     3
  5
116
 10
16.861545
 20
3.381399
 30
0.0
  0
VERTEX
  8
LY_1
  6
CONTINUOUS
 62
     3
  5
117
 10
16.865766
 20
3.386435
 30
0.0
  0
VERTEX
  8
LY_1
  6
CONTINUOUS
 62
     3
  5
118
 10
16.86919
 20
3.39202
 30
0.0
  0
VERTEX
  8
LY_1
  6
CONTINUOUS
 62
     3
  5
119
 10
16.871746
 20
3.398034
 30
0.0
  0
VERTEX
  8
LY_1
  6
CONTINUOUS
 62
     3
  5
11A
 10
16.873379
 20
3.404349
 30
0.0
  0
VERTEX
  8
LY_1
  6
CONTINUOUS
 62
     3
  5
11B
 10
16.874053
 20
3.410829
 30
0.0
  0
VERTEX
  8
LY_1
  6
CONTINUOUS
 62
     3
  5
11C
 10
16.873754
 20
3.417337
 30
0.0
  0
VERTEX
  8
LY_1
  6
CONTINUOUS
 62
     3
  5
11D
 10
16.872489
 20
3.423732
 30
0.0
  0
VERTEX
  8
LY_1
  6
CONTINUOUS
 62
     3
  5
11E
 10
16.870284
 20
3.429878
 30
0.0
  0
VERTEX
  8
LY_1
  6
CONTINUOUS
 62
     3
  5
11F
 10
16.867187
 20
3.435643
 30
0.0
  0
VERTEX
  8
LY_1
  6
CONTINUOUS
 62
     3
  5
120
 10
16.863264
 20
3.440905
 30
0.0
  0
VERTEX
  8
LY_1
  6
CONTINUOUS
 62
     3
  5
121
 10
16.858599
 20
3.44555
 30
0.0
  0
VERTEX
  8
LY_1
  6
CONTINUOUS
 62
     3
  5
122
 10
16.853292
 20
3.44948
 30
0.0
  0
VERTEX
  8
LY_1
  6
CONTINUOUS
 62
     3
  5
123
 10
16.847455
 20
3.45261
 30
0.0
  0
VERTEX
  8
LY_1
  6
CONTINUOUS
 62
     3
  5
124
 10
16.841215
 20
3.454873
 30
0.0
  0
VERTEX
  8
LY_1
  6
CONTINUOUS
 62
     3
  5
125
 10
16.834704
 20
3.456221
 30
0.0
  0
VERTEX
  8
LY_1
  6
CONTINUOUS
 62
     3
  5
126
 10
16.831643
 20
3.456526
 30
0.0
  0
VERTEX
  8
LY_1
  6
CONTINUOUS
 62
     3
  5
127
 10
16.828568
 20
3.456628
 30
0.0
  0
SEQEND
  8
LY_1
  6
CONTINUOUS
 62
     3
  5
128
  0
POLYLINE
  8
LY_1
  6
CONTINUOUS
 62
     3
  5
4C
 66
     1
 10
0.0
 20
0.0
 30
0.0
  0
VERTEX
  8
LY_1
  6
CONTINUOUS
 62
     3
  5
129
 10
-17.391198
 20
0.036501
 30
0.0
  0
VERTEX
  8
LY_1
  6
CONTINUOUS
 62
     3
  5
12A
 10
-17.396064
 20
0.032666
 30
0.0
  0
VERTEX
  8
LY_1
  6
CONTINUOUS
 62
     3
  5
12B
 10
-17.400347
 20
0.028214
 30
0.0
  0
VERTEX
  8
LY_1
  6
CONTINUOUS
 62
     3
  5
12C
 10
-17.403967
 20
0.023231
 30
0.0
  0
VERTEX
  8
LY_1
  6
CONTINUOUS
 62
     3
  5
12D
 10
-17.406855
 20
0.017809
 30
0.0
  0
VERTEX
  8
LY_1
  6
CONTINUOUS
 62
     3
  5
12E
 10
-17.408957
 20
0.012051
 30
0.0
  0
VERTEX
  8
LY_1
  6
CONTINUOUS
 62
     3
  5
12F
 10
-17.410234
 20
0.006065
 30
0.0
  0
VERTEX
  8
LY_1
  6
CONTINUOUS
 62
     3
  5
130
 10
-17.410662
 20
-0.000035
 30
0.0
  0
VERTEX
  8
LY_1
  6
CONTINUOUS
 62
     3
  5
131
 10
-17.410231
 20
-0.006136
 30
0.0
  0
VERTEX
  8
LY_1
  6
CONTINUOUS
 62
     3
  5
132
 10
-17.408952
 20
-0.012121
 30
0.0
  0
VERTEX
  8
LY_1
  6
CONTINUOUS
 62
     3
  5
133
 10
-17.406846
 20
-0.017878
 30
0.0
  0
VERTEX
  8
LY_1
  6
CONTINUOUS
 62
     3
  5
134
 10
-17.403955
 20
-0.023298
 30
0.0
  0
VERTEX
  8
LY_1
  6
CONTINUOUS
 62
     3
  5
135
 10
-17.400333
 20
-0.02828
 30
0.0
  0
VERTEX
  8
LY_1
  6
CONTINUOUS
 62
     3
  5
136
 10
-17.396048
 20
-0.032729
 30
0.0
  0
VERTEX
  8
LY_1
  6
CONTINUOUS
 62
     3
  5
137
 10
-17.39118
 20
-0.036562
 30
0.0
  0
SEQEND
  8
LY_1
  6
CONTINUOUS
 62
     3
  5
138
  0
ARC
  8
LY_1
  6
CONTINUOUS
 62
     3
  5
4D
 10
18.729294
 20
3.237485
 30
0.0
 40
1.220605
 50
307.524111
 51
89.999982
  0
ARC
  8
LY_1
  6
CONTINUOUS
 62
     3
  5
4E
 10
18.724075
 20
-3.232041
 30
0.0
 40
1.225967
 50
270.000018
 51
89.999982
  0
ARC
  8
LY_1
  6
CONTINUOUS
 62
     3
  5
4F
 10
10.248605
 20
-3.237336
 30
0.0
 40
1.220816
 50
127.524112
 51
270.000001
  0
ARC
  8
LY_1
  6
CONTINUOUS
 62
     3
  5
50
 10
10.731079
 20
3.205542
 30
0.0
 40
1.25254
 50
89.999982
 51
359.999983
  0
ARC
  8
LY_1
  6
CONTINUOUS
 62
     3
  5
51
 10
6.477054
 20
3.231851
 30
0.0
 40
1.225915
 50
270.000018
 51
89.999982
  0
ARC
  8
LY_1
  6
CONTINUOUS
 62
     3
  5
52
 10
2.470304
 20
-3.205535
 30
0.0
 40
1.252576
 50
180.000036
 51
0.000001
  0
ARC
  8
LY_1
  6
CONTINUOUS
 62
     3
  5
53
 10
-1.919869
 20
3.205201
 30
0.0
 40
1.252469
 50
89.999982
 51
359.999983
  0
ARC
  8
LY_1
  6
CONTINUOUS
 62
     3
  5
54
 10
-6.217638
 20
-3.205535
 30
0.0
 40
1.25256
 50
180.000036
 51
0.000001
  0
ARC
  8
LY_1
  6
CONTINUOUS
 62
     3
  5
55
 10
-6.217638
 20
3.205542
 30
0.0
 40
1.25256
 50
0.000018
 51
180.000019
  0
ARC
  8
LY_1
  6
CONTINUOUS
 62
     3
  5
56
 10
-10.44136
 20
2.972547
 30
0.0
 40
1.485638
 50
90.778951
 51
124.259063
  0
ARC
  8
LY_1
  6
CONTINUOUS
 62
     3
  5
57
 10
-10.479959
 20
3.232528
 30
0.0
 40
1.225667
 50
213.574514
 51
89.143203
  0
ARC
  8
LY_1
  6
CONTINUOUS
 62
     3
  5
58
 10
-10.502527
 20
-3.234988
 30
0.0
 40
1.234388
 50
235.740937
 51
55.740955
  0
ARC
  8
LY_1
  6
CONTINUOUS
 62
     3
  5
59
 10
-18.697571
 20
-3.205677
 30
0.0
 40
1.252484
 50
179.999964
 51
359.999983
  0
ARC
  8
LY_1
  6
CONTINUOUS
 62
     3
  5
5A
 10
-18.697571
 20
3.205682
 30
0.0
 40
1.252484
 50
0.000018
 51
180.000019
  0
ARC
  8
LY_1
  6
CONTINUOUS
 62
     3
  5
5B
 10
0.0
 20
186.062103
 30
0.0
 40
83.0
 50
263.137754
 51
293.154469
  0
CIRCLE
  8
LY_1
  6
CONTINUOUS
 62
     3
  5
5C
 10
0.0
 20
138.562103
 30
0.0
 40
31.5
  0
CIRCLE
  8
LY_1
  6
CONTINUOUS
 62
     3
  5
5D
 10
0.0
 20
138.562103
 30
0.0
 40
19.5
  0
ARC
  8
LY_1
  6
CONTINUOUS
 62
     3
  5
5E
 10
-34.209366
 20
171.054092
 30
0.0
 40
4.0
 50
228.417171
 51
293.154523
  0
ARC
  8
LY_1
  6
CONTINUOUS
 62
     3
  5
5F
 10
-34.209366
 20
106.070114
 30
0.0
 40
4.0
 50
66.845477
 51
131.582829
  0
ARC
  8
LY_1
  6
CONTINUOUS
 62
     3
  5
60
 10
34.209366
 20
171.054092
 30
0.0
 40
4.0
 50
246.845458
 51
311.582807
  0
ARC
  8
LY_1
  6
CONTINUOUS
 62
     3
  5
61
 10
0.0
 20
91.062103
 30
0.0
 40
83.0
 50
66.845531
 51
113.158913
  0
ARC
  8
LY_1
  6
CONTINUOUS
 62
     3
  5
62
 10
34.209366
 20
106.070114
 30
0.0
 40
4.0
 50
48.417193
 51
113.154542
  0
ARC
  8
LY_1
  6
CONTINUOUS
 62
     3
  5
63
 10
0.0
 20
186.062103
 30
0.0
 40
83.0
 50
246.841087
 51
251.978482
  0
ARC
  8
LY_1
  6
CONTINUOUS
 62
     3
  5
64
 10
39.82164
 20
28.809723
 30
0.0
 40
50.0
 50
340.308489
 51
0.000003
  0
ARC
  8
LY_1
  6
CONTINUOUS
 62
     3
  5
65
 10
200.82164
 20
28.809723
 30
0.0
 40
50.0
 50
180.000019
 51
199.691509
  0
ARC
  8
LY_1
  6
CONTINUOUS
 62
     3
  5
66
 10
120.32164
 20
0.0
 30
0.0
 40
35.5
 50
160.308474
 51
19.691527
  0
CIRCLE
  8
LY_1
  6
CONTINUOUS
 62
     3
  5
67
 10
120.32164
 20
0.0
 30
0.0
 40
22.422501
  0
CIRCLE
  8
LY_1
  6
CONTINUOUS
 62
   110
  5
68
 10
120.32164
 20
0.0
 30
0.0
 40
23.901505
  0
CIRCLE
  8
LY_1
  6
CONTINUOUS
 62
     3
  5
69
 10
-18.0
 20
33.0
 30
0.0
 40
8.0
  0
CIRCLE
  8
LY_1
  6
CONTINUOUS
 62
     3
  5
6A
 10
-18.0
 20
33.0
 30
0.0
 40
6.5
  0
ARC
  8
LY_1
  6
CONTINUOUS
 62
     3
  5
6B
 10
-34.0
 20
32.03772
 30
0.0
 40
3.5
 50
293.145179
 51
359.999909
  0
ARC
  8
LY_1
  6
CONTINUOUS
 62
     3
  5
6C
 10
0.0
 20
-47.5
 30
0.0
 40
83.0
 50
113.145253
 51
113.154487
  0
ARC
  8
LY_1
  6
CONTINUOUS
 62
     3
  5
6D
 10
34.0
 20
32.03772
 30
0.0
 40
3.5
 50
180.000091
 51
246.854802
  0
ARC
  8
LY_1
  6
CONTINUOUS
 62
     3
  5
6E
 10
-34.209366
 20
32.491989
 30
0.0
 40
4.0
 50
195.00006
 51
293.154523
  0
ARC
  8
LY_1
  6
CONTINUOUS
 62
     3
  5
6F
 10
34.209366
 20
32.491989
 30
0.0
 40
4.0
 50
246.845458
 51
344.999948
  0
ARC
  8
LY_1
  6
CONTINUOUS
 62
     3
  5
70
 10
0.0
 20
-47.5
 30
0.0
 40
83.0
 50
66.845531
 51
66.854766
  0
ARC
  8
LY_1
  6
CONTINUOUS
 62
     3
  5
71
 10
-34.209366
 20
-32.491989
 30
0.0
 40
4.0
 50
66.845477
 51
164.99994
  0
ARC
  8
LY_1
  6
CONTINUOUS
 62
     3
  5
72
 10
34.209366
 20
-32.491989
 30
0.0
 40
4.0
 50
15.000052
 51
113.154542
  0
ARC
  8
LY_1
  6
CONTINUOUS
 62
     3
  5
73
 10
0.0
 20
47.5
 30
0.0
 40
83.0
 50
246.841087
 51
293.154469
  0
LINE
  8
LY_1
  6
CONTINUOUS
 62
     3
  5
74
 10
11.983557
 20
3.456606
 30
0.0
 11
11.983557
 21
3.205542
 31
0.0
  0
LINE
  8
LY_1
  6
CONTINUOUS
 62
     3
  5
75
 10
-0.667301
 20
3.456208
 30
0.0
 11
-0.667301
 21
3.205201
 31
0.0
  0
LINE
  8
LY_1
  6
CONTINUOUS
 62
     3
  5
76
 10
-0.667301
 20
3.456208
 30
0.0
 11
1.217793
 21
3.456208
 31
0.0
  0
LINE
  8
LY_1
  6
CONTINUOUS
 62
     3
  5
77
 10
3.722926
 20
2.005871
 30
0.0
 11
6.477054
 21
2.005871
 31
0.0
  0
LINE
  8
LY_1
  6
CONTINUOUS
 62
     3
  5
78
 10
3.722926
 20
2.005871
 30
0.0
 11
3.722926
 21
-3.205535
 31
0.0
  0
LINE
  8
LY_1
  6
CONTINUOUS
 62
     3
  5
79
 10
1.217793
 20
3.456208
 30
0.0
 11
1.217793
 21
-3.205535
 31
0.0
  0
LINE
  8
LY_1
  6
CONTINUOUS
 62
     3
  5
7A
 10
-1.919869
 20
4.457627
 30
0.0
 11
6.477054
 21
4.457627
 31
0.0
  0
LINE
  8
LY_1
  6
CONTINUOUS
 62
     3
  5
7B
 10
11.983557
 20
3.456606
 30
0.0
 11
16.828476
 21
3.456606
 31
0.0
  0
LINE
  8
LY_1
  6
CONTINUOUS
 62
     3
  5
7C
 10
10.248605
 20
-4.458072
 30
0.0
 11
18.724075
 21
-4.458072
 31
0.0
  0
LINE
  8
LY_1
  6
CONTINUOUS
 62
     3
  5
7D
 10
18.724075
 20
-2.006148
 30
0.0
 11
14.037312
 21
-2.006148
 31
0.0
  0
LINE
  8
LY_1
  6
CONTINUOUS
 62
     3
  5
7E
 10
19.472822
 20
2.269432
 30
0.0
 11
14.009165
 21
-1.926632
 31
0.0
  0
LINE
  8
LY_1
  6
CONTINUOUS
 62
     3
  5
7F
 10
16.856665
 20
3.376926
 30
0.0
 11
9.505098
 21
-2.269043
 31
0.0
  0
LINE
  8
LY_1
  6
CONTINUOUS
 62
     3
  5
80
 10
10.731079
 20
4.458081
 30
0.0
 11
18.729294
 21
4.458081
 31
0.0
  0
LINE
  8
LY_1
  6
CONTINUOUS
 62
     3
  5
81
 10
-7.470264
 20
-3.205535
 30
0.0
 11
-7.470264
 21
3.205542
 31
0.0
  0
LINE
  8
LY_1
  6
CONTINUOUS
 62
     3
  5
82
 10
-4.965073
 20
3.205542
 30
0.0
 11
-4.965073
 21
-3.205535
 31
0.0
  0
LINE
  8
LY_1
  6
CONTINUOUS
 62
     3
  5
83
 10
-14.155547
 20
0.746754
 30
0.0
 11
-11.501134
 21
2.554693
 31
0.0
  0
LINE
  8
LY_1
  6
CONTINUOUS
 62
     3
  5
84
 10
-14.155587
 20
0.746676
 30
0.0
 11
-9.807516
 21
-2.214825
 31
0.0
  0
LINE
  8
LY_1
  6
CONTINUOUS
 62
     3
  5
85
 10
-17.391187
 20
0.036449
 30
0.0
 11
-11.277695
 21
4.20039
 31
0.0
  0
LINE
  8
LY_1
  6
CONTINUOUS
 62
     3
  5
86
 10
-17.3911
 20
-0.036683
 30
0.0
 11
-11.197309
 21
-4.255316
 31
0.0
  0
LINE
  8
LY_1
  6
CONTINUOUS
 62
     3
  5
87
 10
-17.44516
 20
3.205682
 30
0.0
 11
-17.44516
 21
-3.205677
 31
0.0
  0
LINE
  8
LY_1
  6
CONTINUOUS
 62
     3
  5
88
 10
-19.950058
 20
3.205682
 30
0.0
 11
-19.950058
 21
-3.205677
 31
0.0
  0
LINE
  8
LY_1
  6
CONTINUOUS
 62
     3
  5
89
 10
88.821633
 20
55.000544
 30
0.0
 11
151.821633
 21
55.000605
 31
0.0
  0
LINE
  8
LY_1
  6
CONTINUOUS
 62
     3
  5
8A
 10
-31.5
 20
55.00058
 30
0.0
 11
31.5
 21
55.00058
 31
0.0
  0
LINE
  8
LY_1
  6
CONTINUOUS
 62
     3
  5
8B
 10
84.260284
 20
33.0
 30
0.0
 11
89.571609
 21
33.0
 31
0.0
  0
LINE
  8
LY_1
  6
CONTINUOUS
 62
     3
  5
8C
 10
-38.5
 20
17.03183
 30
0.0
 11
-51.0
 21
17.03183
 31
0.0
  0
LINE
  8
LY_1
  6
CONTINUOUS
 62
     3
  5
8D
 10
38.5
 20
17.03183
 30
0.0
 11
51.0
 21
17.03183
 31
0.0
  0
LINE
  8
LY_1
  6
CONTINUOUS
 62
     3
  5
8E
 10
-38.5
 20
-17.03183
 30
0.0
 11
-51.0
 21
-17.03183
 31
0.0
  0
LINE
  8
LY_1
  6
CONTINUOUS
 62
     3
  5
8F
 10
38.5
 20
-17.03183
 30
0.0
 11
51.0
 21
-17.03183
 31
0.0
  0
LINE
  8
LY_1
  6
CONTINUOUS
 62
     3
  5
90
 10
120.32164
 20
56.0
 30
0.0
 11
120.32164
 21
65.412277
 31
0.0
  0
LINE
  8
LY_1
  6
CONTINUOUS
 62
     3
  5
91
 10
104.248947
 20
65.412277
 30
0.0
 11
104.248947
 21
56.0
 31
0.0
  0
LINE
  8
LY_1
  6
CONTINUOUS
 62
     3
  5
92
 10
136.394348
 20
65.412277
 30
0.0
 11
136.394348
 21
56.0
 31
0.0
  0
LINE
  8
LY_1
  6
CONTINUOUS
 62
     3
  5
93
 10
0.0
 20
65.412277
 30
0.0
 11
0.0
 21
56.0
 31
0.0
  0
LINE
  8
LY_1
  6
CONTINUOUS
 62
     3
  5
94
 10
-16.072693
 20
65.412277
 30
0.0
 11
-16.072693
 21
56.0
 31
0.0
  0
LINE
  8
LY_1
  6
CONTINUOUS
 62
     3
  5
95
 10
16.072708
 20
65.412277
 30
0.0
 11
16.072708
 21
56.0
 31
0.0
  0
LINE
  8
LY_1
  6
CONTINUOUS
 62
     3
  5
96
 10
-22.041458
 20
106.729218
 30
0.0
 11
-22.041458
 21
103.126007
 31
0.0
  0
LINE
  8
LY_1
  6
CONTINUOUS
 62
     3
  5
97
 10
-26.082901
 20
106.729218
 30
0.0
 11
-26.082901
 21
103.126007
 31
0.0
  0
LINE
  8
LY_1
  6
CONTINUOUS
 62
     3
  5
98
 10
-26.082902
 20
106.729198
 30
0.0
 11
-23.749998
 21
109.062102
 31
0.0
  0
LINE
  8
LY_1
  6
CONTINUOUS
 62
     3
  5
99
 10
-26.082891
 20
103.126023
 30
0.0
 11
-24.499979
 21
102.212128
 31
0.0
  0
LINE
  8
LY_1
  6
CONTINUOUS
 62
     3
  5
9A
 10
-26.082901
 20
106.729218
 30
0.0
 11
-9.917094
 21
106.729218
 31
0.0
  0
LINE
  8
LY_1
  6
CONTINUOUS
 62
     3
  5
9B
 10
-26.082901
 20
103.126007
 30
0.0
 11
-9.917094
 21
103.126007
 31
0.0
  0
LINE
  8
LY_1
  6
CONTINUOUS
 62
     3
  5
9C
 10
-13.958547
 20
106.729218
 30
0.0
 11
-13.958547
 21
103.126007
 31
0.0
  0
LINE
  8
LY_1
  6
CONTINUOUS
 62
     3
  5
9D
 10
-9.917094
 20
106.729218
 30
0.0
 11
-9.917094
 21
103.126007
 31
0.0
  0
LINE
  8
LY_1
  6
CONTINUOUS
 62
     3
  5
9E
 10
-26.0
 20
109.062103
 30
0.0
 11
-26.0
 21
120.778687
 31
0.0
  0
LINE
  8
LY_1
  6
CONTINUOUS
 62
     3
  5
9F
 10
-9.917093
 20
106.729198
 30
0.0
 11
-12.249997
 21
109.062102
 31
0.0
  0
LINE
  8
LY_1
  6
CONTINUOUS
 62
     3
  5
A0
 10
-9.917105
 20
103.126024
 30
0.0
 11
-11.500017
 21
102.21213
 31
0.0
  0
LINE
  8
LY_1
  6
CONTINUOUS
 62
     3
  5
A1
 10
-24.5
 20
102.212128
 30
0.0
 11
-11.5
 21
102.212128
 31
0.0
  0
LINE
  8
LY_1
  6
CENTER
 62
   110
  5
A3
 10
-18.0
 20
97.212128
 30
0.0
 11
-18.0
 21
114.312134
 31
0.0
  0
LINE
  8
LY_1
  6
CONTINUOUS
 62
     3
  5
A4
 10
-26.0
 20
109.062103
 30
0.0
 11
-11.045361
 21
109.062103
 31
0.0
  0
LINE
  8
LY_1
  6
CONTINUOUS
 62
     3
  5
A5
 10
0.000006
 20
115.831851
 30
0.0
 11
-16.072674
 21
122.489372
 31
0.0
  0
LINE
  8
LY_1
  6
CONTINUOUS
 62
     3
  5
A6
 10
16.072722
 20
154.634787
 30
0.0
 11
0.000001
 21
161.292325
 31
0.0
  0
LINE
  8
LY_1
  6
CONTINUOUS
 62
     3
  5
A7
 10
-16.072711
 20
122.489364
 30
0.0
 11
-22.73025
 21
138.562084
 31
0.0
  0
LINE
  8
LY_1
  6
CONTINUOUS
 62
     3
  5
A8
 10
22.730222
 20
138.562083
 30
0.0
 11
16.072695
 21
154.634775
 31
0.0
  0
LINE
  8
LY_1
  6
CONTINUOUS
 62
     3
  5
A9
 10
-22.730214
 20
138.562094
 30
0.0
 11
-16.072681
 21
154.634802
 31
0.0
  0
LINE
  8
LY_1
  6
CONTINUOUS
 62
     3
  5
AA
 10
16.072728
 20
122.489391
 30
0.0
 11
22.730254
 21
138.562085
 31
0.0
  0
LINE
  8
LY_1
  6
CONTINUOUS
 62
     3
  5
AB
 10
-16.07272
 20
154.634786
 30
0.0
 11
-0.000027
 21
161.292314
 31
0.0
  0
LINE
  8
LY_1
  6
CONTINUOUS
 62
     3
  5
AC
 10
-0.000029
 20
115.831841
 30
0.0
 11
16.072692
 21
122.489381
 31
0.0
  0
LINE
  8
LY_1
  6
CONTINUOUS
 62
     3
  5
AD
 10
-36.864166
 20
138.562103
 30
0.0
 11
-51.0
 21
138.562103
 31
0.0
  0
LINE
  8
LY_1
  6
CONTINUOUS
 62
     3
  5
AE
 10
-36.864166
 20
109.062103
 30
0.0
 11
-36.864166
 21
168.062103
 31
0.0
  0
LINE
  8
LY_1
  6
CONTINUOUS
 62
     3
  5
AF
 10
-36.864166
 20
168.062103
 30
0.0
 11
-51.0
 21
168.062103
 31
0.0
  0
LINE
  8
LY_1
  6
CONTINUOUS
 62
     3
  5
B0
 10
-36.864166
 20
109.062103
 30
0.0
 11
-51.0
 21
109.062103
 31
0.0
  0
LINE
  8
LY_1
  6
CONTINUOUS
 62
     3
  5
B1
 10
-51.0
 20
168.062103
 30
0.0
 11
-51.0
 21
109.062103
 31
0.0
  0
LINE
  8
LY_1
  6
CONTINUOUS
 62
     3
  5
B2
 10
36.864166
 20
138.562103
 30
0.0
 11
51.0
 21
138.562103
 31
0.0
  0
LINE
  8
LY_1
  6
CONTINUOUS
 62
     3
  5
B3
 10
36.864166
 20
109.062103
 30
0.0
 11
36.864166
 21
168.062103
 31
0.0
  0
LINE
  8
LY_1
  6
CONTINUOUS
 62
     3
  5
B4
 10
36.864166
 20
168.062103
 30
0.0
 11
51.0
 21
168.062103
 31
0.0
  0
LINE
  8
LY_1
  6
CONTINUOUS
 62
     3
  5
B5
 10
36.864166
 20
109.062103
 30
0.0
 11
51.0
 21
109.062103
 31
0.0
  0
LINE
  8
LY_1
  6
CONTINUOUS
 62
     3
  5
B6
 10
51.0
 20
168.062103
 30
0.0
 11
51.0
 21
109.062103
 31
0.0
  0
LINE
  8
LY_1
  6
CENTER
 62
   110
  5
B7
 10
-56.0
 20
138.562103
 30
0.0
 11
56.0
 21
138.562103
 31
0.0
  0
LINE
  8
LY_1
  6
CENTER
 62
   110
  5
B8
 10
0.0
 20
72.0
 30
0.0
 11
0.0
 21
-40.5
 31
0.0
  0
LINE
  8
LY_1
  6
CENTER
 62
   110
  5
B9
 10
79.942642
 20
0.0
 30
0.0
 11
160.700363
 21
0.0
 31
0.0
  0
LINE
  8
LY_1
  6
CONTINUOUS
 62
     3
  5
BA
 10
84.260284
 20
40.0
 30
0.0
 11
84.260284
 21
26.0
 31
0.0
  0
LINE
  8
LY_1
  6
CONTINUOUS
 62
     3
  5
BB
 10
89.571609
 20
26.0
 30
0.0
 11
89.571609
 21
40.0
 31
0.0
  0
LINE
  8
LY_1
  6
CONTINUOUS
 62
     3
  5
BC
 10
89.571608
 20
25.999974
 30
0.0
 11
89.752474
 21
26.18084
 31
0.0
  0
LINE
  8
LY_1
  6
CONTINUOUS
 62
     3
  5
BD
 10
84.260284
 20
26.000021
 30
0.0
 11
83.97161
 21
26.500018
 31
0.0
  0
LINE
  8
LY_1
  6
CONTINUOUS
 62
     3
  5
BE
 10
84.260284
 20
26.0
 30
0.0
 11
89.571609
 21
26.0
 31
0.0
  0
LINE
  8
LY_1
  6
CONTINUOUS
 62
     3
  5
BF
 10
89.571641
 20
39.999999
 30
0.0
 11
89.821636
 21
39.750004
 31
0.0
  0
LINE
  8
LY_1
  6
CONTINUOUS
 62
     3
  5
C0
 10
84.260288
 20
39.999985
 30
0.0
 11
83.971615
 21
39.499988
 31
0.0
  0
LINE
  8
LY_1
  6
CONTINUOUS
 62
     3
  5
C1
 10
84.260284
 20
40.0
 30
0.0
 11
89.571609
 21
40.0
 31
0.0
  0
LINE
  8
LY_1
  6
CONTINUOUS
 62
     3
  5
C2
 10
83.971603
 20
39.5
 30
0.0
 11
83.971603
 21
26.5
 31
0.0
  0
LINE
  8
LY_1
  6
CENTER
 62
   110
  5
C3
 10
78.971603
 20
33.0
 30
0.0
 11
96.071609
 21
33.0
 31
0.0
  0
LINE
  8
LY_1
  6
CONTINUOUS
 62
     3
  5
C4
 10
98.07164
 20
65.412277
 30
0.0
 11
142.57164
 21
65.412277
 31
0.0
  0
LINE
  8
LY_1
  6
CONTINUOUS
 62
     3
  5
C5
 10
98.071638
 20
55.99998
 30
0.0
 11
88.82164
 21
55.000553
 31
0.0
  0
LINE
  8
LY_1
  6
CONTINUOUS
 62
     3
  5
C6
 10
100.821668
 20
67.000011
 30
0.0
 11
98.071651
 21
65.412288
 31
0.0
  0
LINE
  8
LY_1
  6
CONTINUOUS
 62
     3
  5
C7
 10
98.07164
 20
65.412277
 30
0.0
 11
98.07164
 21
56.0
 31
0.0
  0
LINE
  8
LY_1
  6
CONTINUOUS
 62
     3
  5
C8
 10
88.82164
 20
55.000549
 30
0.0
 11
88.82164
 21
46.5
 31
0.0
  0
LINE
  8
LY_1
  6
CONTINUOUS
 62
     3
  5
C9
 10
142.571648
 20
56.000033
 30
0.0
 11
151.821645
 21
55.000606
 31
0.0
  0
LINE
  8
LY_1
  6
CONTINUOUS
 62
     3
  5
CA
 10
139.821643
 20
66.999998
 30
0.0
 11
142.57166
 21
65.412275
 31
0.0
  0
LINE
  8
LY_1
  6
CONTINUOUS
 62
     3
  5
CB
 10
142.57164
 20
65.412277
 30
0.0
 11
142.57164
 21
56.0
 31
0.0
  0
LINE
  8
LY_1
  6
CONTINUOUS
 62
     3
  5
CC
 10
100.821655
 20
67.0
 30
0.0
 11
139.821625
 21
67.0
 31
0.0
  0
LINE
  8
LY_1
  6
CONTINUOUS
 62
     3
  5
CD
 10
98.07164
 20
56.0
 30
0.0
 11
142.57164
 21
56.0
 31
0.0
  0
LINE
  8
LY_1
  6
CONTINUOUS
 62
     3
  5
CE
 10
89.82164
 20
46.5
 30
0.0
 11
89.82164
 21
28.809723
 31
0.0
  0
LINE
  8
LY_1
  6
CONTINUOUS
 62
     3
  5
CF
 10
150.82164
 20
46.5
 30
0.0
 11
150.82164
 21
28.809723
 31
0.0
  0
LINE
  8
LY_1
  6
CONTINUOUS
 62
     3
  5
D0
 10
151.82164
 20
55.00061
 30
0.0
 11
151.82164
 21
46.5
 31
0.0
  0
LINE
  8
LY_1
  6
CONTINUOUS
 62
     3
  5
D1
 10
88.82164
 20
46.5
 30
0.0
 11
151.82164
 21
46.5
 31
0.0
  0
LINE
  8
LY_1
  6
CONTINUOUS
 62
     3
  5
D2
 10
88.82164
 20
51.0
 30
0.0
 11
151.82164
 21
51.0
 31
0.0
  0
LINE
  8
LY_1
  6
CONTINUOUS
 62
     3
  5
D3
 10
90.821653
 20
17.03185
 30
0.0
 11
120.321647
 21
34.06368
 31
0.0
  0
LINE
  8
LY_1
  6
CONTINUOUS
 62
     3
  5
D4
 10
120.321653
 20
-34.063648
 30
0.0
 11
149.821647
 21
-17.031818
 31
0.0
  0
LINE
  8
LY_1
  6
CONTINUOUS
 62
     3
  5
D5
 10
120.321647
 20
34.063668
 30
0.0
 11
149.821654
 21
17.031831
 31
0.0
  0
LINE
  8
LY_1
  6
CONTINUOUS
 62
     3
  5
D6
 10
90.821647
 20
-17.031829
 30
0.0
 11
120.321654
 21
-34.063667
 31
0.0
  0
LINE
  8
LY_1
  6
CONTINUOUS
 62
     3
  5
D7
 10
149.82164
 20
17.031845
 30
0.0
 11
149.82164
 21
-17.03183
 31
0.0
  0
LINE
  8
LY_1
  6
CONTINUOUS
 62
     3
  5
D8
 10
90.82164
 20
17.031845
 30
0.0
 11
90.82164
 21
-17.03183
 31
0.0
  0
LINE
  8
LY_1
  6
CENTER
 62
   110
  5
D9
 10
120.32164
 20
72.0
 30
0.0
 11
120.32164
 21
-40.5
 31
0.0
  0
LINE
  8
LY_1
  6
CONTINUOUS
 62
     3
  5
DA
 10
-22.25
 20
65.412277
 30
0.0
 11
22.25
 21
65.412277
 31
0.0
  0
LINE
  8
LY_1
  6
CONTINUOUS
 62
     3
  5
DB
 10
-22.250005
 20
56.000006
 30
0.0
 11
-31.500003
 21
55.00058
 31
0.0
  0
LINE
  8
LY_1
  6
CONTINUOUS
 62
     3
  5
DC
 10
-19.499986
 20
67.000001
 30
0.0
 11
-22.249999
 21
65.41228
 31
0.0
  0
LINE
  8
LY_1
  6
CONTINUOUS
 62
     3
  5
DD
 10
-22.25
 20
65.412277
 30
0.0
 11
-22.25
 21
56.0
 31
0.0
  0
LINE
  8
LY_1
  6
CONTINUOUS
 62
     3
  5
DE
 10
-31.5
 20
55.00058
 30
0.0
 11
-31.5
 21
46.5
 31
0.0
  0
LINE
  8
LY_1
  6
CONTINUOUS
 62
     3
  5
DF
 10
22.250005
 20
56.000006
 30
0.0
 11
31.500003
 21
55.00058
 31
0.0
  0
LINE
  8
LY_1
  6
CONTINUOUS
 62
     3
  5
E0
 10
19.499986
 20
67.000001
 30
0.0
 11
22.249999
 21
65.41228
 31
0.0
  0
LINE
  8
LY_1
  6
CONTINUOUS
 62
     3
  5
E1
 10
22.25
 20
65.412277
 30
0.0
 11
22.25
 21
56.0
 31
0.0
  0
LINE
  8
LY_1
  6
CONTINUOUS
 62
     3
  5
E2
 10
-19.499985
 20
67.0
 30
0.0
 11
19.499985
 21
67.0
 31
0.0
  0
LINE
  8
LY_1
  6
CONTINUOUS
 62
     3
  5
E3
 10
-22.25
 20
56.0
 30
0.0
 11
22.25
 21
56.0
 31
0.0
  0
LINE
  8
LY_1
  6
CONTINUOUS
 62
     3
  5
E4
 10
-51.0
 20
33.050003
 30
0.0
 11
-38.5
 21
33.050003
 31
0.0
  0
LINE
  8
LY_1
  6
CENTER
 62
   110
  5
E5
 10
-30.941116
 20
33.0
 30
0.0
 11
-4.999998
 21
33.0
 31
0.0
  0
LINE
  8
LY_1
  6
CONTINUOUS
 62
     3
  5
E6
 10
-22.04145
 20
25.999998
 30
0.0
 11
-26.0829
 21
32.999995
 31
0.0
  0
LINE
  8
LY_1
  6
CONTINUOUS
 62
     3
  5
E7
 10
-9.917094
 20
32.999998
 30
0.0
 11
-13.958545
 21
39.999995
 31
0.0
  0
LINE
  8
LY_1
  6
CONTINUOUS
 62
     3
  5
E8
 10
-26.082902
 20
32.999998
 30
0.0
 11
-22.041452
 21
39.999994
 31
0.0
  0
LINE
  8
LY_1
  6
CONTINUOUS
 62
     3
  5
E9
 10
-13.958546
 20
25.999999
 30
0.0
 11
-9.917097
 21
32.999994
 31
0.0
  0
LINE
  8
LY_1
  6
CONTINUOUS
 62
     3
  5
EA
 10
-22.041443
 20
40.0
 30
0.0
 11
-13.958547
 21
40.0
 31
0.0
  0
LINE
  8
LY_1
  6
CONTINUOUS
 62
     3
  5
EB
 10
-22.041458
 20
26.0
 30
0.0
 11
-13.958546
 21
26.0
 31
0.0
  0
LINE
  8
LY_1
  6
CENTER
 62
   110
  5
EC
 10
-18.0
 20
45.95578
 30
0.0
 11
-18.0
 21
20.044174
 31
0.0
  0
LINE
  8
LY_1
  6
CONTINUOUS
 62
     3
  5
ED
 10
-30.5
 20
46.5
 30
0.0
 11
-30.5
 21
32.03772
 31
0.0
  0
LINE
  8
LY_1
  6
CONTINUOUS
 62
     3
  5
EE
 10
30.5
 20
46.5
 30
0.0
 11
30.5
 21
32.03772
 31
0.0
  0
LINE
  8
LY_1
  6
CONTINUOUS
 62
     3
  5
EF
 10
31.5
 20
55.00058
 30
0.0
 11
31.5
 21
46.5
 31
0.0
  0
LINE
  8
LY_1
  6
CONTINUOUS
 62
     3
  5
F0
 10
-31.5
 20
46.5
 30
0.0
 11
31.5
 21
46.5
 31
0.0
  0
LINE
  8
LY_1
  6
CONTINUOUS
 62
     3
  5
F1
 10
-31.5
 20
51.0
 30
0.0
 11
31.5
 21
51.0
 31
0.0
  0
LINE
  8
LY_1
  6
CONTINUOUS
 62
     3
  5
F2
 10
-38.073076
 20
31.456715
 30
0.0
 11
-38.499995
 21
33.050001
 31
0.0
  0
LINE
  8
LY_1
  6
CONTINUOUS
 62
     3
  5
F3
 10
38.073076
 20
31.456715
 30
0.0
 11
38.499995
 21
33.050001
 31
0.0
  0
LINE
  8
LY_1
  6
CONTINUOUS
 62
     3
  5
F4
 10
38.5
 20
33.050003
 30
0.0
 11
51.0
 21
33.050003
 31
0.0
  0
LINE
  8
LY_1
  6
CONTINUOUS
 62
     3
  5
F5
 10
-38.073076
 20
-31.456715
 30
0.0
 11
-38.499995
 21
-33.050001
 31
0.0
  0
LINE
  8
LY_1
  6
CONTINUOUS
 62
     3
  5
F6
 10
-38.5
 20
-33.050003
 30
0.0
 11
-51.0
 21
-33.050003
 31
0.0
  0
LINE
  8
LY_1
  6
CONTINUOUS
 62
     3
  5
F7
 10
-38.5
 20
33.050003
 30
0.0
 11
-38.5
 21
-33.050003
 31
0.0
  0
LINE
  8
LY_1
  6
CONTINUOUS
 62
     3
  5
F8
 10
-51.0
 20
33.050003
 30
0.0
 11
-51.0
 21
-33.050003
 31
0.0
  0
LINE
  8
LY_1
  6
CONTINUOUS
 62
     3
  5
F9
 10
38.073076
 20
-31.456715
 30
0.0
 11
38.499995
 21
-33.050001
 31
0.0
  0
LINE
  8
LY_1
  6
CONTINUOUS
 62
     3
  5
FA
 10
38.5
 20
-33.050003
 30
0.0
 11
51.0
 21
-33.050003
 31
0.0
  0
LINE
  8
LY_1
  6
CONTINUOUS
 62
     3
  5
FB
 10
38.5
 20
33.050003
 30
0.0
 11
38.5
 21
-33.050003
 31
0.0
  0
LINE
  8
LY_1
  6
CONTINUOUS
 62
     3
  5
FC
 10
51.0
 20
33.050003
 30
0.0
 11
51.0
 21
-33.050003
 31
0.0
  0
LINE
  8
LY_1
  6
CENTER
 62
   110
  5
FD
 10
0.0
 20
179.062103
 30
0.0
 11
0.0
 21
98.062103
 31
0.0
  0
LINE
  8
LY_1
  6
CENTER
 62
   110
  5
FE
 10
-56.0
 20
0.0
 30
0.0
 11
56.0
 21
0.0
 31
0.0
  0
ENDSEC
  0
EOF
