  0
SECTION
  2
HEADER
  9
$ACADVER
  1
AC1009
  9
$DWGCODEPAGE
  3
dos932
  9
$INSBASE
 10
0.0
 20
0.0
 30
0.0
  9
$EXTMIN
 10
-62.5
 20
-101.114703
 30
0.0
  9
$EXTMAX
 10
200.990677
 20
350.628662
 30
0.0
  9
$LIMMIN
 10
-62.5
 20
-101.114703
  9
$LIMMAX
 10
200.990677
 20
350.628662
  9
$ORTHOMODE
 70
     0
  9
$REGENMODE
 70
     1
  9
$FILLMODE
 70
     1
  9
$QTEXTMODE
 70
     0
  9
$MIRRTEXT
 70
     1
  9
$DRAGMODE
 70
     2
  9
$LTSCALE
 40
1.0
  9
$OSMODE
 70
     0
  9
$ATTMODE
 70
     1
  9
$TEXTSIZE
 40
3.3
  9
$TRACEWID
 40
0.05
  9
$TEXTSTYLE
  7
MX_NOTE_STANDARD
  9
$CLAYER
  8
LY_1
  9
$CELTYPE
  6
CONTINUOUS
  9
$CECOLOR
 62
   256
  9
$DIMSCALE
 40
1.0
  9
$DIMASZ
 40
2.5
  9
$DIMEXO
 40
0.0
  9
$DIMDLI
 40
3.75
  9
$DIMRND
 40
0.0
  9
$DIMDLE
 40
0.0
  9
$DIMEXE
 40
1.1938
  9
$DIMTP
 40
0.0
  9
$DIMTM
 40
0.0
  9
$DIMTXT
 40
3.3
  9
$DIMCEN
 40
2.5
  9
$DIMTSZ
 40
0.0
  9
$DIMTOL
 70
     0
  9
$DIMLIM
 70
     0
  9
$DIMTIH
 70
     0
  9
$DIMTOH
 70
     0
  9
$DIMSE1
 70
     0
  9
$DIMSE2
 70
     0
  9
$DIMTAD
 70
     1
  9
$DIMZIN
 70
     8
  9
$DIMBLK
  1

  9
$DIMASO
 70
     1
  9
$DIMSHO
 70
     1
  9
$DIMPOST
  1

  9
$DIMAPOST
  1

  9
$DIMALT
 70
     0
  9
$DIMALTD
 70
     4
  9
$DIMALTF
 40
0.03937
  9
$DIMLFAC
 40
1.0
  9
$DIMTOFL
 70
     1
  9
$DIMTVP
 40
0.0
  9
$DIMTIX
 70
     0
  9
$DIMSOXD
 70
     0
  9
$DIMSAH
 70
     1
  9
$DIMBLK1
  1
_OPEN30
  9
$DIMBLK2
  1
_OPEN30
  9
$DIMSTYLE
  2
MXDIMSTYLE
  9
$DIMCLRD
 70
     0
  9
$DIMCLRE
 70
     0
  9
$DIMCLRT
 70
     0
  9
$DIMTFAC
 40
1.0
  9
$DIMGAP
 40
1.0
  9
$LUNITS
 70
     2
  9
$LUPREC
 70
     4
  9
$AXISMODE
 70
     0
  9
$AXISUNIT
 10
0.0
 20
0.0
  9
$SKETCHINC
 40
0.1
  9
$FILLETRAD
 40
0.0
  9
$AUNITS
 70
     0
  9
$AUPREC
 70
     0
  9
$MENU
  1
acad
  9
$ELEVATION
 40
0.0
  9
$PELEVATION
 40
0.0
  9
$THICKNESS
 40
0.0
  9
$LIMCHECK
 70
     0
  9
$BLIPMODE
 70
     1
  9
$CHAMFERA
 40
0.0
  9
$CHAMFERB
 40
0.0
  9
$SKPOLY
 70
     0
  9
$TDCREATE
 40
2454901.550185185
  9
$TDUPDATE
 40
2454901.550185185
  9
$TDINDWG
 40
0.0000000000
  9
$TDUSRTIMER
 40
0.0000000000
  9
$USRTIMER
 70
     1
  9
$ANGBASE
 50
0.0
  9
$ANGDIR
 70
     0
  9
$PDMODE
 70
     0
  9
$PDSIZE
 40
0.0
  9
$PLINEWID
 40
0.0
  9
$COORDS
 70
     1
  9
$SPLFRAME
 70
     0
  9
$SPLINETYPE
 70
     6
  9
$SPLINESEGS
 70
     8
  9
$ATTDIA
 70
     0
  9
$ATTREQ
 70
     1
  9
$HANDLING
 70
     1
  9
$HANDSEED
  5
29A
  9
$SURFTAB1
 70
     6
  9
$SURFTAB2
 70
     6
  9
$SURFTYPE
 70
     6
  9
$SURFU
 70
     6
  9
$SURFV
 70
     6
  9
$UCSNAME
  2

  9
$UCSORG
 10
0.0
 20
0.0
 30
0.0
  9
$UCSXDIR
 10
1.0
 20
0.0
 30
0.0
  9
$UCSYDIR
 10
0.0
 20
1.0
 30
0.0
  9
$PUCSNAME
  2

  9
$PUCSORG
 10
0.0
 20
0.0
 30
0.0
  9
$PUCSXDIR
 10
1.0
 20
0.0
 30
0.0
  9
$PUCSYDIR
 10
0.0
 20
1.0
 30
0.0
  9
$USERI1
 70
     0
  9
$USERI2
 70
     0
  9
$USERI3
 70
     0
  9
$USERI4
 70
     0
  9
$USERI5
 70
     0
  9
$USERR1
 40
0.0
  9
$USERR2
 40
0.0
  9
$USERR3
 40
0.0
  9
$USERR4
 40
0.0
  9
$USERR5
 40
0.0
  9
$WORLDVIEW
 70
     1
  9
$SHADEDGE
 70
     3
  9
$SHADEDIF
 70
    70
  9
$TILEMODE
 70
     1
  9
$MAXACTVP
 70
    16
  9
$PINSBASE
 10
0.0
 20
0.0
 30
0.0
  9
$PLIMCHECK
 70
     0
  9
$PEXTMIN
 10
1.000000E+20
 20
1.000000E+20
 30
1.000000E+20
  9
$PEXTMAX
 10
-1.000000E+20
 20
-1.000000E+20
 30
-1.000000E+20
  9
$PLIMMIN
 10
0.0
 20
0.0
  9
$PLIMMAX
 10
12.0
 20
9.0
  9
$UNITMODE
 70
     0
  9
$VISRETAIN
 70
     0
  9
$PLINEGEN
 70
     1
  9
$PSLTSCALE
 70
     0
  9
$TREEDEPTH
 70
  3020
  0
ENDSEC
  0
SECTION
  2
TABLES
  0
TABLE
  2
VPORT
 70
     1
  0
VPORT
  2
*ACTIVE
 70
     0
 10
0.0
 20
0.0
 11
1.0
 21
1.0
 12
69.245338
 22
124.75698
 13
0.0
 23
0.0
 14
1.0
 24
1.0
 15
0.0
 25
0.0
 16
0.0
 26
0.0
 36
1.0
 17
0.0
 27
0.0
 37
0.0
 40
456.260798
 41
1.732051
 42
50.0
 43
0.0
 44
0.0
 50
0.0
 51
0.0
 71
     0
 72
   100
 73
     1
 74
     1
 75
     0
 76
     0
 77
     0
 78
     0
  0
ENDTAB
  0
TABLE
  2
LTYPE
 70
     3
  0
LTYPE
  2
CONTINUOUS
 70
    64
  3
Solid line
 72
    65
 73
     0
 40
0.0
  0
LTYPE
  2
PHANTOM
 70
    64
  3
Phantom ______  __  __  ______  __  __  ______
 72
    65
 73
     6
 40
63.5
 49
31.75
 49
-6.35
 49
6.35
 49
-6.35
 49
6.35
 49
-6.35
  0
LTYPE
  2
CENTER
 70
    64
  3
Center ____ _ ____ _ ____ _ ____ _ ____ _ ____
 72
    65
 73
     4
 40
50.8
 49
31.75
 49
-6.35
 49
6.35
 49
-6.35
  0
ENDTAB
  0
TABLE
  2
LAYER
 70
     3
  0
LAYER
  2
0
 70
     0
 62
     7
  6
CONTINUOUS
  0
LAYER
  2
LY_1
 70
     0
 62
     7
  6
CONTINUOUS
  0
LAYER
  2
DEFPOINTS
 70
     0
 62
     7
  6
CONTINUOUS
  0
ENDTAB
  0
TABLE
  2
STYLE
 70
     2
  0
STYLE
  2
MX_NOTE_STANDARD
 70
     0
 40
0.0
 41
1.0
 50
0.0
 71
     0
 42
3.3
  3
txt.shx
  4
extfont.shx
  0
STYLE
  2
MX_DIMTXSTY_2
 70
     0
 40
0.0
 41
0.9
 50
0.0
 71
     0
 42
3.3
  3
txt.shx
  4
extfont.shx
  0
ENDTAB
  0
TABLE
  2
VIEW
 70
     0
  0
ENDTAB
  0
TABLE
  2
UCS
 70
     0
  0
ENDTAB
  0
TABLE
  2
APPID
 70
     1
  0
APPID
  2
ACAD
 70
     0
  0
ENDTAB
  0
TABLE
  2
DIMSTYLE
 70
     1
  0
DIMSTYLE
  2
MXDIMSTYLE
 70
     0
  3

  4

  5

  6
_OPEN30
  7
_OPEN30
 40
1.0
 41
2.5
 42
0.0
 43
3.75
 44
1.1938
 45
0.0
 46
0.0
 47
0.0
 48
0.0
 71
     0
 72
     0
 73
     0
 74
     0
 75
     0
 76
     0
 77
     1
 78
     8
140
3.3
141
2.5
142
0.0
143
0.03937
144
1.0
145
0.0
146
1.0
147
1.0
170
     0
171
     4
172
     1
173
     1
174
     0
175
     0
176
     0
177
     0
178
     0
  0
ENDTAB
  0
ENDSEC
  0
SECTION
  2
BLOCKS
  0
BLOCK
  8
0
  6
BYBLOCK
 62
     0
  5
20
  2
_OPEN30
 70
     2
 10
0.0
 20
0.0
 30
0.0
  3
_OPEN30
  0
LINE
  8
0
  6
BYBLOCK
 62
     0
  5
21
 10
-1.0
 20
0.267949
 30
0.0
 11
0.0
 21
0.0
 31
0.0
  0
LINE
  8
0
  6
BYBLOCK
 62
     0
  5
22
 10
0.0
 20
0.0
 30
0.0
 11
-1.0
 21
-0.267949
 31
0.0
  0
LINE
  8
0
  6
BYBLOCK
 62
     0
  5
23
 10
0.0
 20
0.0
 30
0.0
 11
-1.0
 21
0.0
 31
0.0
  0
ENDBLK
  8
0
  6
BYBLOCK
 62
     0
  5
24
  0
BLOCK
  8
0
  6
BYBLOCK
 62
     0
  5
26
  2
*D1
 70
     1
 10
0.0
 20
0.0
 30
0.0
  3
*D1
  0
LINE
  8
0
  6
CONTINUOUS
 62
   110
  5
27
 10
-57.5
 20
218.0
 30
0.0
 11
57.5
 21
218.0
 31
0.0
  0
LINE
  8
0
  6
CONTINUOUS
 62
   110
  5
28
 10
-57.5
 20
187.75
 30
0.0
 11
-57.5
 21
219.193787
 31
0.0
  0
LINE
  8
0
  6
CONTINUOUS
 62
   110
  5
29
 10
57.5
 20
187.75
 30
0.0
 11
57.5
 21
219.193787
 31
0.0
  0
INSERT
  8
0
  6
CONTINUOUS
 62
   110
  5
30
  2
_OPEN
 10
-57.5
 20
218.0
 30
0.0
 41
2.19
 42
2.19
 50
180.0
 43
2.19
  0
INSERT
  8
0
  6
CONTINUOUS
 62
   110
  5
31
  2
_OPEN
 10
57.5
 20
218.0
 30
0.0
 41
2.19
 42
2.19
 43
2.19
  0
TEXT
  8
0
  6
CONTINUOUS
 62
   110
  5
32
 10
-5.008297
 20
219.0
 30
0.0
 40
3.3
  1
%%c115
 41
0.965787
  7
MX_NOTE_STANDARD
 11
-5.008297
 21
220.65
 31
0.0
 73
     2
  0
POINT
  8
DEFPOINTS
  6
CONTINUOUS
 62
     0
  5
33
 10
-57.5
 20
187.75
 30
0.0
  0
POINT
  8
DEFPOINTS
  6
CONTINUOUS
 62
     0
  5
34
 10
57.5
 20
187.75
 30
0.0
  0
POINT
  8
DEFPOINTS
  6
CONTINUOUS
 62
     0
  5
35
 10
57.5
 20
218.0
 30
0.0
  0
ENDBLK
  8
0
  6
BYBLOCK
 62
     0
  5
36
  0
BLOCK
  8
0
  6
BYBLOCK
 62
     0
  5
2B
  2
_OPEN
 70
     2
 10
0.0
 20
0.0
 30
0.0
  3
_OPEN
  0
LINE
  8
0
  6
BYBLOCK
 62
     0
  5
2C
 10
-1.0
 20
0.166667
 30
0.0
 11
0.0
 21
0.0
 31
0.0
  0
LINE
  8
0
  6
BYBLOCK
 62
     0
  5
2D
 10
0.0
 20
0.0
 30
0.0
 11
-1.0
 21
-0.166667
 31
0.0
  0
LINE
  8
0
  6
BYBLOCK
 62
     0
  5
2E
 10
0.0
 20
0.0
 30
0.0
 11
-1.0
 21
0.0
 31
0.0
  0
ENDBLK
  8
0
  6
BYBLOCK
 62
     0
  5
2F
  0
BLOCK
  8
0
  6
BYBLOCK
 62
     0
  5
39
  2
*D3
 70
     1
 10
0.0
 20
0.0
 30
0.0
  3
*D3
  0
LINE
  8
0
  6
CONTINUOUS
 62
   110
  5
3A
 10
65.5
 20
205.0
 30
0.0
 11
65.5
 21
0.0
 31
0.0
  0
LINE
  8
0
  6
CONTINUOUS
 62
   110
  5
3B
 10
46.063934
 20
205.0
 30
0.0
 11
66.693787
 21
205.0
 31
0.0
  0
LINE
  8
0
  6
CONTINUOUS
 62
   110
  5
3C
 10
51.0
 20
0.0
 30
0.0
 11
66.693787
 21
0.0
 31
0.0
  0
INSERT
  8
0
  6
CONTINUOUS
 62
   110
  5
3D
  2
_OPEN
 10
65.5
 20
205.0
 30
0.0
 41
2.19
 42
2.19
 50
90.0
 43
2.19
  0
INSERT
  8
0
  6
CONTINUOUS
 62
   110
  5
3E
  2
_OPEN
 10
65.5
 20
0.0
 30
0.0
 41
2.19
 42
2.19
 50
270.0
 43
2.19
  0
TEXT
  8
0
  6
CONTINUOUS
 62
   110
  5
40
 10
64.5
 20
98.888476
 30
0.0
 40
3.3
  1
205
 50
90.0
 41
0.98743
  7
MX_DIMTXSTY_2
 11
62.85
 21
98.888476
 31
0.0
 73
     2
  0
POINT
  8
DEFPOINTS
  6
CONTINUOUS
 62
     0
  5
41
 10
46.063934
 20
205.0
 30
0.0
  0
POINT
  8
DEFPOINTS
  6
CONTINUOUS
 62
     0
  5
42
 10
51.0
 20
0.0
 30
0.0
  0
POINT
  8
DEFPOINTS
  6
CONTINUOUS
 62
     0
  5
43
 10
65.5
 20
0.0
 30
0.0
  0
ENDBLK
  8
0
  6
BYBLOCK
 62
     0
  5
44
  0
BLOCK
  8
0
  6
BYBLOCK
 62
     0
  5
47
  2
*D4
 70
     1
 10
0.0
 20
0.0
 30
0.0
  3
*D4
  0
LINE
  8
0
  6
CONTINUOUS
 62
   110
  5
48
 10
46.0
 20
-64.0
 30
0.0
 11
-46.0
 21
-64.0
 31
0.0
  0
LINE
  8
0
  6
CONTINUOUS
 62
   110
  5
49
 10
46.0
 20
-56.0
 30
0.0
 11
46.0
 21
-65.193787
 31
0.0
  0
LINE
  8
0
  6
CONTINUOUS
 62
   110
  5
4A
 10
-46.0
 20
-56.0
 30
0.0
 11
-46.0
 21
-65.193787
 31
0.0
  0
INSERT
  8
0
  6
CONTINUOUS
 62
   110
  5
4B
  2
_OPEN
 10
46.0
 20
-64.0
 30
0.0
 41
2.19
 42
2.19
 43
2.19
  0
INSERT
  8
0
  6
CONTINUOUS
 62
   110
  5
4C
  2
_OPEN
 10
-46.0
 20
-64.0
 30
0.0
 41
2.19
 42
2.19
 50
180.0
 43
2.19
  0
TEXT
  8
0
  6
CONTINUOUS
 62
   110
  5
4D
 10
-2.256825
 20
-63.0
 30
0.0
 40
3.3
  1
92
 41
0.932572
  7
MX_DIMTXSTY_2
 11
-2.256825
 21
-61.35
 31
0.0
 73
     2
  0
POINT
  8
DEFPOINTS
  6
CONTINUOUS
 62
     0
  5
4E
 10
46.0
 20
-56.0
 30
0.0
  0
POINT
  8
DEFPOINTS
  6
CONTINUOUS
 62
     0
  5
4F
 10
-46.0
 20
-56.0
 30
0.0
  0
POINT
  8
DEFPOINTS
  6
CONTINUOUS
 62
     0
  5
50
 10
-46.0
 20
-64.0
 30
0.0
  0
ENDBLK
  8
0
  6
BYBLOCK
 62
     0
  5
51
  0
ENDSEC
  0
SECTION
  2
ENTITIES
  0
DIMENSION
  8
LY_1
  6
CONTINUOUS
 62
   110
  5
37
  2
*D1
 10
57.5
 20
218.0
 30
0.0
 11
0.0
 21
218.0
 31
0.0
 70
   128
  1
%%c<>
 13
-57.5
 23
187.75
 33
0.0
 14
57.5
 24
187.75
 34
0.0
  3
MXDIMSTYLE
1001
ACAD
1000
DSTYLE
1002
{
1070
     6
1000
_OPEN
1070
     7
1000
_OPEN
1070
    41
1040
2.19
1070
    44
1040
1.193787
1070
   271
1070
     0
1070
   284
1070
     8
1070
   343
1005
2A
1070
   344
1005
2A
1002
}
  0
DIMENSION
  8
LY_1
  6
CONTINUOUS
 62
   110
  5
45
  2
*D3
 10
65.5
 20
0.0
 30
0.0
 11
65.5
 21
102.5
 31
0.0
 70
   128
  1
<>
 13
46.063934
 23
205.0
 33
0.0
 14
51.0
 24
0.0
 34
0.0
 50
90.0
  3
MXDIMSTYLE
1001
ACAD
1000
DSTYLE
1002
{
1070
     6
1000
_OPEN
1070
     7
1000
_OPEN
1070
    41
1040
2.19
1070
    44
1040
1.193787
1070
   271
1070
     0
1070
   284
1070
     8
1070
   340
1005
3F
1070
   343
1005
2A
1070
   344
1005
2A
1002
}
  0
DIMENSION
  8
LY_1
  6
CONTINUOUS
 62
   110
  5
52
  2
*D4
 10
-46.0
 20
-64.0
 30
0.0
 11
0.0
 21
-64.0
 31
0.0
 70
   128
  1
<>
 13
46.0
 23
-56.0
 33
0.0
 14
-46.0
 24
-56.0
 34
0.0
  3
MXDIMSTYLE
1001
ACAD
1000
DSTYLE
1002
{
1070
     6
1000
_OPEN
1070
     7
1000
_OPEN
1070
    41
1040
2.19
1070
    44
1040
1.193787
1070
   271
1070
     0
1070
   284
1070
     8
1070
   340
1005
3F
1070
   343
1005
2A
1070
   344
1005
2A
1002
}
  0
TEXT
  8
LY_1
  6
CONTINUOUS
 62
   110
  5
53
 10
-58.55581
 20
-84.083591
 30
0.0
 40
4.167181
  1
      GATE VALVE  3
 41
0.989158
  7
MX_NOTE_STANDARD
 11
-58.55581
 21
-82.0
 31
0.0
 73
     2
  0
TEXT
  8
LY_1
  6
CONTINUOUS
 62
   110
  5
54
 10
-58.609061
 20
-100.083591
 30
0.0
 40
4.167181
  1
KITZ
 41
0.912486
  7
MX_NOTE_STANDARD
 11
-58.609061
 21
-98.0
 31
0.0
 73
     2
  0
TEXT
  8
LY_1
  6
CONTINUOUS
 62
   110
  5
55
 10
-58.542574
 20
-92.083591
 30
0.0
 40
4.167181
  1
FIG   FH3
 41
1.008216
  7
MX_NOTE_STANDARD
 11
-58.542574
 21
-90.0
 31
0.0
 73
     2
  0
TEXT
  8
LY_1
  6
CONTINUOUS
 62
   110
  5
56
 10
-58.609061
 20
-76.083591
 30
0.0
 40
4.167181
  1
NAME  CLASS 125 FORGED BRASS
 41
0.912486
  7
MX_NOTE_STANDARD
 11
-58.609061
 21
-74.0
 31
0.0
 73
     2
  0
POLYLINE
  8
LY_1
  6
CONTINUOUS
 62
     3
  5
57
 66
     1
 10
0.0
 20
0.0
 30
0.0
  0
VERTEX
  8
LY_1
  6
CONTINUOUS
 62
     3
  5
250
 10
-2.414137
 20
17.444561
 30
0.0
  0
VERTEX
  8
LY_1
  6
CONTINUOUS
 62
     3
  5
251
 10
-2.419273
 20
17.450389
 30
0.0
  0
VERTEX
  8
LY_1
  6
CONTINUOUS
 62
     3
  5
252
 10
-2.425143
 20
17.455442
 30
0.0
  0
VERTEX
  8
LY_1
  6
CONTINUOUS
 62
     3
  5
253
 10
-2.431636
 20
17.459624
 30
0.0
  0
VERTEX
  8
LY_1
  6
CONTINUOUS
 62
     3
  5
254
 10
-2.438629
 20
17.462856
 30
0.0
  0
VERTEX
  8
LY_1
  6
CONTINUOUS
 62
     3
  5
255
 10
-2.445991
 20
17.465078
 30
0.0
  0
VERTEX
  8
LY_1
  6
CONTINUOUS
 62
     3
  5
256
 10
-2.453581
 20
17.466247
 30
0.0
  0
VERTEX
  8
LY_1
  6
CONTINUOUS
 62
     3
  5
257
 10
-2.461256
 20
17.46634
 30
0.0
  0
VERTEX
  8
LY_1
  6
CONTINUOUS
 62
     3
  5
258
 10
-2.468871
 20
17.465357
 30
0.0
  0
VERTEX
  8
LY_1
  6
CONTINUOUS
 62
     3
  5
259
 10
-2.476282
 20
17.463316
 30
0.0
  0
VERTEX
  8
LY_1
  6
CONTINUOUS
 62
     3
  5
25A
 10
-2.483349
 20
17.460256
 30
0.0
  0
VERTEX
  8
LY_1
  6
CONTINUOUS
 62
     3
  5
25B
 10
-2.489938
 20
17.456234
 30
0.0
  0
VERTEX
  8
LY_1
  6
CONTINUOUS
 62
     3
  5
25C
 10
-2.495925
 20
17.451326
 30
0.0
  0
VERTEX
  8
LY_1
  6
CONTINUOUS
 62
     3
  5
25D
 10
-2.501196
 20
17.445625
 30
0.0
  0
VERTEX
  8
LY_1
  6
CONTINUOUS
 62
     3
  5
25E
 10
-2.505652
 20
17.43924
 30
0.0
  0
VERTEX
  8
LY_1
  6
CONTINUOUS
 62
     3
  5
25F
 10
-2.509208
 20
17.43229
 30
0.0
  0
VERTEX
  8
LY_1
  6
CONTINUOUS
 62
     3
  5
260
 10
-2.511797
 20
17.424908
 30
0.0
  0
VERTEX
  8
LY_1
  6
CONTINUOUS
 62
     3
  5
261
 10
-2.51337
 20
17.417232
 30
0.0
  0
VERTEX
  8
LY_1
  6
CONTINUOUS
 62
     3
  5
262
 10
-2.513898
 20
17.409409
 30
0.0
  0
VERTEX
  8
LY_1
  6
CONTINUOUS
 62
     3
  5
263
 10
-2.513898
 20
17.409409
 30
0.0
  0
SEQEND
  8
LY_1
  6
CONTINUOUS
 62
     3
  5
264
  0
POLYLINE
  8
LY_1
  6
CONTINUOUS
 62
     3
  5
58
 66
     1
 10
0.0
 20
0.0
 30
0.0
  0
VERTEX
  8
LY_1
  6
CONTINUOUS
 62
     3
  5
265
 10
4.231871
 20
13.876407
 30
0.0
  0
VERTEX
  8
LY_1
  6
CONTINUOUS
 62
     3
  5
266
 10
4.237359
 20
13.870235
 30
0.0
  0
VERTEX
  8
LY_1
  6
CONTINUOUS
 62
     3
  5
267
 10
4.243669
 20
13.864947
 30
0.0
  0
VERTEX
  8
LY_1
  6
CONTINUOUS
 62
     3
  5
268
 10
4.250666
 20
13.860655
 30
0.0
  0
VERTEX
  8
LY_1
  6
CONTINUOUS
 62
     3
  5
269
 10
4.258201
 20
13.857452
 30
0.0
  0
VERTEX
  8
LY_1
  6
CONTINUOUS
 62
     3
  5
26A
 10
4.266113
 20
13.855406
 30
0.0
  0
VERTEX
  8
LY_1
  6
CONTINUOUS
 62
     3
  5
26B
 10
4.274232
 20
13.85456
 30
0.0
  0
VERTEX
  8
LY_1
  6
CONTINUOUS
 62
     3
  5
26C
 10
4.282385
 20
13.854933
 30
0.0
  0
VERTEX
  8
LY_1
  6
CONTINUOUS
 62
     3
  5
26D
 10
4.290397
 20
13.856517
 30
0.0
  0
VERTEX
  8
LY_1
  6
CONTINUOUS
 62
     3
  5
26E
 10
4.298098
 20
13.859278
 30
0.0
  0
VERTEX
  8
LY_1
  6
CONTINUOUS
 62
     3
  5
26F
 10
4.305323
 20
13.863156
 30
0.0
  0
VERTEX
  8
LY_1
  6
CONTINUOUS
 62
     3
  5
270
 10
4.311917
 20
13.86807
 30
0.0
  0
VERTEX
  8
LY_1
  6
CONTINUOUS
 62
     3
  5
271
 10
4.317739
 20
13.873913
 30
0.0
  0
VERTEX
  8
LY_1
  6
CONTINUOUS
 62
     3
  5
272
 10
4.322664
 20
13.880561
 30
0.0
  0
VERTEX
  8
LY_1
  6
CONTINUOUS
 62
     3
  5
273
 10
4.326588
 20
13.887872
 30
0.0
  0
VERTEX
  8
LY_1
  6
CONTINUOUS
 62
     3
  5
274
 10
4.329426
 20
13.89569
 30
0.0
  0
VERTEX
  8
LY_1
  6
CONTINUOUS
 62
     3
  5
275
 10
4.331119
 20
13.903847
 30
0.0
  0
VERTEX
  8
LY_1
  6
CONTINUOUS
 62
     3
  5
276
 10
4.331505
 20
13.907713
 30
0.0
  0
VERTEX
  8
LY_1
  6
CONTINUOUS
 62
     3
  5
277
 10
4.331632
 20
13.911598
 30
0.0
  0
SEQEND
  8
LY_1
  6
CONTINUOUS
 62
     3
  5
278
  0
POLYLINE
  8
LY_1
  6
CONTINUOUS
 62
     3
  5
59
 66
     1
 10
0.0
 20
0.0
 30
0.0
  0
VERTEX
  8
LY_1
  6
CONTINUOUS
 62
     3
  5
279
 10
0.045771
 20
56.793526
 30
0.0
  0
VERTEX
  8
LY_1
  6
CONTINUOUS
 62
     3
  5
27A
 10
0.040965
 20
56.799624
 30
0.0
  0
VERTEX
  8
LY_1
  6
CONTINUOUS
 62
     3
  5
27B
 10
0.035387
 20
56.804991
 30
0.0
  0
VERTEX
  8
LY_1
  6
CONTINUOUS
 62
     3
  5
27C
 10
0.029142
 20
56.809527
 30
0.0
  0
VERTEX
  8
LY_1
  6
CONTINUOUS
 62
     3
  5
27D
 10
0.022348
 20
56.813146
 30
0.0
  0
VERTEX
  8
LY_1
  6
CONTINUOUS
 62
     3
  5
27E
 10
0.015132
 20
56.815781
 30
0.0
  0
VERTEX
  8
LY_1
  6
CONTINUOUS
 62
     3
  5
27F
 10
0.007631
 20
56.817381
 30
0.0
  0
VERTEX
  8
LY_1
  6
CONTINUOUS
 62
     3
  5
280
 10
-0.000013
 20
56.817917
 30
0.0
  0
VERTEX
  8
LY_1
  6
CONTINUOUS
 62
     3
  5
281
 10
-0.007658
 20
56.817378
 30
0.0
  0
VERTEX
  8
LY_1
  6
CONTINUOUS
 62
     3
  5
282
 10
-0.015158
 20
56.815774
 30
0.0
  0
VERTEX
  8
LY_1
  6
CONTINUOUS
 62
     3
  5
283
 10
-0.022372
 20
56.813136
 30
0.0
  0
VERTEX
  8
LY_1
  6
CONTINUOUS
 62
     3
  5
284
 10
-0.029165
 20
56.809513
 30
0.0
  0
VERTEX
  8
LY_1
  6
CONTINUOUS
 62
     3
  5
285
 10
-0.035408
 20
56.804974
 30
0.0
  0
VERTEX
  8
LY_1
  6
CONTINUOUS
 62
     3
  5
286
 10
-0.040983
 20
56.799604
 30
0.0
  0
VERTEX
  8
LY_1
  6
CONTINUOUS
 62
     3
  5
287
 10
-0.045787
 20
56.793504
 30
0.0
  0
SEQEND
  8
LY_1
  6
CONTINUOUS
 62
     3
  5
288
  0
POLYLINE
  8
LY_1
  6
CONTINUOUS
 62
     3
  5
5A
 66
     1
 10
0.0
 20
0.0
 30
0.0
  0
VERTEX
  8
LY_1
  6
CONTINUOUS
 62
     3
  5
289
 10
-5.720813
 20
301.443014
 30
0.0
  0
VERTEX
  8
LY_1
  6
CONTINUOUS
 62
     3
  5
28A
 10
-5.722403
 20
301.441508
 30
0.0
  0
VERTEX
  8
LY_1
  6
CONTINUOUS
 62
     3
  5
28B
 10
-5.723802
 20
301.439763
 30
0.0
  0
VERTEX
  8
LY_1
  6
CONTINUOUS
 62
     3
  5
28C
 10
-5.724984
 20
301.437811
 30
0.0
  0
VERTEX
  8
LY_1
  6
CONTINUOUS
 62
     3
  5
28D
 10
-5.725927
 20
301.435689
 30
0.0
  0
VERTEX
  8
LY_1
  6
CONTINUOUS
 62
     3
  5
28E
 10
-5.726613
 20
301.433437
 30
0.0
  0
VERTEX
  8
LY_1
  6
CONTINUOUS
 62
     3
  5
28F
 10
-5.727031
 20
301.431096
 30
0.0
  0
VERTEX
  8
LY_1
  6
CONTINUOUS
 62
     3
  5
290
 10
-5.72717
 20
301.428711
 30
0.0
  0
VERTEX
  8
LY_1
  6
CONTINUOUS
 62
     3
  5
291
 10
-5.727031
 20
301.426326
 30
0.0
  0
VERTEX
  8
LY_1
  6
CONTINUOUS
 62
     3
  5
292
 10
-5.726613
 20
301.423985
 30
0.0
  0
VERTEX
  8
LY_1
  6
CONTINUOUS
 62
     3
  5
293
 10
-5.725927
 20
301.421733
 30
0.0
  0
VERTEX
  8
LY_1
  6
CONTINUOUS
 62
     3
  5
294
 10
-5.724984
 20
301.419611
 30
0.0
  0
VERTEX
  8
LY_1
  6
CONTINUOUS
 62
     3
  5
295
 10
-5.723802
 20
301.417659
 30
0.0
  0
VERTEX
  8
LY_1
  6
CONTINUOUS
 62
     3
  5
296
 10
-5.722403
 20
301.415914
 30
0.0
  0
VERTEX
  8
LY_1
  6
CONTINUOUS
 62
     3
  5
297
 10
-5.720813
 20
301.414408
 30
0.0
  0
SEQEND
  8
LY_1
  6
CONTINUOUS
 62
     3
  5
298
  0
ARC
  8
LY_1
  6
CONTINUOUS
 62
     3
  5
5B
 10
4.057007
 20
11.529648
 30
0.0
 40
1.52958
 50
217.524112
 51
359.999982
  0
ARC
  8
LY_1
  6
CONTINUOUS
 62
     3
  5
5C
 10
-4.050232
 20
11.536255
 30
0.0
 40
1.5363
 50
180.000036
 51
359.999982
  0
ARC
  8
LY_1
  6
CONTINUOUS
 62
     3
  5
5D
 10
-4.056808
 20
22.157074
 30
0.0
 40
1.529844
 50
37.524113
 51
180.000019
  0
ARC
  8
LY_1
  6
CONTINUOUS
 62
     3
  5
5E
 10
4.017014
 20
21.552567
 30
0.0
 40
1.569598
 50
359.999982
 51
270.000001
  0
ARC
  8
LY_1
  6
CONTINUOUS
 62
     3
  5
5F
 10
4.049927
 20
26.883209
 30
0.0
 40
1.536235
 50
180.000036
 51
359.999982
  0
ARC
  8
LY_1
  6
CONTINUOUS
 62
     3
  5
60
 10
-4.016922
 20
31.904449
 30
0.0
 40
1.569643
 50
90.000037
 51
270.000001
  0
ARC
  8
LY_1
  6
CONTINUOUS
 62
     3
  5
61
 10
4.016617
 20
37.405914
 30
0.0
 40
1.56951
 50
359.999982
 51
270.000001
  0
ARC
  8
LY_1
  6
CONTINUOUS
 62
     3
  5
62
 10
-4.016922
 20
42.791412
 30
0.0
 40
1.569624
 50
90.000037
 51
270.000001
  0
ARC
  8
LY_1
  6
CONTINUOUS
 62
     3
  5
63
 10
4.017014
 20
42.791412
 30
0.0
 40
1.569624
 50
270.000018
 51
90.000037
  0
ARC
  8
LY_1
  6
CONTINUOUS
 62
     3
  5
64
 10
3.725006
 20
48.084381
 30
0.0
 40
1.861702
 50
0.778951
 51
34.259064
  0
ARC
  8
LY_1
  6
CONTINUOUS
 62
     3
  5
65
 10
4.050812
 20
48.132721
 30
0.0
 40
1.535923
 50
123.574515
 51
359.143204
  0
ARC
  8
LY_1
  6
CONTINUOUS
 62
     3
  5
66
 10
-4.053909
 20
48.161041
 30
0.0
 40
1.546853
 50
145.740937
 51
325.740956
  0
ARC
  8
LY_1
  6
CONTINUOUS
 62
     3
  5
67
 10
-4.01709
 20
58.430573
 30
0.0
 40
1.569529
 50
89.999982
 51
270.000001
  0
ARC
  8
LY_1
  6
CONTINUOUS
 62
     3
  5
68
 10
4.017136
 20
58.430573
 30
0.0
 40
1.569529
 50
270.000018
 51
90.000037
  0
ARC
  8
LY_1
  6
CONTINUOUS
 62
     3
  5
69
 10
2.170511
 20
286.74585
 30
0.0
 40
12.619595
 50
318.474707
 51
336.525422
  0
ARC
  8
LY_1
  6
CONTINUOUS
 62
     3
  5
6A
 10
2.105177
 20
286.787598
 30
0.0
 40
10.363736
 50
318.198276
 51
336.801307
  0
ARC
  8
LY_1
  6
CONTINUOUS
 62
     3
  5
6B
 10
-2.170511
 20
286.74585
 30
0.0
 40
12.619595
 50
203.474577
 51
221.525291
  0
ARC
  8
LY_1
  6
CONTINUOUS
 62
     3
  5
6C
 10
-2.105204
 20
286.787598
 30
0.0
 40
10.363736
 50
203.198692
 51
221.801723
  0
ARC
  8
LY_1
  6
PHANTOM
 62
   110
  5
6E
 10
0.0
 20
288.128662
 30
0.0
 40
15.166668
 50
226.309046
 51
313.690976
  0
ARC
  8
LY_1
  6
PHANTOM
 62
   110
  5
6F
 10
0.0
 20
288.128662
 30
0.0
 40
12.833326
 50
227.462092
 51
312.53789
  0
ARC
  8
LY_1
  6
CONTINUOUS
 62
     3
  5
70
 10
14.065603
 20
288.708252
 30
0.0
 40
1.481668
 50
227.874799
 51
264.434343
  0
ARC
  8
LY_1
  6
CONTINUOUS
 62
     3
  5
71
 10
13.596066
 20
288.189209
 30
0.0
 40
0.781667
 50
176.848023
 51
227.874618
  0
ARC
  8
LY_1
  6
CONTINUOUS
 62
     3
  5
72
 10
13.591715
 20
288.13916
 30
0.0
 40
0.781667
 50
122.125367
 51
173.171961
  0
ARC
  8
LY_1
  6
CONTINUOUS
 62
     3
  5
73
 10
13.963926
 20
287.546387
 30
0.0
 40
1.481668
 50
85.578118
 51
122.125203
  0
ARC
  8
LY_1
  6
CONTINUOUS
 62
     3
  5
74
 10
13.934402
 20
287.549072
 30
0.0
 40
1.481668
 50
47.874821
 51
84.431739
  0
ARC
  8
LY_1
  6
CONTINUOUS
 62
     3
  5
75
 10
14.403915
 20
288.068115
 30
0.0
 40
0.781667
 50
356.84801
 51
47.874602
  0
ARC
  8
LY_1
  6
CONTINUOUS
 62
     3
  5
76
 10
14.408289
 20
288.118164
 30
0.0
 40
0.781667
 50
302.125403
 51
353.171979
  0
ARC
  8
LY_1
  6
CONTINUOUS
 62
     3
  5
77
 10
14.036051
 20
288.710938
 30
0.0
 40
1.481668
 50
265.581487
 51
302.125184
  0
ARC
  8
LY_1
  6
CONTINUOUS
 62
     3
  5
78
 10
13.963926
 20
287.546387
 30
0.0
 40
1.750001
 50
85.485391
 51
122.125203
  0
ARC
  8
LY_1
  6
CONTINUOUS
 62
     3
  5
79
 10
14.403915
 20
288.068115
 30
0.0
 40
1.05
 50
356.37819
 51
47.874602
  0
ARC
  8
LY_1
  6
CONTINUOUS
 62
     3
  5
7A
 10
13.934402
 20
287.549072
 30
0.0
 40
1.750001
 50
47.874821
 51
84.51463
  0
ARC
  8
LY_1
  6
CONTINUOUS
 62
     3
  5
7B
 10
13.596066
 20
288.189209
 30
0.0
 40
1.05
 50
176.378215
 51
227.874618
  0
ARC
  8
LY_1
  6
CONTINUOUS
 62
     3
  5
7C
 10
14.065603
 20
288.708252
 30
0.0
 40
1.750001
 50
227.874799
 51
264.514447
  0
ARC
  8
LY_1
  6
CONTINUOUS
 62
     3
  5
7D
 10
13.591715
 20
288.13916
 30
0.0
 40
1.05
 50
122.125367
 51
173.641823
  0
ARC
  8
LY_1
  6
CONTINUOUS
 62
     3
  5
7E
 10
14.408289
 20
288.118164
 30
0.0
 40
1.05
 50
302.125403
 51
353.641797
  0
ARC
  8
LY_1
  6
CONTINUOUS
 62
     3
  5
7F
 10
14.036051
 20
288.710938
 30
0.0
 40
1.750001
 50
265.485645
 51
302.125184
  0
ARC
  8
LY_1
  6
CONTINUOUS
 62
     3
  5
80
 10
3.584595
 20
302.711914
 30
0.0
 40
0.466667
 50
89.999982
 51
180.000019
  0
ARC
  8
LY_1
  6
CONTINUOUS
 62
     3
  5
81
 10
3.475241
 20
302.682861
 30
0.0
 40
0.466667
 50
274.658043
 51
0.0
  0
ARC
  8
LY_1
  6
CONTINUOUS
 62
     3
  5
82
 10
3.549601
 20
302.647705
 30
0.0
 40
0.431667
 50
180.000036
 51
265.157141
  0
ARC
  8
LY_1
  6
CONTINUOUS
 62
     3
  5
83
 10
5.534058
 20
302.768066
 30
0.0
 40
0.0175
 50
312.505723
 51
89.998288
  0
ARC
  8
LY_1
  6
CONTINUOUS
 62
     3
  5
84
 10
6.065725
 20
302.681885
 30
0.0
 40
0.496755
 50
312.504463
 51
89.999982
  0
ARC
  8
LY_1
  6
CONTINUOUS
 62
     3
  5
85
 10
4.619217
 20
300.658691
 30
0.0
 40
0.0175
 50
132.505506
 51
269.998635
  0
ARC
  8
LY_1
  6
CONTINUOUS
 62
     3
  5
86
 10
3.46649
 20
300.175537
 30
0.0
 40
0.496825
 50
132.504468
 51
270.000001
  0
ARC
  8
LY_1
  6
CONTINUOUS
 62
     3
  5
87
 10
6.081236
 20
300.159912
 30
0.0
 40
0.481252
 50
270.000018
 51
89.999982
  0
ARC
  8
LY_1
  6
CONTINUOUS
 62
     3
  5
88
 10
-0.576833
 20
302.711914
 30
0.0
 40
0.466667
 50
89.999982
 51
180.000019
  0
ARC
  8
LY_1
  6
CONTINUOUS
 62
     3
  5
89
 10
-0.686188
 20
302.682617
 30
0.0
 40
0.466667
 50
274.658043
 51
0.0
  0
ARC
  8
LY_1
  6
CONTINUOUS
 62
     3
  5
8A
 10
-0.611852
 20
302.647705
 30
0.0
 40
0.431667
 50
180.000036
 51
265.157141
  0
ARC
  8
LY_1
  6
CONTINUOUS
 62
     3
  5
8B
 10
0.812632
 20
300.090576
 30
0.0
 40
0.412029
 50
180.000036
 51
359.999983
  0
ARC
  8
LY_1
  6
CONTINUOUS
 62
     3
  5
8C
 10
2.052689
 20
302.697266
 30
0.0
 40
0.481221
 50
270.000018
 51
89.999982
  0
ARC
  8
LY_1
  6
CONTINUOUS
 62
     3
  5
8D
 10
-2.045313
 20
302.766602
 30
0.0
 40
0.412
 50
0.0
 51
180.000019
  0
ARC
  8
LY_1
  6
CONTINUOUS
 62
     3
  5
8E
 10
-2.045313
 20
300.090576
 30
0.0
 40
0.412
 50
179.999964
 51
359.999983
  0
ARC
  8
LY_1
  6
CONTINUOUS
 62
     3
  5
8F
 10
-3.470053
 20
302.821289
 30
0.0
 40
0.35
 50
69.540669
 51
129.103799
  0
ARC
  8
LY_1
  6
CONTINUOUS
 62
     3
  5
90
 10
-3.459652
 20
302.624756
 30
0.0
 40
0.408333
 50
211.487864
 51
266.528697
  0
ARC
  8
LY_1
  6
CONTINUOUS
 62
     3
  5
91
 10
-3.510817
 20
302.683105
 30
0.0
 40
0.466667
 50
273.248893
 51
0.0
  0
ARC
  8
LY_1
  6
CONTINUOUS
 62
     3
  5
92
 10
-3.510817
 20
302.711914
 30
0.0
 40
0.466667
 50
0.0
 51
69.540724
  0
ARC
  8
LY_1
  6
CONTINUOUS
 62
     3
  5
93
 10
-3.461582
 20
300.164307
 30
0.0
 40
0.454937
 50
230.896201
 51
50.89622
  0
ARC
  8
LY_1
  6
CONTINUOUS
 62
     3
  5
94
 10
-6.150513
 20
302.766602
 30
0.0
 40
0.412
 50
0.0
 51
180.000019
  0
ARC
  8
LY_1
  6
CONTINUOUS
 62
     3
  5
95
 10
-6.150513
 20
300.090576
 30
0.0
 40
0.412
 50
179.999964
 51
359.999983
  0
CIRCLE
  8
LY_1
  6
CONTINUOUS
 62
     3
  5
96
 10
0.0
 20
288.128662
 30
0.0
 40
10.500001
  0
CIRCLE
  8
LY_1
  6
CONTINUOUS
 62
     3
  5
97
 10
0.0
 20
288.128662
 30
0.0
 40
17.5
  0
ARC
  8
LY_1
  6
CONTINUOUS
 62
     3
  5
98
 10
-14.86862
 20
289.507568
 30
0.0
 40
0.175
 50
329.803437
 51
149.803424
  0
ARC
  8
LY_1
  6
CONTINUOUS
 62
     3
  5
99
 10
-12.945505
 20
286.939209
 30
0.0
 40
0.175
 50
154.285886
 51
334.374971
  0
ARC
  8
LY_1
  6
CONTINUOUS
 62
     3
  5
9A
 10
-13.306833
 20
288.833008
 30
0.0
 40
0.34332
 50
18.468446
 51
169.999966
  0
ARC
  8
LY_1
  6
CONTINUOUS
 62
     3
  5
9B
 10
-14.591803
 20
287.251709
 30
0.0
 40
0.297586
 50
202.732326
 51
349.999978
  0
ARC
  8
LY_1
  6
CONTINUOUS
 62
     3
  5
9C
 10
-14.591803
 20
287.251709
 30
0.0
 40
0.647585
 50
202.732326
 51
349.999978
  0
ARC
  8
LY_1
  6
CONTINUOUS
 62
     3
  5
9D
 10
-13.306833
 20
288.833008
 30
0.0
 40
0.69332
 50
18.468446
 51
169.999966
  0
ARC
  8
LY_1
  6
CONTINUOUS
 62
     3
  5
9E
 10
-15.415674
 20
288.128662
 30
0.0
 40
2.566667
 50
334.285898
 51
18.46848
  0
ARC
  8
LY_1
  6
CONTINUOUS
 62
     3
  5
9F
 10
-12.499006
 20
288.128662
 30
0.0
 40
2.566667
 50
149.803424
 51
202.732309
  0
ARC
  8
LY_1
  6
CONTINUOUS
 62
     3
  5
A0
 10
-12.499006
 20
288.128662
 30
0.0
 40
2.916668
 50
149.803424
 51
202.732309
  0
ARC
  8
LY_1
  6
CONTINUOUS
 62
     3
  5
A1
 10
-15.415674
 20
288.128662
 30
0.0
 40
2.916668
 50
334.285898
 51
18.46848
  0
ARC
  8
LY_1
  6
CONTINUOUS
 62
     3
  5
A2
 10
-29.0
 20
68.0
 30
0.0
 40
5.0
 50
359.999981
 51
90.000037
  0
ARC
  8
LY_1
  6
CONTINUOUS
 62
     3
  5
A3
 10
29.0
 20
68.0
 30
0.0
 40
5.0
 50
89.999982
 51
180.000019
  0
ARC
  8
LY_1
  6
CONTINUOUS
 62
     3
  5
A4
 10
146.255646
 20
68.0
 30
0.0
 40
5.0
 50
89.999982
 51
180.000019
  0
ARC
  8
LY_1
  6
CONTINUOUS
 62
     3
  5
A5
 10
-25.5
 20
327.628662
 30
0.0
 40
9.0
 50
57.681385
 51
90.000037
  0
ARC
  8
LY_1
  6
CONTINUOUS
 62
     3
  5
A6
 10
-30.401917
 20
339.628662
 30
0.0
 40
3.0
 50
209.999921
 51
270.000073
  0
ARC
  8
LY_1
  6
CONTINUOUS
 62
     3
  5
A7
 10
25.5
 20
327.628662
 30
0.0
 40
9.0
 50
89.999982
 51
122.318634
  0
ARC
  8
LY_1
  6
CONTINUOUS
 62
     3
  5
A8
 10
30.401917
 20
339.628662
 30
0.0
 40
3.0
 50
269.999909
 51
330.000071
  0
ARC
  8
LY_1
  6
CONTINUOUS
 62
     3
  5
A9
 10
-25.5
 20
248.628662
 30
0.0
 40
9.0
 50
269.999963
 51
302.318615
  0
ARC
  8
LY_1
  6
CONTINUOUS
 62
     3
  5
AA
 10
-30.401917
 20
236.628662
 30
0.0
 40
3.0
 50
89.999927
 51
150.000079
  0
ARC
  8
LY_1
  6
CONTINUOUS
 62
     3
  5
AB
 10
25.5
 20
248.628662
 30
0.0
 40
9.0
 50
237.681366
 51
270.000018
  0
ARC
  8
LY_1
  6
CONTINUOUS
 62
     3
  5
AC
 10
30.401917
 20
236.628662
 30
0.0
 40
3.0
 50
29.999929
 51
90.000091
  0
ARC
  8
LY_1
  6
CONTINUOUS
 62
     3
  5
AD
 10
95.755646
 20
133.476837
 30
0.0
 40
28.0
 50
285.536786
 51
0.000019
  0
ARC
  8
LY_1
  6
CONTINUOUS
 62
     3
  5
AE
 10
180.755646
 20
133.476837
 30
0.0
 40
28.0
 50
179.999981
 51
254.463195
  0
ARC
  8
LY_1
  6
CONTINUOUS
 62
     3
  5
AF
 10
-28.372437
 20
52.074768
 30
0.0
 40
3.0
 50
205.000058
 51
270.000073
  0
ARC
  8
LY_1
  6
CONTINUOUS
 62
     3
  5
B0
 10
-27.0
 20
52.074768
 30
0.0
 40
3.0
 50
270.000018
 51
359.999981
  0
ARC
  8
LY_1
  6
CONTINUOUS
 62
     3
  5
B1
 10
-45.5
 20
59.899994
 30
0.0
 40
5.0
 50
270.000018
 51
359.999981
  0
ARC
  8
LY_1
  6
CONTINUOUS
 62
     3
  5
B2
 10
-45.5
 20
66.93782
 30
0.0
 40
5.0
 50
0.000036
 51
60.000043
  0
ARC
  8
LY_1
  6
CONTINUOUS
 62
     3
  5
B3
 10
-27.0
 20
58.566238
 30
0.0
 40
3.0
 50
0.000036
 51
60.000043
  0
ARC
  8
LY_1
  6
CONTINUOUS
 62
     3
  5
B4
 10
-43.0
 20
74.73204
 30
0.0
 40
3.0
 50
180.000091
 51
240.000024
  0
ARC
  8
LY_1
  6
CONTINUOUS
 62
     3
  5
B5
 10
28.372437
 20
52.074768
 30
0.0
 40
3.0
 50
269.999909
 51
334.999961
  0
ARC
  8
LY_1
  6
CONTINUOUS
 62
     3
  5
B6
 10
27.0
 20
52.074768
 30
0.0
 40
3.0
 50
180.000019
 51
270.000001
  0
CIRCLE
  8
LY_1
  6
CONTINUOUS
 62
     3
  5
B7
 10
138.255646
 20
0.0
 30
0.0
 40
42.449997
  0
CIRCLE
  8
LY_1
  6
CONTINUOUS
 62
   110
  5
B8
 10
138.255646
 20
0.0
 30
0.0
 40
43.949997
  0
ARC
  8
LY_1
  6
CONTINUOUS
 62
     3
  5
B9
 10
130.255646
 20
68.0
 30
0.0
 40
5.0
 50
359.999981
 51
90.000037
  0
ARC
  8
LY_1
  6
CONTINUOUS
 62
     3
  5
BA
 10
90.134567
 20
69.959763
 30
0.0
 40
4.0
 50
0.499951
 51
42.980779
  0
ARC
  8
LY_1
  6
CONTINUOUS
 62
     3
  5
BB
 10
95.255646
 20
74.73204
 30
0.0
 40
3.0
 50
180.000091
 51
222.980832
  0
ARC
  8
LY_1
  6
CONTINUOUS
 62
     3
  5
BC
 10
186.376724
 20
69.959763
 30
0.0
 40
4.0
 50
137.019223
 51
179.500049
  0
ARC
  8
LY_1
  6
CONTINUOUS
 62
     3
  5
BD
 10
181.255646
 20
74.73204
 30
0.0
 40
3.0
 50
317.019187
 51
359.999905
  0
ARC
  8
LY_1
  6
CONTINUOUS
 62
     3
  5
BE
 10
128.15564
 20
192.800003
 30
0.0
 40
1.0
 50
270.000018
 51
359.999981
  0
ARC
  8
LY_1
  6
CONTINUOUS
 62
     3
  5
BF
 10
112.74791
 20
192.800003
 30
0.0
 40
1.0
 50
180.000019
 51
270.000001
  0
ARC
  8
LY_1
  6
CONTINUOUS
 62
     3
  5
C0
 10
113.74791
 20
196.100006
 30
0.0
 40
2.0
 50
90.000037
 51
180.000019
  0
ARC
  8
LY_1
  6
CONTINUOUS
 62
     3
  5
C1
 10
93.368164
 20
192.800003
 30
0.0
 40
1.0
 50
180.000019
 51
270.000001
  0
ARC
  8
LY_1
  6
CONTINUOUS
 62
     3
  5
C2
 10
94.368164
 20
196.100006
 30
0.0
 40
2.0
 50
90.000037
 51
180.000019
  0
ARC
  8
LY_1
  6
CONTINUOUS
 62
     3
  5
C3
 10
104.844696
 20
195.800003
 30
0.0
 40
9.2
 50
38.682186
 51
135.678047
  0
ARC
  8
LY_1
  6
CONTINUOUS
 62
     3
  5
C4
 10
108.179749
 20
192.631821
 30
0.0
 40
13.8
 50
135.923223
 51
166.89753
  0
ARC
  8
LY_1
  6
CONTINUOUS
 62
     3
  5
C5
 10
156.093292
 20
181.454498
 30
0.0
 40
63.0
 50
166.862505
 51
174.264955
  0
ARC
  8
LY_1
  6
CONTINUOUS
 62
     3
  5
C6
 10
92.191711
 20
195.800003
 30
0.0
 40
9.2
 50
46.554662
 51
135.678047
  0
ARC
  8
LY_1
  6
CONTINUOUS
 62
     3
  5
C7
 10
95.526764
 20
192.631821
 30
0.0
 40
13.8
 50
135.923223
 51
166.89753
  0
ARC
  8
LY_1
  6
CONTINUOUS
 62
     3
  5
C8
 10
143.440308
 20
181.454498
 30
0.0
 40
63.0
 50
166.862505
 51
174.264955
  0
ARC
  8
LY_1
  6
CONTINUOUS
 62
     3
  5
C9
 10
148.355652
 20
192.800003
 30
0.0
 40
1.0
 50
180.000019
 51
270.000001
  0
ARC
  8
LY_1
  6
CONTINUOUS
 62
     3
  5
CA
 10
138.255646
 20
195.899994
 30
0.0
 40
9.1
 50
0.0
 51
180.000019
  0
ARC
  8
LY_1
  6
CONTINUOUS
 62
     3
  5
CB
 10
163.763382
 20
192.800003
 30
0.0
 40
1.0
 50
270.000018
 51
0.0
  0
ARC
  8
LY_1
  6
CONTINUOUS
 62
     3
  5
CC
 10
162.763382
 20
196.100006
 30
0.0
 40
2.0
 50
0.0
 51
89.999982
  0
ARC
  8
LY_1
  6
CONTINUOUS
 62
     3
  5
CD
 10
183.143066
 20
192.800003
 30
0.0
 40
1.0
 50
270.000018
 51
0.0
  0
ARC
  8
LY_1
  6
CONTINUOUS
 62
     3
  5
CE
 10
182.143066
 20
196.100006
 30
0.0
 40
2.0
 50
0.0
 51
89.999982
  0
ARC
  8
LY_1
  6
CONTINUOUS
 62
     3
  5
CF
 10
171.666504
 20
195.800003
 30
0.0
 40
9.2
 50
44.321948
 51
141.317816
  0
ARC
  8
LY_1
  6
CONTINUOUS
 62
     3
  5
D0
 10
168.331543
 20
192.631821
 30
0.0
 40
13.8
 50
13.102471
 51
44.076771
  0
ARC
  8
LY_1
  6
CONTINUOUS
 62
     3
  5
D1
 10
120.417999
 20
181.454498
 30
0.0
 40
63.0
 50
5.735061
 51
13.137473
  0
ARC
  8
LY_1
  6
CONTINUOUS
 62
     3
  5
D2
 10
184.31958
 20
195.800003
 30
0.0
 40
9.2
 50
44.321948
 51
133.44534
  0
ARC
  8
LY_1
  6
CONTINUOUS
 62
     3
  5
D3
 10
180.984619
 20
192.631821
 30
0.0
 40
13.8
 50
13.102471
 51
44.076771
  0
ARC
  8
LY_1
  6
CONTINUOUS
 62
     3
  5
D4
 10
133.070984
 20
181.454498
 30
0.0
 40
63.0
 50
5.735061
 51
13.137473
  0
ARC
  8
LY_1
  6
CONTINUOUS
 62
     3
  5
D5
 10
-10.1
 20
192.800003
 30
0.0
 40
1.0
 50
270.000018
 51
359.999981
  0
ARC
  8
LY_1
  6
CONTINUOUS
 62
     3
  5
D6
 10
-25.507736
 20
192.800003
 30
0.0
 40
1.0
 50
180.000019
 51
270.000001
  0
ARC
  8
LY_1
  6
CONTINUOUS
 62
     3
  5
D7
 10
-24.507736
 20
196.100006
 30
0.0
 40
2.0
 50
90.000037
 51
180.000019
  0
ARC
  8
LY_1
  6
CONTINUOUS
 62
     3
  5
D8
 10
-44.887482
 20
192.800003
 30
0.0
 40
1.0
 50
180.000019
 51
270.000001
  0
ARC
  8
LY_1
  6
CONTINUOUS
 62
     3
  5
D9
 10
-43.887482
 20
196.100006
 30
0.0
 40
2.0
 50
90.000037
 51
180.000019
  0
ARC
  8
LY_1
  6
CONTINUOUS
 62
     3
  5
DA
 10
-33.41095
 20
195.800003
 30
0.0
 40
9.2
 50
38.682186
 51
135.678047
  0
ARC
  8
LY_1
  6
CONTINUOUS
 62
     3
  5
DB
 10
-30.075897
 20
192.631821
 30
0.0
 40
13.8
 50
135.923223
 51
166.89753
  0
ARC
  8
LY_1
  6
CONTINUOUS
 62
     3
  5
DC
 10
17.837646
 20
181.454498
 30
0.0
 40
63.0
 50
166.862505
 51
174.264955
  0
ARC
  8
LY_1
  6
CONTINUOUS
 62
     3
  5
DD
 10
-46.063934
 20
195.800003
 30
0.0
 40
9.2
 50
46.554662
 51
135.678047
  0
ARC
  8
LY_1
  6
CONTINUOUS
 62
     3
  5
DE
 10
-42.728882
 20
192.631821
 30
0.0
 40
13.8
 50
135.923223
 51
166.89753
  0
ARC
  8
LY_1
  6
CONTINUOUS
 62
     3
  5
DF
 10
5.184661
 20
181.454498
 30
0.0
 40
63.0
 50
166.862505
 51
174.264955
  0
ARC
  8
LY_1
  6
CONTINUOUS
 62
     3
  5
E0
 10
10.1
 20
192.800003
 30
0.0
 40
1.0
 50
180.000019
 51
270.000001
  0
ARC
  8
LY_1
  6
CONTINUOUS
 62
     3
  5
E1
 10
0.0
 20
195.899994
 30
0.0
 40
9.1
 50
0.0
 51
180.000019
  0
ARC
  8
LY_1
  6
CONTINUOUS
 62
     3
  5
E2
 10
25.507736
 20
192.800003
 30
0.0
 40
1.0
 50
270.000018
 51
0.0
  0
ARC
  8
LY_1
  6
CONTINUOUS
 62
     3
  5
E3
 10
24.507736
 20
196.100006
 30
0.0
 40
2.0
 50
0.0
 51
89.999982
  0
ARC
  8
LY_1
  6
CONTINUOUS
 62
     3
  5
E4
 10
44.887482
 20
192.800003
 30
0.0
 40
1.0
 50
270.000018
 51
0.0
  0
ARC
  8
LY_1
  6
CONTINUOUS
 62
     3
  5
E5
 10
43.887482
 20
196.100006
 30
0.0
 40
2.0
 50
0.0
 51
89.999982
  0
ARC
  8
LY_1
  6
CONTINUOUS
 62
     3
  5
E6
 10
33.41095
 20
195.800003
 30
0.0
 40
9.2
 50
44.321948
 51
141.317816
  0
ARC
  8
LY_1
  6
CONTINUOUS
 62
     3
  5
E7
 10
30.075897
 20
192.631821
 30
0.0
 40
13.8
 50
13.102471
 51
44.076771
  0
ARC
  8
LY_1
  6
CONTINUOUS
 62
     3
  5
E8
 10
-17.837646
 20
181.454498
 30
0.0
 40
63.0
 50
5.735061
 51
13.137473
  0
CIRCLE
  8
LY_1
  6
CONTINUOUS
 62
   110
  5
E9
 10
0.0
 20
288.128662
 30
0.0
 40
4.0
  0
CIRCLE
  8
LY_1
  6
CONTINUOUS
 62
     3
  5
EA
 10
0.0
 20
288.128662
 30
0.0
 40
5.0
  0
ARC
  8
LY_1
  6
CONTINUOUS
 62
     3
  5
EB
 10
0.0
 20
288.128662
 30
0.0
 40
35.600006
 50
192.61616
 51
257.383839
  0
ARC
  8
LY_1
  6
CONTINUOUS
 62
     3
  5
EC
 10
0.0
 20
288.128662
 30
0.0
 40
35.600006
 50
282.616197
 51
347.361292
  0
ARC
  8
LY_1
  6
CONTINUOUS
 62
     3
  5
ED
 10
0.0
 20
288.128662
 30
0.0
 40
35.600006
 50
102.616161
 51
167.38384
  0
ARC
  8
LY_1
  6
CONTINUOUS
 62
     3
  5
EE
 10
-7.570557
 20
254.366943
 30
0.0
 40
1.0
 50
257.358157
 51
3.181885
  0
ARC
  8
LY_1
  6
CONTINUOUS
 62
     3
  5
EF
 10
7.570557
 20
254.366943
 30
0.0
 40
1.0
 50
176.818025
 51
282.644976
  0
ARC
  8
LY_1
  6
CONTINUOUS
 62
     3
  5
F0
 10
-33.761719
 20
295.699219
 30
0.0
 40
1.0
 50
167.358158
 51
273.181885
  0
ARC
  8
LY_1
  6
CONTINUOUS
 62
     3
  5
F1
 10
-33.761719
 20
280.558105
 30
0.0
 40
1.0
 50
86.818043
 51
192.644994
  0
ARC
  8
LY_1
  6
CONTINUOUS
 62
     3
  5
F2
 10
7.570557
 20
321.890381
 30
0.0
 40
1.0
 50
77.358176
 51
183.181903
  0
ARC
  8
LY_1
  6
CONTINUOUS
 62
     3
  5
F3
 10
-7.570557
 20
321.890381
 30
0.0
 40
1.0
 50
356.818024
 51
102.645012
  0
ARC
  8
LY_1
  6
CONTINUOUS
 62
     3
  5
F4
 10
33.761627
 20
280.558105
 30
0.0
 40
1.0
 50
347.35815
 51
93.181921
  0
ARC
  8
LY_1
  6
CONTINUOUS
 62
     3
  5
F5
 10
33.761642
 20
295.699219
 30
0.0
 40
1.0
 50
266.818024
 51
12.644999
  0
ARC
  8
LY_1
  6
CONTINUOUS
 62
     3
  5
F6
 10
0.0
 20
288.128662
 30
0.0
 40
35.600006
 50
12.638681
 51
77.383803
  0
ARC
  8
LY_1
  6
CONTINUOUS
 62
     3
  5
F7
 10
37.548584
 20
265.287598
 30
0.0
 40
2.0
 50
148.687863
 51
225.000256
  0
ARC
  8
LY_1
  6
CONTINUOUS
 62
     3
  5
F8
 10
42.701935
 20
277.729004
 30
0.0
 40
2.0
 50
90.000528
 51
166.313358
  0
ARC
  8
LY_1
  6
CONTINUOUS
 62
     3
  5
F9
 10
0.0
 20
288.128662
 30
0.0
 40
41.949997
 50
328.687773
 51
346.312557
  0
ARC
  8
LY_1
  6
CONTINUOUS
 62
     3
  5
FA
 10
0.0
 20
288.128662
 30
0.0
 40
46.649994
 50
325.373437
 51
349.62693
  0
ARC
  8
LY_1
  6
CONTINUOUS
 62
     3
  5
FB
 10
100.17334
 20
246.635498
 30
0.0
 40
57.0
 50
141.902699
 51
173.09732
  0
ARC
  8
LY_1
  6
CONTINUOUS
 62
     3
  5
FC
 10
33.41095
 20
254.718018
 30
0.0
 40
10.25
 50
276.902771
 51
353.097322
  0
ARC
  8
LY_1
  6
CONTINUOUS
 62
     3
  5
FD
 10
10.399819
 20
245.426758
 30
0.0
 40
2.0
 50
103.687845
 51
180.000237
  0
ARC
  8
LY_1
  6
CONTINUOUS
 62
     3
  5
FE
 10
22.84108
 20
250.580078
 30
0.0
 40
2.0
 50
45.00051
 51
121.313339
  0
ARC
  8
LY_1
  6
CONTINUOUS
 62
     3
  5
FF
 10
0.0
 20
288.128662
 30
0.0
 40
41.949997
 50
283.687772
 51
301.312556
  0
ARC
  8
LY_1
  6
CONTINUOUS
 62
     3
  5
100
 10
0.0
 20
288.128662
 30
0.0
 40
46.649994
 50
280.373436
 51
304.626929
  0
ARC
  8
LY_1
  6
CONTINUOUS
 62
     3
  5
101
 10
41.493164
 20
187.955368
 30
0.0
 40
57.0
 50
96.90268
 51
128.097302
  0
ARC
  8
LY_1
  6
CONTINUOUS
 62
     3
  5
102
 10
0.000227
 20
240.878662
 30
0.0
 40
10.25
 50
231.902753
 51
308.097321
  0
ARC
  8
LY_1
  6
CONTINUOUS
 62
     3
  5
103
 10
-22.841019
 20
250.580078
 30
0.0
 40
2.0
 50
58.687827
 51
135.000219
  0
ARC
  8
LY_1
  6
CONTINUOUS
 62
     3
  5
104
 10
-10.399744
 20
245.426758
 30
0.0
 40
2.0
 50
0.000511
 51
76.313321
  0
ARC
  8
LY_1
  6
CONTINUOUS
 62
     3
  5
105
 10
0.0
 20
288.128662
 30
0.0
 40
41.949997
 50
238.687753
 51
256.312537
  0
ARC
  8
LY_1
  6
CONTINUOUS
 62
     3
  5
106
 10
0.0
 20
288.128662
 30
0.0
 40
46.649994
 50
235.373418
 51
259.626928
  0
ARC
  8
LY_1
  6
CONTINUOUS
 62
     3
  5
107
 10
-41.493149
 20
187.955368
 30
0.0
 40
57.0
 50
51.902666
 51
83.097284
  0
ARC
  8
LY_1
  6
CONTINUOUS
 62
     3
  5
108
 10
-33.410568
 20
254.717773
 30
0.0
 40
10.25
 50
186.902734
 51
263.09732
  0
ARC
  8
LY_1
  6
CONTINUOUS
 62
     3
  5
109
 10
-42.701981
 20
277.72876
 30
0.0
 40
2.0
 50
13.687829
 51
90.000201
  0
ARC
  8
LY_1
  6
CONTINUOUS
 62
     3
  5
10A
 10
-37.548523
 20
265.287598
 30
0.0
 40
2.0
 50
315.000511
 51
31.313323
  0
ARC
  8
LY_1
  6
CONTINUOUS
 62
     3
  5
10B
 10
0.0
 20
288.128662
 30
0.0
 40
41.949997
 50
193.687735
 51
211.312519
  0
ARC
  8
LY_1
  6
CONTINUOUS
 62
     3
  5
10C
 10
0.0
 20
288.128662
 30
0.0
 40
46.649994
 50
190.373399
 51
214.626909
  0
ARC
  8
LY_1
  6
CONTINUOUS
 62
     3
  5
10D
 10
-100.17334
 20
246.635498
 30
0.0
 40
57.0
 50
6.902664
 51
38.097269
  0
ARC
  8
LY_1
  6
CONTINUOUS
 62
     3
  5
10E
 10
-47.249924
 20
288.128418
 30
0.0
 40
10.25
 50
141.902753
 51
218.097339
  0
ARC
  8
LY_1
  6
CONTINUOUS
 62
     3
  5
10F
 10
-37.548645
 20
310.969727
 30
0.0
 40
2.0
 50
328.687828
 51
45.000182
  0
ARC
  8
LY_1
  6
CONTINUOUS
 62
     3
  5
110
 10
-42.701965
 20
298.52832
 30
0.0
 40
2.0
 50
270.00051
 51
346.313322
  0
ARC
  8
LY_1
  6
CONTINUOUS
 62
     3
  5
111
 10
0.0
 20
288.128662
 30
0.0
 40
41.949997
 50
148.687754
 51
166.312538
  0
ARC
  8
LY_1
  6
CONTINUOUS
 62
     3
  5
112
 10
0.0
 20
288.128662
 30
0.0
 40
46.649994
 50
145.373418
 51
169.626928
  0
ARC
  8
LY_1
  6
CONTINUOUS
 62
     3
  5
113
 10
-100.17334
 20
329.621826
 30
0.0
 40
57.0
 50
321.902663
 51
353.097267
  0
ARC
  8
LY_1
  6
CONTINUOUS
 62
     3
  5
114
 10
-33.410843
 20
321.539307
 30
0.0
 40
10.25
 50
96.902735
 51
173.09732
  0
ARC
  8
LY_1
  6
CONTINUOUS
 62
     3
  5
115
 10
-10.399905
 20
330.830566
 30
0.0
 40
2.0
 50
283.687826
 51
0.000183
  0
ARC
  8
LY_1
  6
CONTINUOUS
 62
     3
  5
116
 10
-22.84111
 20
325.677246
 30
0.0
 40
2.0
 50
225.000491
 51
301.313321
  0
ARC
  8
LY_1
  6
CONTINUOUS
 62
     3
  5
117
 10
0.0
 20
288.128662
 30
0.0
 40
41.949997
 50
103.687736
 51
121.31252
  0
ARC
  8
LY_1
  6
CONTINUOUS
 62
     3
  5
118
 10
0.0
 20
288.128662
 30
0.0
 40
46.649994
 50
100.3734
 51
124.62691
  0
ARC
  8
LY_1
  6
CONTINUOUS
 62
     3
  5
119
 10
-41.493149
 20
388.302002
 30
0.0
 40
57.0
 50
276.902662
 51
308.097266
  0
ARC
  8
LY_1
  6
CONTINUOUS
 62
     3
  5
11A
 10
-0.000065
 20
335.378662
 30
0.0
 40
10.25
 50
51.902717
 51
128.097302
  0
ARC
  8
LY_1
  6
CONTINUOUS
 62
     3
  5
11B
 10
22.840897
 20
325.677246
 30
0.0
 40
2.0
 50
238.687808
 51
315.000183
  0
ARC
  8
LY_1
  6
CONTINUOUS
 62
     3
  5
11C
 10
10.3997
 20
330.830566
 30
0.0
 40
2.0
 50
180.000473
 51
256.313302
  0
ARC
  8
LY_1
  6
CONTINUOUS
 62
     3
  5
11D
 10
0.0
 20
288.128662
 30
0.0
 40
41.949997
 50
58.687717
 51
76.312501
  0
ARC
  8
LY_1
  6
CONTINUOUS
 62
     3
  5
11E
 10
0.0
 20
288.128662
 30
0.0
 40
46.649994
 50
55.373385
 51
79.626892
  0
ARC
  8
LY_1
  6
CONTINUOUS
 62
     3
  5
11F
 10
41.493164
 20
388.302002
 30
0.0
 40
57.0
 50
231.902643
 51
263.097265
  0
ARC
  8
LY_1
  6
CONTINUOUS
 62
     3
  5
120
 10
33.410797
 20
321.539551
 30
0.0
 40
10.25
 50
6.902716
 51
83.097284
  0
ARC
  8
LY_1
  6
CONTINUOUS
 62
     3
  5
121
 10
42.701813
 20
298.528564
 30
0.0
 40
2.0
 50
193.68779
 51
270.000182
  0
ARC
  8
LY_1
  6
CONTINUOUS
 62
     3
  5
122
 10
37.548462
 20
310.969727
 30
0.0
 40
2.0
 50
135.000492
 51
211.313321
  0
ARC
  8
LY_1
  6
CONTINUOUS
 62
     3
  5
123
 10
0.0
 20
288.128662
 30
0.0
 40
41.949997
 50
13.687743
 51
31.312524
  0
ARC
  8
LY_1
  6
CONTINUOUS
 62
     3
  5
124
 10
0.0
 20
288.128662
 30
0.0
 40
46.649994
 50
10.373384
 51
34.626897
  0
ARC
  8
LY_1
  6
CONTINUOUS
 62
     3
  5
125
 10
100.173355
 20
329.621826
 30
0.0
 40
57.0
 50
186.902625
 51
218.097247
  0
ARC
  8
LY_1
  6
CONTINUOUS
 62
     3
  5
126
 10
47.25
 20
288.128662
 30
0.0
 40
10.25
 50
321.902714
 51
38.097286
  0
ARC
  8
LY_1
  6
CONTINUOUS
 62
     3
  5
127
 10
46.063934
 20
195.800003
 30
0.0
 40
9.2
 50
44.321948
 51
133.44534
  0
ARC
  8
LY_1
  6
CONTINUOUS
 62
     3
  5
128
 10
42.728882
 20
192.631821
 30
0.0
 40
13.8
 50
13.102471
 51
44.076771
  0
ARC
  8
LY_1
  6
CONTINUOUS
 62
     3
  5
129
 10
-5.184661
 20
181.454498
 30
0.0
 40
63.0
 50
5.735061
 51
13.137473
  0
ARC
  8
LY_1
  6
CONTINUOUS
 62
     3
  5
12A
 10
-42.5
 20
134.304855
 30
0.0
 40
28.0
 50
276.768462
 51
0.000019
  0
ARC
  8
LY_1
  6
CONTINUOUS
 62
     3
  5
12B
 10
42.5
 20
134.304855
 30
0.0
 40
28.0
 50
179.999981
 51
263.231519
  0
ARC
  8
LY_1
  6
CONTINUOUS
 62
     3
  5
12C
 10
45.5
 20
59.899994
 30
0.0
 40
5.0
 50
180.000019
 51
270.000001
  0
ARC
  8
LY_1
  6
CONTINUOUS
 62
     3
  5
12D
 10
45.5
 20
66.93782
 30
0.0
 40
5.0
 50
119.999976
 51
179.999964
  0
ARC
  8
LY_1
  6
CONTINUOUS
 62
     3
  5
12E
 10
27.0
 20
58.566238
 30
0.0
 40
3.0
 50
119.999976
 51
179.999964
  0
ARC
  8
LY_1
  6
CONTINUOUS
 62
     3
  5
12F
 10
43.0
 20
74.73204
 30
0.0
 40
3.0
 50
299.999957
 51
359.999905
  0
ARC
  8
LY_1
  6
CONTINUOUS
 62
     3
  5
130
 10
-12.459936
 20
-52.0
 30
0.0
 40
9.0
 50
76.270865
 51
90.000037
  0
ARC
  8
LY_1
  6
CONTINUOUS
 62
     3
  5
131
 10
-12.548166
 20
-52.0
 30
0.0
 40
9.0
 50
90.000037
 51
136.017043
  0
ARC
  8
LY_1
  6
CONTINUOUS
 62
     3
  5
132
 10
-25.5
 20
-39.5
 30
0.0
 40
9.0
 50
269.999963
 51
316.017041
  0
ARC
  8
LY_1
  6
CONTINUOUS
 62
     3
  5
133
 10
-27.591476
 20
-51.5
 30
0.0
 40
3.0
 50
89.999927
 51
154.999942
  0
ARC
  8
LY_1
  6
CONTINUOUS
 62
     3
  5
134
 10
12.459936
 20
-52.0
 30
0.0
 40
9.0
 50
89.999982
 51
103.729154
  0
ARC
  8
LY_1
  6
CONTINUOUS
 62
     3
  5
135
 10
12.548166
 20
-52.0
 30
0.0
 40
9.0
 50
43.982962
 51
89.999982
  0
ARC
  8
LY_1
  6
CONTINUOUS
 62
     3
  5
136
 10
25.5
 20
-39.5
 30
0.0
 40
9.0
 50
223.982957
 51
270.000018
  0
ARC
  8
LY_1
  6
CONTINUOUS
 62
     3
  5
137
 10
0.0
 20
-1.0
 30
0.0
 40
43.5
 50
256.270846
 51
283.729135
  0
ARC
  8
LY_1
  6
CONTINUOUS
 62
     3
  5
138
 10
27.591476
 20
-51.5
 30
0.0
 40
3.0
 50
25.000039
 51
90.000091
  0
LINE
  8
LY_1
  6
CONTINUOUS
 62
     3
  5
139
 10
4.331573
 20
19.982925
 30
0.0
 11
4.017014
 21
19.982925
 31
0.0
  0
LINE
  8
LY_1
  6
CONTINUOUS
 62
     3
  5
13A
 10
4.331085
 20
35.836334
 30
0.0
 11
4.016617
 21
35.836334
 31
0.0
  0
LINE
  8
LY_1
  6
CONTINUOUS
 62
     3
  5
13B
 10
4.331085
 20
35.836334
 30
0.0
 11
4.331085
 21
33.473785
 31
0.0
  0
LINE
  8
LY_1
  6
CONTINUOUS
 62
     3
  5
13C
 10
2.513672
 20
30.334625
 30
0.0
 11
2.513672
 21
26.883209
 31
0.0
  0
LINE
  8
LY_1
  6
CONTINUOUS
 62
     3
  5
13D
 10
2.513672
 20
30.334625
 30
0.0
 11
-4.016922
 21
30.334625
 31
0.0
  0
LINE
  8
LY_1
  6
CONTINUOUS
 62
     3
  5
13E
 10
4.331085
 20
33.473785
 30
0.0
 11
-4.016922
 21
33.473785
 31
0.0
  0
LINE
  8
LY_1
  6
CONTINUOUS
 62
     3
  5
13F
 10
5.586044
 20
37.405914
 30
0.0
 11
5.586044
 21
26.883209
 31
0.0
  0
LINE
  8
LY_1
  6
CONTINUOUS
 62
     3
  5
140
 10
4.331573
 20
19.982925
 30
0.0
 11
4.331573
 21
13.911621
 31
0.0
  0
LINE
  8
LY_1
  6
CONTINUOUS
 62
     3
  5
141
 10
-5.586548
 20
22.157074
 30
0.0
 11
-5.586548
 21
11.536255
 31
0.0
  0
LINE
  8
LY_1
  6
CONTINUOUS
 62
     3
  5
142
 10
-2.513931
 20
11.536255
 30
0.0
 11
-2.513931
 21
17.409363
 31
0.0
  0
LINE
  8
LY_1
  6
CONTINUOUS
 62
     3
  5
143
 10
2.843956
 20
10.597918
 30
0.0
 11
-2.414248
 21
17.444578
 31
0.0
  0
LINE
  8
LY_1
  6
CONTINUOUS
 62
     3
  5
144
 10
4.231711
 20
13.876403
 30
0.0
 11
-2.84337
 21
23.088803
 31
0.0
  0
LINE
  8
LY_1
  6
CONTINUOUS
 62
     3
  5
145
 10
5.586594
 20
21.552567
 30
0.0
 11
5.586594
 21
11.529648
 31
0.0
  0
LINE
  8
LY_1
  6
CONTINUOUS
 62
     3
  5
146
 10
-4.016922
 20
44.361237
 30
0.0
 11
4.017014
 21
44.361237
 31
0.0
  0
LINE
  8
LY_1
  6
CONTINUOUS
 62
     3
  5
147
 10
4.017014
 20
41.221832
 30
0.0
 11
-4.016922
 21
41.221832
 31
0.0
  0
LINE
  8
LY_1
  6
CONTINUOUS
 62
     3
  5
148
 10
0.935784
 20
52.738684
 30
0.0
 11
3.201269
 21
49.412502
 31
0.0
  0
LINE
  8
LY_1
  6
CONTINUOUS
 62
     3
  5
149
 10
0.935783
 20
52.738723
 30
0.0
 11
-2.775343
 21
47.290055
 31
0.0
  0
LINE
  8
LY_1
  6
CONTINUOUS
 62
     3
  5
14A
 10
0.045659
 20
56.793382
 30
0.0
 11
5.263532
 21
49.13251
 31
0.0
  0
LINE
  8
LY_1
  6
CONTINUOUS
 62
     3
  5
14B
 10
-0.046036
 20
56.793399
 30
0.0
 11
-5.332531
 21
49.031774
 31
0.0
  0
LINE
  8
LY_1
  6
CONTINUOUS
 62
     3
  5
14C
 10
4.017136
 20
56.860992
 30
0.0
 11
-4.01709
 21
56.860992
 31
0.0
  0
LINE
  8
LY_1
  6
CONTINUOUS
 62
     3
  5
14D
 10
4.017136
 20
60.000153
 30
0.0
 11
-4.01709
 21
60.000153
 31
0.0
  0
LINE
  8
LY_1
  6
CONTINUOUS
 62
     3
  5
14E
 10
9.830888
 20
279.879519
 30
0.0
 11
11.618328
 21
278.37967
 31
0.0
  0
LINE
  8
LY_1
  6
CONTINUOUS
 62
     3
  5
14F
 10
10.57357
 20
283.19807
 30
0.0
 11
11.630918
 21
282.705016
 31
0.0
  0
LINE
  8
LY_1
  6
CONTINUOUS
 62
     3
  5
150
 10
14.803004
 20
281.225835
 30
0.0
 11
13.745629
 21
281.718902
 31
0.0
  0
LINE
  8
LY_1
  6
CONTINUOUS
 62
     3
  5
151
 10
13.787322
 20
285.697562
 30
0.0
 11
10.573602
 21
283.198107
 31
0.0
  0
LINE
  8
LY_1
  6
CONTINUOUS
 62
     3
  5
152
 10
13.7873
 20
285.697605
 30
0.0
 11
14.80303
 21
281.225819
 31
0.0
  0
LINE
  8
LY_1
  6
CONTINUOUS
 62
     3
  5
153
 10
-9.8309
 20
279.879509
 30
0.0
 11
-11.61834
 21
278.37966
 31
0.0
  0
LINE
  8
LY_1
  6
CONTINUOUS
 62
     3
  5
154
 10
-10.573584
 20
283.198064
 30
0.0
 11
-11.630946
 21
282.705003
 31
0.0
  0
LINE
  8
LY_1
  6
CONTINUOUS
 62
     3
  5
155
 10
-14.802991
 20
281.225841
 30
0.0
 11
-13.745642
 21
281.718895
 31
0.0
  0
LINE
  8
LY_1
  6
CONTINUOUS
 62
     3
  5
156
 10
-13.787334
 20
285.697571
 30
0.0
 11
-10.573614
 21
283.198117
 31
0.0
  0
LINE
  8
LY_1
  6
CONTINUOUS
 62
     3
  5
157
 10
-13.787315
 20
285.697609
 30
0.0
 11
-14.803044
 21
281.225822
 31
0.0
  0
LINE
  8
LY_1
  6
CONTINUOUS
 62
     3
  5
158
 10
3.117907
 20
302.711914
 30
0.0
 11
3.117907
 21
302.647705
 31
0.0
  0
LINE
  8
LY_1
  6
CONTINUOUS
 62
     3
  5
159
 10
3.941906
 20
302.7854
 30
0.0
 11
3.941906
 21
302.682861
 31
0.0
  0
LINE
  8
LY_1
  6
CONTINUOUS
 62
     3
  5
15A
 10
-0.219523
 20
302.7854
 30
0.0
 11
-0.219523
 21
302.682617
 31
0.0
  0
LINE
  8
LY_1
  6
CONTINUOUS
 62
     3
  5
15B
 10
-1.043498
 20
302.711914
 30
0.0
 11
-1.043498
 21
302.647705
 31
0.0
  0
LINE
  8
LY_1
  6
CONTINUOUS
 62
     3
  5
15C
 10
-1.633327
 20
302.766602
 30
0.0
 11
-1.633327
 21
300.090576
 31
0.0
  0
LINE
  8
LY_1
  6
CONTINUOUS
 62
     3
  5
15D
 10
-2.4573
 20
302.766602
 30
0.0
 11
-2.4573
 21
300.090576
 31
0.0
  0
LINE
  8
LY_1
  6
CONTINUOUS
 62
     3
  5
15E
 10
-3.044155
 20
302.711914
 30
0.0
 11
-3.044155
 21
302.683105
 31
0.0
  0
LINE
  8
LY_1
  6
CONTINUOUS
 62
     3
  5
15F
 10
-0.219523
 20
302.7854
 30
0.0
 11
0.40062
 21
302.7854
 31
0.0
  0
LINE
  8
LY_1
  6
CONTINUOUS
 62
     3
  5
160
 10
1.22467
 20
302.216064
 30
0.0
 11
2.052689
 21
302.216064
 31
0.0
  0
LINE
  8
LY_1
  6
CONTINUOUS
 62
     3
  5
161
 10
1.22467
 20
302.216064
 30
0.0
 11
1.22467
 21
300.090576
 31
0.0
  0
LINE
  8
LY_1
  6
CONTINUOUS
 62
     3
  5
162
 10
0.40062
 20
302.7854
 30
0.0
 11
0.40062
 21
300.090576
 31
0.0
  0
LINE
  8
LY_1
  6
CONTINUOUS
 62
     3
  5
163
 10
-0.576833
 20
303.178467
 30
0.0
 11
2.052689
 21
303.178467
 31
0.0
  0
LINE
  8
LY_1
  6
CONTINUOUS
 62
     3
  5
164
 10
3.941906
 20
302.7854
 30
0.0
 11
5.534058
 21
302.7854
 31
0.0
  0
LINE
  8
LY_1
  6
CONTINUOUS
 62
     3
  5
165
 10
3.46649
 20
299.678711
 30
0.0
 11
6.081236
 21
299.678711
 31
0.0
  0
LINE
  8
LY_1
  6
CONTINUOUS
 62
     3
  5
166
 10
6.081236
 20
300.641113
 30
0.0
 11
4.619217
 21
300.641113
 31
0.0
  0
LINE
  8
LY_1
  6
CONTINUOUS
 62
     3
  5
167
 10
6.401349
 20
302.315647
 30
0.0
 11
4.607413
 21
300.67155
 31
0.0
  0
LINE
  8
LY_1
  6
CONTINUOUS
 62
     3
  5
168
 10
5.545876
 20
302.755063
 30
0.0
 11
3.127363
 21
300.538558
 31
0.0
  0
LINE
  8
LY_1
  6
CONTINUOUS
 62
     3
  5
169
 10
3.584595
 20
303.178711
 30
0.0
 11
6.065725
 21
303.178711
 31
0.0
  0
LINE
  8
LY_1
  6
CONTINUOUS
 62
     3
  5
16A
 10
-4.65642
 20
301.721735
 30
0.0
 11
-3.807842
 21
302.411449
 31
0.0
  0
LINE
  8
LY_1
  6
CONTINUOUS
 62
     3
  5
16B
 10
-4.656457
 20
301.721711
 30
0.0
 11
-3.174652
 21
300.517319
 31
0.0
  0
LINE
  8
LY_1
  6
CONTINUOUS
 62
     3
  5
16C
 10
-5.720751
 20
301.44294
 30
0.0
 11
-3.69076
 21
303.092891
 31
0.0
  0
LINE
  8
LY_1
  6
CONTINUOUS
 62
     3
  5
16D
 10
-5.72076
 20
301.414263
 30
0.0
 11
-3.748529
 21
299.811258
 31
0.0
  0
LINE
  8
LY_1
  6
CONTINUOUS
 62
     3
  5
16E
 10
-5.738527
 20
302.766602
 30
0.0
 11
-5.738527
 21
300.090576
 31
0.0
  0
LINE
  8
LY_1
  6
CONTINUOUS
 62
     3
  5
16F
 10
-6.562527
 20
302.766602
 30
0.0
 11
-6.562527
 21
300.090576
 31
0.0
  0
LINE
  8
LY_1
  6
CONTINUOUS
 62
     3
  5
170
 10
-13.989624
 20
288.953395
 30
0.0
 11
-14.298765
 21
287.200168
 31
0.0
  0
LINE
  8
LY_1
  6
CONTINUOUS
 62
     3
  5
171
 10
-13.644935
 20
288.892617
 30
0.0
 11
-13.954076
 21
287.13939
 31
0.0
  0
LINE
  8
LY_1
  6
CONTINUOUS
 62
     3
  5
172
 10
-24.0
 20
68.0
 30
0.0
 11
-24.0
 21
30.037308
 31
0.0
  0
LINE
  8
LY_1
  6
CONTINUOUS
 62
     3
  5
173
 10
-27.056683
 20
264.992205
 30
0.0
 11
-33.565098
 21
276.265111
 31
0.0
  0
LINE
  8
LY_1
  6
CONTINUOUS
 62
     3
  5
174
 10
-9.814906
 20
271.128571
 30
0.0
 11
-12.645778
 21
276.031784
 31
0.0
  0
LINE
  8
LY_1
  6
CONTINUOUS
 62
     3
  5
175
 10
-7.500768
 20
271.128662
 30
0.0
 11
-9.814955
 21
271.128662
 31
0.0
  0
LINE
  8
LY_1
  6
CONTINUOUS
 62
     3
  5
176
 10
-27.056679
 20
311.265111
 30
0.0
 11
-33.565132
 21
299.992139
 31
0.0
  0
LINE
  8
LY_1
  6
CONTINUOUS
 62
     3
  5
177
 10
-9.814901
 20
305.128746
 30
0.0
 11
-12.645773
 21
300.225533
 31
0.0
  0
LINE
  8
LY_1
  6
CONTINUOUS
 62
     3
  5
178
 10
-7.500768
 20
305.128662
 30
0.0
 11
-9.814955
 21
305.128662
 31
0.0
  0
LINE
  8
LY_1
  6
CONTINUOUS
 62
     3
  5
179
 10
27.056683
 20
264.992205
 30
0.0
 11
33.565098
 21
276.265111
 31
0.0
  0
LINE
  8
LY_1
  6
CONTINUOUS
 62
     3
  5
17A
 10
9.814906
 20
271.128571
 30
0.0
 11
12.645778
 21
276.031784
 31
0.0
  0
LINE
  8
LY_1
  6
CONTINUOUS
 62
     3
  5
17B
 10
7.500768
 20
271.128662
 30
0.0
 11
9.814955
 21
271.128662
 31
0.0
  0
LINE
  8
LY_1
  6
CONTINUOUS
 62
     3
  5
17C
 10
27.056679
 20
311.265111
 30
0.0
 11
33.565132
 21
299.992139
 31
0.0
  0
LINE
  8
LY_1
  6
CONTINUOUS
 62
     3
  5
17D
 10
9.814901
 20
305.128746
 30
0.0
 11
12.645773
 21
300.225533
 31
0.0
  0
LINE
  8
LY_1
  6
CONTINUOUS
 62
     3
  5
17E
 10
7.500768
 20
305.128662
 30
0.0
 11
9.814955
 21
305.128662
 31
0.0
  0
LINE
  8
LY_1
  6
CONTINUOUS
 62
     3
  5
17F
 10
138.255646
 20
164.199997
 30
0.0
 11
138.255646
 21
144.199997
 31
0.0
  0
LINE
  8
LY_1
  6
CONTINUOUS
 62
     3
  5
180
 10
138.255646
 20
106.5
 30
0.0
 11
138.255646
 21
95.5
 31
0.0
  0
LINE
  8
LY_1
  6
CONTINUOUS
 62
     3
  5
181
 10
91.755646
 20
93.090561
 30
0.0
 11
184.755646
 21
93.090531
 31
0.0
  0
LINE
  8
LY_1
  6
CONTINUOUS
 62
     3
  5
182
 10
141.255646
 20
68.0
 30
0.0
 11
141.255646
 21
54.899994
 31
0.0
  0
LINE
  8
LY_1
  6
CONTINUOUS
 62
     3
  5
183
 10
-46.5
 20
93.970505
 30
0.0
 11
46.5
 21
93.970505
 31
0.0
  0
LINE
  8
LY_1
  6
CONTINUOUS
 62
     3
  5
184
 10
-25.5
 20
336.628662
 30
0.0
 11
-30.401917
 21
336.628662
 31
0.0
  0
LINE
  8
LY_1
  6
CONTINUOUS
 62
     3
  5
185
 10
-33.0
 20
338.128662
 30
0.0
 11
-46.0
 21
338.128662
 31
0.0
  0
LINE
  8
LY_1
  6
CONTINUOUS
 62
     3
  5
186
 10
-46.0
 20
311.894775
 30
0.0
 11
-46.0
 21
338.128662
 31
0.0
  0
LINE
  8
LY_1
  6
CONTINUOUS
 62
     3
  5
187
 10
-33.0
 20
331.938232
 30
0.0
 11
-33.0
 21
338.128662
 31
0.0
  0
LINE
  8
LY_1
  6
CONTINUOUS
 62
     3
  5
188
 10
25.5
 20
336.628662
 30
0.0
 11
30.401917
 21
336.628662
 31
0.0
  0
LINE
  8
LY_1
  6
CONTINUOUS
 62
     3
  5
189
 10
33.0
 20
338.128662
 30
0.0
 11
46.0
 21
338.128662
 31
0.0
  0
LINE
  8
LY_1
  6
CONTINUOUS
 62
     3
  5
18A
 10
46.0
 20
311.894775
 30
0.0
 11
46.0
 21
338.128662
 31
0.0
  0
LINE
  8
LY_1
  6
CONTINUOUS
 62
     3
  5
18B
 10
33.0
 20
331.938232
 30
0.0
 11
33.0
 21
338.128662
 31
0.0
  0
LINE
  8
LY_1
  6
CONTINUOUS
 62
     3
  5
18C
 10
-25.5
 20
239.628662
 30
0.0
 11
-30.401917
 21
239.628662
 31
0.0
  0
LINE
  8
LY_1
  6
CONTINUOUS
 62
     3
  5
18D
 10
-33.0
 20
238.128662
 30
0.0
 11
-46.0
 21
238.128662
 31
0.0
  0
LINE
  8
LY_1
  6
CONTINUOUS
 62
     3
  5
18E
 10
-46.0
 20
264.362549
 30
0.0
 11
-46.0
 21
238.128662
 31
0.0
  0
LINE
  8
LY_1
  6
CONTINUOUS
 62
     3
  5
18F
 10
-33.0
 20
244.319092
 30
0.0
 11
-33.0
 21
238.128662
 31
0.0
  0
LINE
  8
LY_1
  6
CONTINUOUS
 62
     3
  5
190
 10
25.5
 20
239.628662
 30
0.0
 11
30.401917
 21
239.628662
 31
0.0
  0
LINE
  8
LY_1
  6
CONTINUOUS
 62
     3
  5
191
 10
33.0
 20
238.128662
 30
0.0
 11
46.0
 21
238.128662
 31
0.0
  0
LINE
  8
LY_1
  6
CONTINUOUS
 62
     3
  5
192
 10
46.0
 20
264.362549
 30
0.0
 11
46.0
 21
238.128662
 31
0.0
  0
LINE
  8
LY_1
  6
CONTINUOUS
 62
     3
  5
193
 10
33.0
 20
244.319092
 30
0.0
 11
33.0
 21
238.128662
 31
0.0
  0
LINE
  8
LY_1
  6
CONTINUOUS
 62
     3
  5
194
 10
103.255655
 20
95.500024
 30
0.0
 11
91.755646
 21
93.090564
 31
0.0
  0
LINE
  8
LY_1
  6
CONTINUOUS
 62
     3
  5
195
 10
103.255646
 20
106.5
 30
0.0
 11
103.255646
 21
95.5
 31
0.0
  0
LINE
  8
LY_1
  6
CONTINUOUS
 62
     3
  5
196
 10
123.755646
 20
144.199997
 30
0.0
 11
123.755646
 21
133.476837
 31
0.0
  0
LINE
  8
LY_1
  6
CONTINUOUS
 62
     3
  5
197
 10
91.755646
 20
93.090561
 30
0.0
 11
91.755646
 21
84.5
 31
0.0
  0
LINE
  8
LY_1
  6
CONTINUOUS
 62
     3
  5
198
 10
173.255668
 20
95.499991
 30
0.0
 11
184.755646
 21
93.090537
 31
0.0
  0
LINE
  8
LY_1
  6
CONTINUOUS
 62
     3
  5
199
 10
173.255646
 20
106.5
 30
0.0
 11
173.255646
 21
95.5
 31
0.0
  0
LINE
  8
LY_1
  6
CONTINUOUS
 62
     3
  5
19A
 10
-33.0
 20
28.867508
 30
0.0
 11
-46.0
 21
28.867508
 31
0.0
  0
LINE
  8
LY_1
  6
CONTINUOUS
 62
     3
  5
19B
 10
33.0
 20
28.867508
 30
0.0
 11
46.0
 21
28.867508
 31
0.0
  0
LINE
  8
LY_1
  6
CONTINUOUS
 62
     3
  5
19C
 10
-33.0
 20
-28.867508
 30
0.0
 11
-46.0
 21
-28.867508
 31
0.0
  0
LINE
  8
LY_1
  6
CONTINUOUS
 62
     3
  5
19D
 10
33.0
 20
-28.867508
 30
0.0
 11
46.0
 21
-28.867508
 31
0.0
  0
LINE
  8
LY_1
  6
CONTINUOUS
 62
     3
  5
19E
 10
-33.000002
 20
54.899999
 30
0.0
 11
-31.091365
 21
50.806913
 31
0.0
  0
LINE
  8
LY_1
  6
CONTINUOUS
 62
     3
  5
19F
 10
-27.0
 20
49.074768
 30
0.0
 11
-28.372437
 21
49.074768
 31
0.0
  0
LINE
  8
LY_1
  6
CONTINUOUS
 62
     3
  5
1A0
 10
-40.5
 20
66.93782
 30
0.0
 11
-40.5
 21
59.899994
 31
0.0
  0
LINE
  8
LY_1
  6
CONTINUOUS
 62
     3
  5
1A1
 10
-25.499997
 20
61.164311
 30
0.0
 11
-44.500002
 21
72.133969
 31
0.0
  0
LINE
  8
LY_1
  6
CONTINUOUS
 62
     3
  5
1A2
 10
-46.0
 20
84.5
 30
0.0
 11
-46.0
 21
74.73204
 31
0.0
  0
LINE
  8
LY_1
  6
CONTINUOUS
 62
     3
  5
1A3
 10
-33.0
 20
54.899994
 30
0.0
 11
-46.0
 21
54.899994
 31
0.0
  0
LINE
  8
LY_1
  6
CONTINUOUS
 62
     3
  5
1A4
 10
-33.0
 20
54.899994
 30
0.0
 11
-33.0
 21
-56.0
 31
0.0
  0
LINE
  8
LY_1
  6
CONTINUOUS
 62
     3
  5
1A5
 10
-46.0
 20
54.899994
 30
0.0
 11
-46.0
 21
-56.0
 31
0.0
  0
LINE
  8
LY_1
  6
CONTINUOUS
 62
     3
  5
1A6
 10
33.000002
 20
54.899999
 30
0.0
 11
31.091365
 21
50.806913
 31
0.0
  0
LINE
  8
LY_1
  6
CONTINUOUS
 62
     3
  5
1A7
 10
27.0
 20
49.074768
 30
0.0
 11
28.372437
 21
49.074768
 31
0.0
  0
LINE
  8
LY_1
  6
CONTINUOUS
 62
     3
  5
1A8
 10
135.255646
 20
68.0
 30
0.0
 11
135.255646
 21
54.899994
 31
0.0
  0
LINE
  8
LY_1
  6
CONTINUOUS
 62
     3
  5
1A9
 10
94.13438
 20
69.994694
 30
0.0
 11
94.46202
 21
32.450821
 31
0.0
  0
LINE
  8
LY_1
  6
CONTINUOUS
 62
     3
  5
1AA
 10
92.255646
 20
84.5
 30
0.0
 11
92.255646
 21
74.73204
 31
0.0
  0
LINE
  8
LY_1
  6
CONTINUOUS
 62
     3
  5
1AB
 10
182.376832
 20
69.994627
 30
0.0
 11
182.049192
 21
32.450754
 31
0.0
  0
LINE
  8
LY_1
  6
CONTINUOUS
 62
   110
  5
1AC
 10
124.605652
 20
144.199997
 30
0.0
 11
124.605652
 21
134.5
 31
0.0
  0
LINE
  8
LY_1
  6
CONTINUOUS
 62
   110
  5
1AD
 10
151.90564
 20
144.199997
 30
0.0
 11
151.90564
 21
134.5
 31
0.0
  0
LINE
  8
LY_1
  6
CONTINUOUS
 62
     3
  5
1AE
 10
152.755646
 20
144.199997
 30
0.0
 11
152.755646
 21
133.476837
 31
0.0
  0
LINE
  8
LY_1
  6
CONTINUOUS
 62
     3
  5
1AF
 10
123.754959
 20
134.5
 30
0.0
 11
152.756332
 21
134.5
 31
0.0
  0
LINE
  8
LY_1
  6
CONTINUOUS
 62
     3
  5
1B0
 10
103.255646
 20
106.5
 30
0.0
 11
173.255646
 21
106.5
 31
0.0
  0
LINE
  8
LY_1
  6
CONTINUOUS
 62
     3
  5
1B1
 10
103.255646
 20
95.5
 30
0.0
 11
173.255646
 21
95.5
 31
0.0
  0
LINE
  8
LY_1
  6
CONTINUOUS
 62
     3
  5
1B2
 10
93.452866
 20
73.0
 30
0.0
 11
183.058426
 21
73.0
 31
0.0
  0
LINE
  8
LY_1
  6
CONTINUOUS
 62
     3
  5
1B3
 10
184.255646
 20
84.5
 30
0.0
 11
184.255646
 21
74.73204
 31
0.0
  0
LINE
  8
LY_1
  6
CONTINUOUS
 62
     3
  5
1B4
 10
184.755646
 20
93.09053
 30
0.0
 11
184.755646
 21
84.5
 31
0.0
  0
LINE
  8
LY_1
  6
CONTINUOUS
 62
     3
  5
1B5
 10
91.755646
 20
84.5
 30
0.0
 11
184.755646
 21
84.5
 31
0.0
  0
LINE
  8
LY_1
  6
CONTINUOUS
 62
     3
  5
1B6
 10
91.755646
 20
89.5
 30
0.0
 11
184.755646
 21
89.5
 31
0.0
  0
LINE
  8
LY_1
  6
CONTINUOUS
 62
     3
  5
1B7
 10
133.34523
 20
54.899994
 30
0.0
 11
143.166061
 21
54.899994
 31
0.0
  0
LINE
  8
LY_1
  6
CONTINUOUS
 62
     3
  5
1B8
 10
88.255657
 20
28.867521
 30
0.0
 11
133.345231
 21
54.899999
 31
0.0
  0
LINE
  8
LY_1
  6
CONTINUOUS
 62
     3
  5
1B9
 10
138.255657
 20
-57.735018
 30
0.0
 11
188.255659
 21
-28.867502
 31
0.0
  0
LINE
  8
LY_1
  6
CONTINUOUS
 62
     3
  5
1BA
 10
143.166072
 20
54.899988
 30
0.0
 11
188.255659
 21
28.867502
 31
0.0
  0
LINE
  8
LY_1
  6
CONTINUOUS
 62
     3
  5
1BB
 10
88.255657
 20
-28.867521
 30
0.0
 11
138.255659
 21
-57.735036
 31
0.0
  0
LINE
  8
LY_1
  6
CONTINUOUS
 62
     3
  5
1BC
 10
188.255646
 20
28.867508
 30
0.0
 11
188.255646
 21
-28.867508
 31
0.0
  0
LINE
  8
LY_1
  6
CONTINUOUS
 62
     3
  5
1BD
 10
88.255646
 20
28.867508
 30
0.0
 11
88.255646
 21
-28.867508
 31
0.0
  0
LINE
  8
LY_1
  6
CENTER
 62
   110
  5
1BF
 10
75.520615
 20
0.0
 30
0.0
 11
200.990677
 21
0.0
 31
0.0
  0
LINE
  8
LY_1
  6
CENTER
 62
   110
  5
1C0
 10
138.255646
 20
210.0
 30
0.0
 11
138.255646
 21
-62.735031
 31
0.0
  0
LINE
  8
LY_1
  6
CONTINUOUS
 62
     3
  5
1C1
 10
155.255646
 20
164.199997
 30
0.0
 11
155.255646
 21
144.199997
 31
0.0
  0
LINE
  8
LY_1
  6
CONTINUOUS
 62
     3
  5
1C2
 10
121.255646
 20
164.199997
 30
0.0
 11
121.255646
 21
144.199997
 31
0.0
  0
LINE
  8
LY_1
  6
CONTINUOUS
 62
     3
  5
1C3
 10
129.15564
 20
195.899994
 30
0.0
 11
129.15564
 21
192.800003
 31
0.0
  0
LINE
  8
LY_1
  6
CONTINUOUS
 62
     3
  5
1C4
 10
128.15564
 20
191.800003
 30
0.0
 11
112.74791
 21
191.800003
 31
0.0
  0
LINE
  8
LY_1
  6
CONTINUOUS
 62
     3
  5
1C5
 10
129.15564
 20
193.5
 30
0.0
 11
111.74791
 21
193.5
 31
0.0
  0
LINE
  8
LY_1
  6
CONTINUOUS
 62
     3
  5
1C6
 10
129.425583
 20
198.100006
 30
0.0
 11
113.74791
 21
198.100006
 31
0.0
  0
LINE
  8
LY_1
  6
CONTINUOUS
 62
     3
  5
1C7
 10
111.74791
 20
196.100006
 30
0.0
 11
111.74791
 21
192.800003
 31
0.0
  0
LINE
  8
LY_1
  6
CONTINUOUS
 62
     3
  5
1C8
 10
93.948532
 20
191.800003
 30
0.0
 11
93.368164
 21
191.800003
 31
0.0
  0
LINE
  8
LY_1
  6
CONTINUOUS
 62
     3
  5
1C9
 10
94.255554
 20
193.5
 30
0.0
 11
92.368164
 21
193.5
 31
0.0
  0
LINE
  8
LY_1
  6
CONTINUOUS
 62
     3
  5
1CA
 10
95.509354
 20
198.100006
 30
0.0
 11
94.368164
 21
198.100006
 31
0.0
  0
LINE
  8
LY_1
  6
CONTINUOUS
 62
     3
  5
1CB
 10
131.122101
 20
201.550003
 30
0.0
 11
112.026443
 21
201.550003
 31
0.0
  0
LINE
  8
LY_1
  6
CONTINUOUS
 62
     3
  5
1CC
 10
92.368164
 20
196.100006
 30
0.0
 11
92.368164
 21
192.800003
 31
0.0
  0
LINE
  8
LY_1
  6
CONTINUOUS
 62
     3
  5
1CD
 10
93.408663
 20
187.749962
 30
0.0
 11
93.710499
 21
184.29996
 31
0.0
  0
LINE
  8
LY_1
  6
CONTINUOUS
 62
     3
  5
1CE
 10
80.755671
 20
187.749964
 30
0.0
 11
81.057507
 21
184.299962
 31
0.0
  0
LINE
  8
LY_1
  6
CONTINUOUS
 62
     3
  5
1CF
 10
108.043651
 20
184.300012
 30
0.0
 11
126.098466
 21
179.000015
 31
0.0
  0
LINE
  8
LY_1
  6
CONTINUOUS
 62
     3
  5
1D0
 10
125.820636
 20
184.299872
 30
0.0
 11
126.255621
 21
175.999861
 31
0.0
  0
LINE
  8
LY_1
  6
CONTINUOUS
 62
     3
  5
1D1
 10
131.505646
 20
176.0
 30
0.0
 11
131.505646
 21
164.199997
 31
0.0
  0
LINE
  8
LY_1
  6
CONTINUOUS
 62
     3
  5
1D2
 10
147.355652
 20
195.899994
 30
0.0
 11
147.355652
 21
192.800003
 31
0.0
  0
LINE
  8
LY_1
  6
CONTINUOUS
 62
     3
  5
1D3
 10
148.355652
 20
191.800003
 30
0.0
 11
163.763382
 21
191.800003
 31
0.0
  0
LINE
  8
LY_1
  6
CONTINUOUS
 62
     3
  5
1D4
 10
147.355652
 20
193.5
 30
0.0
 11
164.763382
 21
193.5
 31
0.0
  0
LINE
  8
LY_1
  6
CONTINUOUS
 62
     3
  5
1D5
 10
147.085709
 20
198.100006
 30
0.0
 11
162.763382
 21
198.100006
 31
0.0
  0
LINE
  8
LY_1
  6
CONTINUOUS
 62
     3
  5
1D6
 10
164.763382
 20
196.100006
 30
0.0
 11
164.763382
 21
192.800003
 31
0.0
  0
LINE
  8
LY_1
  6
CONTINUOUS
 62
     3
  5
1D7
 10
182.562744
 20
191.800003
 30
0.0
 11
183.143066
 21
191.800003
 31
0.0
  0
LINE
  8
LY_1
  6
CONTINUOUS
 62
     3
  5
1D8
 10
182.255859
 20
193.5
 30
0.0
 11
184.143066
 21
193.5
 31
0.0
  0
LINE
  8
LY_1
  6
CONTINUOUS
 62
     3
  5
1D9
 10
181.001953
 20
198.100006
 30
0.0
 11
182.143066
 21
198.100006
 31
0.0
  0
LINE
  8
LY_1
  6
CONTINUOUS
 62
     3
  5
1DA
 10
145.389191
 20
201.550003
 30
0.0
 11
164.484848
 21
201.550003
 31
0.0
  0
LINE
  8
LY_1
  6
CONTINUOUS
 62
     3
  5
1DB
 10
184.143066
 20
196.100006
 30
0.0
 11
184.143066
 21
192.800003
 31
0.0
  0
LINE
  8
LY_1
  6
CONTINUOUS
 62
     3
  5
1DC
 10
183.102654
 20
187.75008
 30
0.0
 11
182.800818
 21
184.300078
 31
0.0
  0
LINE
  8
LY_1
  6
CONTINUOUS
 62
     3
  5
1DD
 10
195.755829
 20
187.750066
 30
0.0
 11
195.453993
 21
184.300064
 31
0.0
  0
LINE
  8
LY_1
  6
CONTINUOUS
 62
     3
  5
1DE
 10
80.755646
 20
187.75
 30
0.0
 11
195.755615
 21
187.75
 31
0.0
  0
LINE
  8
LY_1
  6
CONTINUOUS
 62
     3
  5
1DF
 10
168.46741
 20
184.299905
 30
0.0
 11
150.41277
 21
178.99996
 31
0.0
  0
LINE
  8
LY_1
  6
CONTINUOUS
 62
     3
  5
1E0
 10
150.690599
 20
184.300133
 30
0.0
 11
150.255613
 21
176.000122
 31
0.0
  0
LINE
  8
LY_1
  6
CONTINUOUS
 62
     3
  5
1E1
 10
81.05748
 20
184.300003
 30
0.0
 11
195.453857
 21
184.300003
 31
0.0
  0
LINE
  8
LY_1
  6
CONTINUOUS
 62
     3
  5
1E2
 10
145.005646
 20
176.0
 30
0.0
 11
145.005646
 21
164.199997
 31
0.0
  0
LINE
  8
LY_1
  6
CONTINUOUS
 62
     3
  5
1E3
 10
126.255646
 20
176.0
 30
0.0
 11
150.255646
 21
176.0
 31
0.0
  0
LINE
  8
LY_1
  6
CONTINUOUS
 62
     3
  5
1E4
 10
121.255646
 20
144.199997
 30
0.0
 11
155.255646
 21
144.199997
 31
0.0
  0
LINE
  8
LY_1
  6
CONTINUOUS
 62
     3
  5
1E5
 10
121.255646
 20
164.199997
 30
0.0
 11
155.255646
 21
164.199997
 31
0.0
  0
LINE
  8
LY_1
  6
CONTINUOUS
 62
     3
  5
1E6
 10
-9.814955
 20
164.199997
 30
0.0
 11
-9.814955
 21
144.199997
 31
0.0
  0
LINE
  8
LY_1
  6
CONTINUOUS
 62
     3
  5
1E7
 10
9.814955
 20
164.199997
 30
0.0
 11
9.814955
 21
144.199997
 31
0.0
  0
LINE
  8
LY_1
  6
CONTINUOUS
 62
     3
  5
1E8
 10
-9.1
 20
195.899994
 30
0.0
 11
-9.1
 21
192.800003
 31
0.0
  0
LINE
  8
LY_1
  6
CONTINUOUS
 62
     3
  5
1E9
 10
-10.1
 20
191.800003
 30
0.0
 11
-25.507736
 21
191.800003
 31
0.0
  0
LINE
  8
LY_1
  6
CONTINUOUS
 62
     3
  5
1EA
 10
-9.1
 20
193.5
 30
0.0
 11
-26.507736
 21
193.5
 31
0.0
  0
LINE
  8
LY_1
  6
CONTINUOUS
 62
     3
  5
1EB
 10
-8.83006
 20
198.100006
 30
0.0
 11
-24.507736
 21
198.100006
 31
0.0
  0
LINE
  8
LY_1
  6
CONTINUOUS
 62
     3
  5
1EC
 10
-26.507736
 20
196.100006
 30
0.0
 11
-26.507736
 21
192.800003
 31
0.0
  0
LINE
  8
LY_1
  6
CONTINUOUS
 62
     3
  5
1ED
 10
-44.307114
 20
191.800003
 30
0.0
 11
-44.887482
 21
191.800003
 31
0.0
  0
LINE
  8
LY_1
  6
CONTINUOUS
 62
     3
  5
1EE
 10
-44.000092
 20
193.5
 30
0.0
 11
-45.887482
 21
193.5
 31
0.0
  0
LINE
  8
LY_1
  6
CONTINUOUS
 62
     3
  5
1EF
 10
-42.746292
 20
198.100006
 30
0.0
 11
-43.887482
 21
198.100006
 31
0.0
  0
LINE
  8
LY_1
  6
CONTINUOUS
 62
     3
  5
1F0
 10
-7.133541
 20
201.550003
 30
0.0
 11
-26.229202
 21
201.550003
 31
0.0
  0
LINE
  8
LY_1
  6
CONTINUOUS
 62
     3
  5
1F1
 10
-45.887482
 20
196.100006
 30
0.0
 11
-45.887482
 21
192.800003
 31
0.0
  0
LINE
  8
LY_1
  6
CONTINUOUS
 62
     3
  5
1F2
 10
-44.847018
 20
187.750019
 30
0.0
 11
-44.545182
 21
184.300017
 31
0.0
  0
LINE
  8
LY_1
  6
CONTINUOUS
 62
     3
  5
1F3
 10
-57.500011
 20
187.750021
 30
0.0
 11
-57.198174
 21
184.300019
 31
0.0
  0
LINE
  8
LY_1
  6
CONTINUOUS
 62
     3
  5
1F4
 10
-30.21203
 20
184.299987
 30
0.0
 11
-12.157215
 21
178.99999
 31
0.0
  0
LINE
  8
LY_1
  6
CONTINUOUS
 62
     3
  5
1F5
 10
-12.434984
 20
184.300002
 30
0.0
 11
-11.999999
 21
175.999992
 31
0.0
  0
LINE
  8
LY_1
  6
CONTINUOUS
 62
     3
  5
1F6
 10
-6.75
 20
176.0
 30
0.0
 11
-6.75
 21
164.199997
 31
0.0
  0
LINE
  8
LY_1
  6
CONTINUOUS
 62
     3
  5
1F7
 10
9.1
 20
195.899994
 30
0.0
 11
9.1
 21
192.800003
 31
0.0
  0
LINE
  8
LY_1
  6
CONTINUOUS
 62
     3
  5
1F8
 10
10.1
 20
191.800003
 30
0.0
 11
25.507736
 21
191.800003
 31
0.0
  0
LINE
  8
LY_1
  6
CONTINUOUS
 62
     3
  5
1F9
 10
9.1
 20
193.5
 30
0.0
 11
26.507736
 21
193.5
 31
0.0
  0
LINE
  8
LY_1
  6
CONTINUOUS
 62
     3
  5
1FA
 10
8.83006
 20
198.100006
 30
0.0
 11
24.507736
 21
198.100006
 31
0.0
  0
LINE
  8
LY_1
  6
CONTINUOUS
 62
     3
  5
1FB
 10
26.507736
 20
196.100006
 30
0.0
 11
26.507736
 21
192.800003
 31
0.0
  0
LINE
  8
LY_1
  6
CONTINUOUS
 62
     3
  5
1FC
 10
44.307114
 20
191.800003
 30
0.0
 11
44.887482
 21
191.800003
 31
0.0
  0
LINE
  8
LY_1
  6
CONTINUOUS
 62
     3
  5
1FD
 10
44.000092
 20
193.5
 30
0.0
 11
45.887482
 21
193.5
 31
0.0
  0
LINE
  8
LY_1
  6
CONTINUOUS
 62
     3
  5
1FE
 10
42.746292
 20
198.100006
 30
0.0
 11
43.887482
 21
198.100006
 31
0.0
  0
LINE
  8
LY_1
  6
CONTINUOUS
 62
     3
  5
1FF
 10
7.133541
 20
201.550003
 30
0.0
 11
26.229202
 21
201.550003
 31
0.0
  0
LINE
  8
LY_1
  6
CONTINUOUS
 62
     3
  5
200
 10
45.887482
 20
196.100006
 30
0.0
 11
45.887482
 21
192.800003
 31
0.0
  0
LINE
  8
LY_1
  6
CONTINUOUS
 62
     3
  5
201
 10
44.847018
 20
187.750019
 30
0.0
 11
44.545182
 21
184.300017
 31
0.0
  0
LINE
  8
LY_1
  6
CONTINUOUS
 62
     3
  5
202
 10
-4.619085
 20
280.129206
 30
0.0
 11
-9.237906
 21
288.129238
 31
0.0
  0
LINE
  8
LY_1
  6
CONTINUOUS
 62
     3
  5
203
 10
9.237321
 20
288.129206
 30
0.0
 11
4.618501
 21
296.129238
 31
0.0
  0
LINE
  8
LY_1
  6
CONTINUOUS
 62
     3
  5
204
 10
-9.237321
 20
288.129206
 30
0.0
 11
-4.618501
 21
296.129238
 31
0.0
  0
LINE
  8
LY_1
  6
CONTINUOUS
 62
     3
  5
205
 10
4.619085
 20
280.129206
 30
0.0
 11
9.237906
 21
288.129238
 31
0.0
  0
LINE
  8
LY_1
  6
CONTINUOUS
 62
     3
  5
206
 10
-4.618802
 20
296.128662
 30
0.0
 11
4.618802
 21
296.128662
 31
0.0
  0
LINE
  8
LY_1
  6
CONTINUOUS
 62
     3
  5
207
 10
-4.618802
 20
280.128662
 30
0.0
 11
4.618802
 21
280.128662
 31
0.0
  0
LINE
  8
LY_1
  6
CONTINUOUS
 62
     3
  5
208
 10
-7.568559
 20
272.351996
 30
0.0
 11
-6.572076
 21
254.42424
 31
0.0
  0
LINE
  8
LY_1
  6
CONTINUOUS
 62
     3
  5
209
 10
7.568615
 20
272.351993
 30
0.0
 11
6.572132
 21
254.424237
 31
0.0
  0
LINE
  8
LY_1
  6
CONTINUOUS
 62
     3
  5
20A
 10
-15.778795
 20
295.69942
 30
0.0
 11
-33.706123
 21
294.702961
 31
0.0
  0
LINE
  8
LY_1
  6
CONTINUOUS
 62
     3
  5
20B
 10
-15.778684
 20
280.562465
 30
0.0
 11
-33.706089
 21
281.558928
 31
0.0
  0
LINE
  8
LY_1
  6
CONTINUOUS
 62
     3
  5
20C
 10
7.568524
 20
303.909648
 30
0.0
 11
6.57206
 21
321.837054
 31
0.0
  0
LINE
  8
LY_1
  6
CONTINUOUS
 62
     3
  5
20D
 10
-7.568463
 20
303.909645
 30
0.0
 11
-6.571999
 21
321.837051
 31
0.0
  0
LINE
  8
LY_1
  6
CONTINUOUS
 62
     3
  5
20E
 10
15.778714
 20
280.562467
 30
0.0
 11
33.706135
 21
281.558931
 31
0.0
  0
LINE
  8
LY_1
  6
CONTINUOUS
 62
     3
  5
20F
 10
15.778861
 20
295.699416
 30
0.0
 11
33.706184
 21
294.702957
 31
0.0
  0
LINE
  8
LY_1
  6
CONTINUOUS
 62
     3
  5
210
 10
42.701896
 20
279.729008
 30
0.0
 11
45.887687
 21
279.729008
 31
0.0
  0
LINE
  8
LY_1
  6
CONTINUOUS
 62
     3
  5
211
 10
36.134433
 20
263.873416
 30
0.0
 11
38.386955
 21
261.620894
 31
0.0
  0
LINE
  8
LY_1
  6
CONTINUOUS
 62
     3
  5
212
 10
24.255351
 20
251.994335
 30
0.0
 11
26.508045
 21
249.741641
 31
0.0
  0
LINE
  8
LY_1
  6
CONTINUOUS
 62
     3
  5
213
 10
8.399899
 20
245.426758
 30
0.0
 11
8.399899
 21
242.241211
 31
0.0
  0
LINE
  8
LY_1
  6
CONTINUOUS
 62
     3
  5
214
 10
-8.399655
 20
245.426757
 30
0.0
 11
-8.399655
 21
242.240966
 31
0.0
  0
LINE
  8
LY_1
  6
CONTINUOUS
 62
     3
  5
215
 10
-24.255145
 20
251.994193
 30
0.0
 11
-26.507667
 21
249.741671
 31
0.0
  0
LINE
  8
LY_1
  6
CONTINUOUS
 62
     3
  5
216
 10
-36.134251
 20
263.873251
 30
0.0
 11
-38.386945
 21
261.620557
 31
0.0
  0
LINE
  8
LY_1
  6
CONTINUOUS
 62
     3
  5
217
 10
-42.701859
 20
279.72876
 30
0.0
 11
-45.887405
 21
279.72876
 31
0.0
  0
LINE
  8
LY_1
  6
CONTINUOUS
 62
     3
  5
218
 10
-42.701884
 20
296.528317
 30
0.0
 11
-45.887675
 21
296.528316
 31
0.0
  0
LINE
  8
LY_1
  6
CONTINUOUS
 62
     3
  5
219
 10
-36.133527
 20
312.382865
 30
0.0
 11
-38.385973
 21
314.635312
 31
0.0
  0
LINE
  8
LY_1
  6
CONTINUOUS
 62
     3
  5
21A
 10
-24.254439
 20
324.261979
 30
0.0
 11
-26.507058
 21
326.514597
 31
0.0
  0
LINE
  8
LY_1
  6
CONTINUOUS
 62
     3
  5
21B
 10
-8.399906
 20
330.830566
 30
0.0
 11
-8.399906
 21
334.016113
 31
0.0
  0
LINE
  8
LY_1
  6
CONTINUOUS
 62
     3
  5
21C
 10
8.399685
 20
330.830567
 30
0.0
 11
8.399684
 21
334.016358
 31
0.0
  0
LINE
  8
LY_1
  6
CONTINUOUS
 62
     3
  5
21D
 10
24.254271
 20
324.262121
 30
0.0
 11
26.506718
 21
326.514567
 31
0.0
  0
LINE
  8
LY_1
  6
CONTINUOUS
 62
     3
  5
21E
 10
36.13336
 20
312.383009
 30
0.0
 11
38.385979
 21
314.635628
 31
0.0
  0
LINE
  8
LY_1
  6
CONTINUOUS
 62
     3
  5
21F
 10
42.701813
 20
296.528564
 30
0.0
 11
45.887512
 21
296.528564
 31
0.0
  0
LINE
  8
LY_1
  6
CENTER
 62
   110
  5
220
 10
-62.5
 20
288.128662
 30
0.0
 11
62.5
 21
288.128662
 31
0.0
  0
LINE
  8
LY_1
  6
CONTINUOUS
 62
     3
  5
221
 10
57.500011
 20
187.750021
 30
0.0
 11
57.198174
 21
184.300019
 31
0.0
  0
LINE
  8
LY_1
  6
CONTINUOUS
 62
     3
  5
222
 10
-57.5
 20
187.75
 30
0.0
 11
57.5
 21
187.75
 31
0.0
  0
LINE
  8
LY_1
  6
CONTINUOUS
 62
     3
  5
223
 10
30.21203
 20
184.299987
 30
0.0
 11
12.157215
 21
178.99999
 31
0.0
  0
LINE
  8
LY_1
  6
CONTINUOUS
 62
     3
  5
224
 10
12.434984
 20
184.300002
 30
0.0
 11
11.999999
 21
175.999992
 31
0.0
  0
LINE
  8
LY_1
  6
CONTINUOUS
 62
     3
  5
225
 10
-57.198166
 20
184.300003
 30
0.0
 11
57.198166
 21
184.300003
 31
0.0
  0
LINE
  8
LY_1
  6
CONTINUOUS
 62
     3
  5
226
 10
6.75
 20
176.0
 30
0.0
 11
6.75
 21
164.199997
 31
0.0
  0
LINE
  8
LY_1
  6
CONTINUOUS
 62
     3
  5
227
 10
-12.0
 20
176.0
 30
0.0
 11
12.0
 21
176.0
 31
0.0
  0
LINE
  8
LY_1
  6
CONTINUOUS
 62
   110
  5
228
 10
-13.65
 20
144.199997
 30
0.0
 11
-13.65
 21
134.5
 31
0.0
  0
LINE
  8
LY_1
  6
CONTINUOUS
 62
     3
  5
229
 10
18.600006
 20
164.199997
 30
0.0
 11
18.600006
 21
144.199997
 31
0.0
  0
LINE
  8
LY_1
  6
CONTINUOUS
 62
     3
  5
22A
 10
-18.600006
 20
164.199997
 30
0.0
 11
-18.600006
 21
144.199997
 31
0.0
  0
LINE
  8
LY_1
  6
CONTINUOUS
 62
     3
  5
22B
 10
-18.600006
 20
144.199997
 30
0.0
 11
18.600006
 21
144.199997
 31
0.0
  0
LINE
  8
LY_1
  6
CONTINUOUS
 62
     3
  5
22C
 10
-18.600006
 20
164.199997
 30
0.0
 11
18.600006
 21
164.199997
 31
0.0
  0
LINE
  8
LY_1
  6
CONTINUOUS
 62
   110
  5
22D
 10
13.65
 20
144.199997
 30
0.0
 11
13.65
 21
134.5
 31
0.0
  0
LINE
  8
LY_1
  6
CENTER
 62
   110
  5
22E
 10
0.0
 20
350.628662
 30
0.0
 11
0.0
 21
225.628708
 31
0.0
  0
LINE
  8
LY_1
  6
CONTINUOUS
 62
     3
  5
22F
 10
20.20726
 20
106.5
 30
0.0
 11
20.20726
 21
95.5
 31
0.0
  0
LINE
  8
LY_1
  6
CONTINUOUS
 62
     3
  5
230
 10
-20.20726
 20
106.5
 30
0.0
 11
-20.20726
 21
95.5
 31
0.0
  0
LINE
  8
LY_1
  6
CONTINUOUS
 62
     3
  5
231
 10
-39.199994
 20
95.499994
 30
0.0
 11
-46.499999
 21
93.970511
 31
0.0
  0
LINE
  8
LY_1
  6
CONTINUOUS
 62
     3
  5
232
 10
-39.199997
 20
106.5
 30
0.0
 11
-39.199997
 21
95.5
 31
0.0
  0
LINE
  8
LY_1
  6
CONTINUOUS
 62
     3
  5
233
 10
-14.5
 20
144.199997
 30
0.0
 11
-14.5
 21
134.304855
 31
0.0
  0
LINE
  8
LY_1
  6
CONTINUOUS
 62
     3
  5
234
 10
39.199994
 20
95.499994
 30
0.0
 11
46.499999
 21
93.970511
 31
0.0
  0
LINE
  8
LY_1
  6
CONTINUOUS
 62
     3
  5
235
 10
39.199997
 20
106.5
 30
0.0
 11
39.199997
 21
95.499985
 31
0.0
  0
LINE
  8
LY_1
  6
CONTINUOUS
 62
     3
  5
236
 10
14.5
 20
144.199997
 30
0.0
 11
14.5
 21
134.304855
 31
0.0
  0
LINE
  8
LY_1
  6
CONTINUOUS
 62
     3
  5
237
 10
-14.50068
 20
134.5
 30
0.0
 11
14.50068
 21
134.5
 31
0.0
  0
LINE
  8
LY_1
  6
CONTINUOUS
 62
     3
  5
238
 10
-39.199997
 20
106.5
 30
0.0
 11
39.199997
 21
106.5
 31
0.0
  0
LINE
  8
LY_1
  6
CONTINUOUS
 62
     3
  5
239
 10
-39.199997
 20
95.5
 30
0.0
 11
39.199997
 21
95.5
 31
0.0
  0
LINE
  8
LY_1
  6
CONTINUOUS
 62
     3
  5
23A
 10
-46.5
 20
93.970505
 30
0.0
 11
-46.5
 21
84.5
 31
0.0
  0
LINE
  8
LY_1
  6
CONTINUOUS
 62
     3
  5
23B
 10
40.5
 20
66.93782
 30
0.0
 11
40.5
 21
59.899994
 31
0.0
  0
LINE
  8
LY_1
  6
CONTINUOUS
 62
     3
  5
23C
 10
24.0
 20
68.0
 30
0.0
 11
24.0
 21
30.037308
 31
0.0
  0
LINE
  8
LY_1
  6
CONTINUOUS
 62
     3
  5
23D
 10
25.499997
 20
61.164311
 30
0.0
 11
44.500002
 21
72.133969
 31
0.0
  0
LINE
  8
LY_1
  6
CONTINUOUS
 62
     3
  5
23E
 10
-44.80278
 20
73.0
 30
0.0
 11
44.80278
 21
73.0
 31
0.0
  0
LINE
  8
LY_1
  6
CONTINUOUS
 62
     3
  5
23F
 10
46.0
 20
84.5
 30
0.0
 11
46.0
 21
74.73204
 31
0.0
  0
LINE
  8
LY_1
  6
CONTINUOUS
 62
     3
  5
240
 10
46.5
 20
93.970505
 30
0.0
 11
46.5
 21
84.5
 31
0.0
  0
LINE
  8
LY_1
  6
CONTINUOUS
 62
     3
  5
241
 10
-46.5
 20
84.5
 30
0.0
 11
46.5
 21
84.5
 31
0.0
  0
LINE
  8
LY_1
  6
CONTINUOUS
 62
     3
  5
242
 10
-46.5
 20
89.5
 30
0.0
 11
46.5
 21
89.5
 31
0.0
  0
LINE
  8
LY_1
  6
CONTINUOUS
 62
     3
  5
243
 10
33.0
 20
54.899994
 30
0.0
 11
46.0
 21
54.899994
 31
0.0
  0
LINE
  8
LY_1
  6
CONTINUOUS
 62
     3
  5
244
 10
-12.459936
 20
-43.0
 30
0.0
 11
-12.548166
 21
-43.0
 31
0.0
  0
LINE
  8
LY_1
  6
CONTINUOUS
 62
     3
  5
245
 10
-30.310404
 20
-50.232143
 30
0.0
 11
-33.000004
 21
-56.000008
 31
0.0
  0
LINE
  8
LY_1
  6
CONTINUOUS
 62
     3
  5
246
 10
-33.0
 20
-56.0
 30
0.0
 11
-46.0
 21
-56.0
 31
0.0
  0
LINE
  8
LY_1
  6
CONTINUOUS
 62
     3
  5
247
 10
12.459936
 20
-43.0
 30
0.0
 11
12.548166
 21
-43.0
 31
0.0
  0
LINE
  8
LY_1
  6
CONTINUOUS
 62
     3
  5
248
 10
-27.591476
 20
-48.5
 30
0.0
 11
27.591476
 21
-48.5
 31
0.0
  0
LINE
  8
LY_1
  6
CONTINUOUS
 62
     3
  5
249
 10
30.310404
 20
-50.232143
 30
0.0
 11
33.000004
 21
-56.000008
 31
0.0
  0
LINE
  8
LY_1
  6
CONTINUOUS
 62
     3
  5
24A
 10
33.0
 20
-56.0
 30
0.0
 11
46.0
 21
-56.0
 31
0.0
  0
LINE
  8
LY_1
  6
CONTINUOUS
 62
     3
  5
24B
 10
33.0
 20
54.899994
 30
0.0
 11
33.0
 21
-56.0
 31
0.0
  0
LINE
  8
LY_1
  6
CONTINUOUS
 62
     3
  5
24C
 10
46.0
 20
54.899994
 30
0.0
 11
46.0
 21
-56.0
 31
0.0
  0
LINE
  8
LY_1
  6
CENTER
 62
   110
  5
24D
 10
0.0
 20
210.0
 30
0.0
 11
0.0
 21
-49.5
 31
0.0
  0
LINE
  8
LY_1
  6
CENTER
 62
   110
  5
24E
 10
-51.0
 20
0.0
 30
0.0
 11
51.0
 21
0.0
 31
0.0
  0
ENDSEC
  0
EOF
