  0
SECTION
  2
HEADER
  9
$ACADVER
  1
AC1009
  9
$DWGCODEPAGE
  3
dos932
  9
$INSBASE
 10
0.0
 20
0.0
 30
0.0
  9
$EXTMIN
 10
-30.000015
 20
-64.364703
 30
0.0
  9
$EXTMAX
 10
104.522508
 20
154.530701
 30
0.0
  9
$LIMMIN
 10
-30.000015
 20
-64.364703
  9
$LIMMAX
 10
104.522508
 20
154.530701
  9
$ORTHOMODE
 70
     0
  9
$REGENMODE
 70
     1
  9
$FILLMODE
 70
     1
  9
$QTEXTMODE
 70
     0
  9
$MIRRTEXT
 70
     1
  9
$DRAGMODE
 70
     2
  9
$LTSCALE
 40
1.0
  9
$OSMODE
 70
     0
  9
$ATTMODE
 70
     1
  9
$TEXTSIZE
 40
3.3
  9
$TRACEWID
 40
0.05
  9
$TEXTSTYLE
  7
MX_NOTE_STANDARD
  9
$CLAYER
  8
LY_1
  9
$CELTYPE
  6
CONTINUOUS
  9
$CECOLOR
 62
   256
  9
$DIMSCALE
 40
1.0
  9
$DIMASZ
 40
2.5
  9
$DIMEXO
 40
0.0
  9
$DIMDLI
 40
3.75
  9
$DIMRND
 40
0.0
  9
$DIMDLE
 40
0.0
  9
$DIMEXE
 40
1.1938
  9
$DIMTP
 40
0.0
  9
$DIMTM
 40
0.0
  9
$DIMTXT
 40
3.3
  9
$DIMCEN
 40
2.5
  9
$DIMTSZ
 40
0.0
  9
$DIMTOL
 70
     0
  9
$DIMLIM
 70
     0
  9
$DIMTIH
 70
     0
  9
$DIMTOH
 70
     0
  9
$DIMSE1
 70
     0
  9
$DIMSE2
 70
     0
  9
$DIMTAD
 70
     1
  9
$DIMZIN
 70
     8
  9
$DIMBLK
  1

  9
$DIMASO
 70
     1
  9
$DIMSHO
 70
     1
  9
$DIMPOST
  1

  9
$DIMAPOST
  1

  9
$DIMALT
 70
     0
  9
$DIMALTD
 70
     4
  9
$DIMALTF
 40
0.03937
  9
$DIMLFAC
 40
1.0
  9
$DIMTOFL
 70
     1
  9
$DIMTVP
 40
0.0
  9
$DIMTIX
 70
     0
  9
$DIMSOXD
 70
     0
  9
$DIMSAH
 70
     1
  9
$DIMBLK1
  1
_OPEN30
  9
$DIMBLK2
  1
_OPEN30
  9
$DIMSTYLE
  2
MXDIMSTYLE
  9
$DIMCLRD
 70
     0
  9
$DIMCLRE
 70
     0
  9
$DIMCLRT
 70
     0
  9
$DIMTFAC
 40
1.0
  9
$DIMGAP
 40
1.0
  9
$LUNITS
 70
     2
  9
$LUPREC
 70
     4
  9
$AXISMODE
 70
     0
  9
$AXISUNIT
 10
0.0
 20
0.0
  9
$SKETCHINC
 40
0.1
  9
$FILLETRAD
 40
0.0
  9
$AUNITS
 70
     0
  9
$AUPREC
 70
     0
  9
$MENU
  1
acad
  9
$ELEVATION
 40
0.0
  9
$PELEVATION
 40
0.0
  9
$THICKNESS
 40
0.0
  9
$LIMCHECK
 70
     0
  9
$BLIPMODE
 70
     1
  9
$CHAMFERA
 40
0.0
  9
$CHAMFERB
 40
0.0
  9
$SKPOLY
 70
     0
  9
$TDCREATE
 40
2454342.388819445
  9
$TDUPDATE
 40
2454342.388819445
  9
$TDINDWG
 40
0.0000000000
  9
$TDUSRTIMER
 40
0.0000000000
  9
$USRTIMER
 70
     1
  9
$ANGBASE
 50
0.0
  9
$ANGDIR
 70
     0
  9
$PDMODE
 70
     0
  9
$PDSIZE
 40
0.0
  9
$PLINEWID
 40
0.0
  9
$COORDS
 70
     1
  9
$SPLFRAME
 70
     0
  9
$SPLINETYPE
 70
     6
  9
$SPLINESEGS
 70
     8
  9
$ATTDIA
 70
     0
  9
$ATTREQ
 70
     1
  9
$HANDLING
 70
     1
  9
$HANDSEED
  5
24B
  9
$SURFTAB1
 70
     6
  9
$SURFTAB2
 70
     6
  9
$SURFTYPE
 70
     6
  9
$SURFU
 70
     6
  9
$SURFV
 70
     6
  9
$UCSNAME
  2

  9
$UCSORG
 10
0.0
 20
0.0
 30
0.0
  9
$UCSXDIR
 10
1.0
 20
0.0
 30
0.0
  9
$UCSYDIR
 10
0.0
 20
1.0
 30
0.0
  9
$PUCSNAME
  2

  9
$PUCSORG
 10
0.0
 20
0.0
 30
0.0
  9
$PUCSXDIR
 10
1.0
 20
0.0
 30
0.0
  9
$PUCSYDIR
 10
0.0
 20
1.0
 30
0.0
  9
$USERI1
 70
     0
  9
$USERI2
 70
     0
  9
$USERI3
 70
     0
  9
$USERI4
 70
     0
  9
$USERI5
 70
     0
  9
$USERR1
 40
0.0
  9
$USERR2
 40
0.0
  9
$USERR3
 40
0.0
  9
$USERR4
 40
0.0
  9
$USERR5
 40
0.0
  9
$WORLDVIEW
 70
     1
  9
$SHADEDGE
 70
     3
  9
$SHADEDIF
 70
    70
  9
$TILEMODE
 70
     1
  9
$MAXACTVP
 70
    16
  9
$PINSBASE
 10
0.0
 20
0.0
 30
0.0
  9
$PLIMCHECK
 70
     0
  9
$PEXTMIN
 10
1.000000E+20
 20
1.000000E+20
 30
1.000000E+20
  9
$PEXTMAX
 10
-1.000000E+20
 20
-1.000000E+20
 30
-1.000000E+20
  9
$PLIMMIN
 10
0.0
 20
0.0
  9
$PLIMMAX
 10
12.0
 20
9.0
  9
$UNITMODE
 70
     0
  9
$VISRETAIN
 70
     0
  9
$PLINEGEN
 70
     1
  9
$PSLTSCALE
 70
     0
  9
$TREEDEPTH
 70
  3020
  0
ENDSEC
  0
SECTION
  2
TABLES
  0
TABLE
  2
VPORT
 70
     1
  0
VPORT
  2
*ACTIVE
 70
     0
 10
0.0
 20
0.0
 11
1.0
 21
1.0
 12
37.261246
 22
45.082999
 13
0.0
 23
0.0
 14
1.0
 24
1.0
 15
0.0
 25
0.0
 16
0.0
 26
0.0
 36
1.0
 17
0.0
 27
0.0
 37
0.0
 40
221.084357
 41
1.732051
 42
50.0
 43
0.0
 44
0.0
 50
0.0
 51
0.0
 71
     0
 72
   100
 73
     1
 74
     1
 75
     0
 76
     0
 77
     0
 78
     0
  0
ENDTAB
  0
TABLE
  2
LTYPE
 70
     3
  0
LTYPE
  2
CONTINUOUS
 70
    64
  3
Solid line
 72
    65
 73
     0
 40
0.0
  0
LTYPE
  2
PHANTOM
 70
    64
  3
Phantom ______  __  __  ______  __  __  ______
 72
    65
 73
     6
 40
63.5
 49
31.75
 49
-6.35
 49
6.35
 49
-6.35
 49
6.35
 49
-6.35
  0
LTYPE
  2
CENTER
 70
    64
  3
Center ____ _ ____ _ ____ _ ____ _ ____ _ ____
 72
    65
 73
     4
 40
50.8
 49
31.75
 49
-6.35
 49
6.35
 49
-6.35
  0
ENDTAB
  0
TABLE
  2
LAYER
 70
     3
  0
LAYER
  2
0
 70
     0
 62
     7
  6
CONTINUOUS
  0
LAYER
  2
LY_1
 70
     0
 62
     7
  6
CONTINUOUS
  0
LAYER
  2
DEFPOINTS
 70
     0
 62
     7
  6
CONTINUOUS
  0
ENDTAB
  0
TABLE
  2
STYLE
 70
     2
  0
STYLE
  2
MX_NOTE_STANDARD
 70
     0
 40
0.0
 41
1.0
 50
0.0
 71
     0
 42
3.3
  3
txt.shx
  4
extfont.shx
  0
STYLE
  2
MX_DIMTXSTY_2
 70
     0
 40
0.0
 41
0.85
 50
0.0
 71
     0
 42
3.3
  3
txt.shx
  4
extfont.shx
  0
ENDTAB
  0
TABLE
  2
VIEW
 70
     0
  0
ENDTAB
  0
TABLE
  2
UCS
 70
     0
  0
ENDTAB
  0
TABLE
  2
APPID
 70
     1
  0
APPID
  2
ACAD
 70
     0
  0
ENDTAB
  0
TABLE
  2
DIMSTYLE
 70
     1
  0
DIMSTYLE
  2
MXDIMSTYLE
 70
     0
  3

  4

  5

  6
_OPEN30
  7
_OPEN30
 40
1.0
 41
2.5
 42
0.0
 43
3.75
 44
1.1938
 45
0.0
 46
0.0
 47
0.0
 48
0.0
 71
     0
 72
     0
 73
     0
 74
     0
 75
     0
 76
     0
 77
     1
 78
     8
140
3.3
141
2.5
142
0.0
143
0.03937
144
1.0
145
0.0
146
1.0
147
1.0
170
     0
171
     4
172
     1
173
     1
174
     0
175
     0
176
     0
177
     0
178
     0
  0
ENDTAB
  0
ENDSEC
  0
SECTION
  2
BLOCKS
  0
BLOCK
  8
0
  6
BYBLOCK
 62
     0
  5
20
  2
_OPEN30
 70
     2
 10
0.0
 20
0.0
 30
0.0
  3
_OPEN30
  0
LINE
  8
0
  6
BYBLOCK
 62
     0
  5
21
 10
-1.0
 20
0.267949
 30
0.0
 11
0.0
 21
0.0
 31
0.0
  0
LINE
  8
0
  6
BYBLOCK
 62
     0
  5
22
 10
0.0
 20
0.0
 30
0.0
 11
-1.0
 21
-0.267949
 31
0.0
  0
LINE
  8
0
  6
BYBLOCK
 62
     0
  5
23
 10
0.0
 20
0.0
 30
0.0
 11
-1.0
 21
0.0
 31
0.0
  0
ENDBLK
  8
0
  6
BYBLOCK
 62
     0
  5
24
  0
BLOCK
  8
0
  6
BYBLOCK
 62
     0
  5
26
  2
*D1
 70
     1
 10
0.0
 20
0.0
 30
0.0
  3
*D1
  0
LINE
  8
0
  6
CONTINUOUS
 62
     7
  5
27
 10
33.000015
 20
77.0
 30
0.0
 11
33.000015
 21
0.0
 31
0.0
  0
LINE
  8
0
  6
CONTINUOUS
 62
     7
  5
28
 10
18.719406
 20
77.0
 30
0.0
 11
34.193802
 21
77.0
 31
0.0
  0
LINE
  8
0
  6
CONTINUOUS
 62
     7
  5
29
 10
24.0
 20
0.0
 30
0.0
 11
34.193802
 21
0.0
 31
0.0
  0
INSERT
  8
0
  6
CONTINUOUS
 62
     7
  5
30
  2
_OPEN
 10
33.000015
 20
77.0
 30
0.0
 41
2.19
 42
2.19
 50
90.0
 43
2.19
  0
INSERT
  8
0
  6
CONTINUOUS
 62
     7
  5
31
  2
_OPEN
 10
33.000015
 20
0.0
 30
0.0
 41
2.19
 42
2.19
 50
270.0
 43
2.19
  0
TEXT
  8
0
  6
CONTINUOUS
 62
     7
  5
33
 10
32.000015
 20
36.273346
 30
0.0
 40
3.3
  1
73
 50
90.0
 41
0.98743
  7
MX_DIMTXSTY_2
 11
30.350015
 21
36.273346
 31
0.0
 73
     2
  0
POINT
  8
DEFPOINTS
  6
CONTINUOUS
 62
     0
  5
34
 10
18.719406
 20
77.0
 30
0.0
  0
POINT
  8
DEFPOINTS
  6
CONTINUOUS
 62
     0
  5
35
 10
24.0
 20
0.0
 30
0.0
  0
POINT
  8
DEFPOINTS
  6
CONTINUOUS
 62
     0
  5
36
 10
33.000015
 20
0.0
 30
0.0
  0
ENDBLK
  8
0
  6
BYBLOCK
 62
     0
  5
37
  0
BLOCK
  8
0
  6
BYBLOCK
 62
     0
  5
2B
  2
_OPEN
 70
     2
 10
0.0
 20
0.0
 30
0.0
  3
_OPEN
  0
LINE
  8
0
  6
BYBLOCK
 62
     0
  5
2C
 10
-1.0
 20
0.166667
 30
0.0
 11
0.0
 21
0.0
 31
0.0
  0
LINE
  8
0
  6
BYBLOCK
 62
     0
  5
2D
 10
0.0
 20
0.0
 30
0.0
 11
-1.0
 21
-0.166667
 31
0.0
  0
LINE
  8
0
  6
BYBLOCK
 62
     0
  5
2E
 10
0.0
 20
0.0
 30
0.0
 11
-1.0
 21
0.0
 31
0.0
  0
ENDBLK
  8
0
  6
BYBLOCK
 62
     0
  5
2F
  0
BLOCK
  8
0
  6
BYBLOCK
 62
     0
  5
3A
  2
*D3
 70
     1
 10
0.0
 20
0.0
 30
0.0
  3
*D3
  0
LINE
  8
0
  6
CONTINUOUS
 62
     7
  5
3B
 10
19.0
 20
-27.25
 30
0.0
 11
-19.0
 21
-27.25
 31
0.0
  0
LINE
  8
0
  6
CONTINUOUS
 62
     7
  5
3C
 10
19.0
 20
-12.9
 30
0.0
 11
19.0
 21
-28.443787
 31
0.0
  0
LINE
  8
0
  6
CONTINUOUS
 62
     7
  5
3D
 10
-19.0
 20
-12.9
 30
0.0
 11
-19.0
 21
-28.443787
 31
0.0
  0
INSERT
  8
0
  6
CONTINUOUS
 62
     7
  5
3E
  2
_OPEN
 10
19.0
 20
-27.25
 30
0.0
 41
2.19
 42
2.19
 43
2.19
  0
INSERT
  8
0
  6
CONTINUOUS
 62
     7
  5
3F
  2
_OPEN
 10
-19.0
 20
-27.25
 30
0.0
 41
2.19
 42
2.19
 50
180.0
 43
2.19
  0
TEXT
  8
0
  6
CONTINUOUS
 62
     7
  5
40
 10
-2.226654
 20
-26.25
 30
0.0
 40
3.3
  1
38
 41
0.98743
  7
MX_DIMTXSTY_2
 11
-2.226654
 21
-24.6
 31
0.0
 73
     2
  0
POINT
  8
DEFPOINTS
  6
CONTINUOUS
 62
     0
  5
41
 10
19.0
 20
-12.9
 30
0.0
  0
POINT
  8
DEFPOINTS
  6
CONTINUOUS
 62
     0
  5
42
 10
-19.0
 20
-12.9
 30
0.0
  0
POINT
  8
DEFPOINTS
  6
CONTINUOUS
 62
     0
  5
43
 10
-19.0
 20
-27.25
 30
0.0
  0
ENDBLK
  8
0
  6
BYBLOCK
 62
     0
  5
44
  0
BLOCK
  8
0
  6
BYBLOCK
 62
     0
  5
47
  2
*D4
 70
     1
 10
0.0
 20
0.0
 30
0.0
  3
*D4
  0
LINE
  8
0
  6
CONTINUOUS
 62
     7
  5
48
 10
-24.999985
 20
90.0
 30
0.0
 11
25.000015
 21
90.0
 31
0.0
  0
LINE
  8
0
  6
CONTINUOUS
 62
     7
  5
49
 10
-24.999985
 20
67.699997
 30
0.0
 11
-24.999985
 21
91.193787
 31
0.0
  0
LINE
  8
0
  6
CONTINUOUS
 62
     7
  5
4A
 10
25.000015
 20
67.699997
 30
0.0
 11
25.000015
 21
91.193787
 31
0.0
  0
INSERT
  8
0
  6
CONTINUOUS
 62
     7
  5
4B
  2
_OPEN
 10
-24.999985
 20
90.0
 30
0.0
 41
2.19
 42
2.19
 50
180.0
 43
2.19
  0
INSERT
  8
0
  6
CONTINUOUS
 62
     7
  5
4C
  2
_OPEN
 10
25.000015
 20
90.0
 30
0.0
 41
2.19
 42
2.19
 43
2.19
  0
TEXT
  8
0
  6
CONTINUOUS
 62
     7
  5
4D
 10
-3.607164
 20
91.0
 30
0.0
 40
3.3
  1
%%c50
 41
0.995329
  7
MX_DIMTXSTY_2
 11
-3.607164
 21
92.65
 31
0.0
 73
     2
  0
POINT
  8
DEFPOINTS
  6
CONTINUOUS
 62
     0
  5
4E
 10
-24.999985
 20
67.699997
 30
0.0
  0
POINT
  8
DEFPOINTS
  6
CONTINUOUS
 62
     0
  5
4F
 10
25.000015
 20
67.699997
 30
0.0
  0
POINT
  8
DEFPOINTS
  6
CONTINUOUS
 62
     0
  5
50
 10
25.000015
 20
90.0
 30
0.0
  0
ENDBLK
  8
0
  6
BYBLOCK
 62
     0
  5
51
  0
ENDSEC
  0
SECTION
  2
ENTITIES
  0
DIMENSION
  8
LY_1
  6
CONTINUOUS
 62
     7
  5
38
  2
*D1
 10
33.000015
 20
0.0
 30
0.0
 11
33.000015
 21
38.5
 31
0.0
 70
   128
  1
73
 13
18.719406
 23
77.0
 33
0.0
 14
24.0
 24
0.0
 34
0.0
 50
90.0
  3
MXDIMSTYLE
1001
ACAD
1000
DSTYLE
1002
{
1070
     6
1000
_OPEN
1070
     7
1000
_OPEN
1070
    41
1040
2.19
1070
    44
1040
1.193787
1070
    78
1070
     0
1070
   271
1070
     0
1070
   340
1005
32
1002
}
  0
DIMENSION
  8
LY_1
  6
CONTINUOUS
 62
     7
  5
45
  2
*D3
 10
-19.0
 20
-27.25
 30
0.0
 11
0.0
 21
-27.25
 31
0.0
 70
   128
  1
<>
 13
19.0
 23
-12.9
 33
0.0
 14
-19.0
 24
-12.9
 34
0.0
  3
MXDIMSTYLE
1001
ACAD
1000
DSTYLE
1002
{
1070
     6
1000
_OPEN
1070
     7
1000
_OPEN
1070
    41
1040
2.19
1070
    44
1040
1.193787
1070
   271
1070
     0
1070
   284
1070
     8
1070
   340
1005
32
1002
}
  0
DIMENSION
  8
LY_1
  6
CONTINUOUS
 62
     7
  5
52
  2
*D4
 10
25.000015
 20
90.0
 30
0.0
 11
0.000015
 21
90.0
 31
0.0
 70
   128
  1
%%c<>
 13
-24.999985
 23
67.699997
 33
0.0
 14
25.000015
 24
67.699997
 34
0.0
  3
MXDIMSTYLE
1001
ACAD
1000
DSTYLE
1002
{
1070
     6
1000
_OPEN
1070
     7
1000
_OPEN
1070
    41
1040
2.19
1070
    44
1040
1.193787
1070
   271
1070
     0
1070
   284
1070
     8
1070
   340
1005
32
1002
}
  0
TEXT
  8
LY_1
  6
CONTINUOUS
 62
     7
  5
53
 10
-26.067536
 20
-47.333591
 30
0.0
 40
4.167181
  1
      GATE VALVE  3/8
 41
0.972252
  7
MX_NOTE_STANDARD
 11
-26.067536
 21
-45.25
 31
0.0
 73
     2
  0
TEXT
  8
LY_1
  6
CONTINUOUS
 62
     7
  5
54
 10
-26.109046
 20
-63.333591
 30
0.0
 40
4.167181
  1
KITZ
 41
0.912486
  7
MX_NOTE_STANDARD
 11
-26.109046
 21
-61.25
 31
0.0
 73
     2
  0
TEXT
  8
LY_1
  6
CONTINUOUS
 62
     7
  5
55
 10
-26.067763
 20
-55.333591
 30
0.0
 40
4.167181
  1
FIG   FH3/8
 41
0.971926
  7
MX_NOTE_STANDARD
 11
-26.067763
 21
-53.25
 31
0.0
 73
     2
  0
TEXT
  8
LY_1
  6
CONTINUOUS
 62
     7
  5
56
 10
-26.109046
 20
-39.333591
 30
0.0
 40
4.167181
  1
NAME  CLASS 125 FORGED BRASS
 41
0.912486
  7
MX_NOTE_STANDARD
 11
-26.109046
 21
-37.25
 31
0.0
 73
     2
  0
POLYLINE
  8
LY_1
  6
CONTINUOUS
 62
     7
  5
57
 66
     1
 10
0.0
 20
0.0
 30
0.0
  0
VERTEX
  8
LY_1
  6
CONTINUOUS
 62
     7
  5
200
 10
-0.772527
 20
0.382266
 30
0.0
  0
VERTEX
  8
LY_1
  6
CONTINUOUS
 62
     7
  5
201
 10
-0.774171
 20
0.384131
 30
0.0
  0
VERTEX
  8
LY_1
  6
CONTINUOUS
 62
     7
  5
202
 10
-0.776049
 20
0.385748
 30
0.0
  0
VERTEX
  8
LY_1
  6
CONTINUOUS
 62
     7
  5
203
 10
-0.778127
 20
0.387086
 30
0.0
  0
VERTEX
  8
LY_1
  6
CONTINUOUS
 62
     7
  5
204
 10
-0.780365
 20
0.38812
 30
0.0
  0
VERTEX
  8
LY_1
  6
CONTINUOUS
 62
     7
  5
205
 10
-0.782721
 20
0.388831
 30
0.0
  0
VERTEX
  8
LY_1
  6
CONTINUOUS
 62
     7
  5
206
 10
-0.785149
 20
0.389205
 30
0.0
  0
VERTEX
  8
LY_1
  6
CONTINUOUS
 62
     7
  5
207
 10
-0.787606
 20
0.389235
 30
0.0
  0
VERTEX
  8
LY_1
  6
CONTINUOUS
 62
     7
  5
208
 10
-0.790042
 20
0.388921
 30
0.0
  0
VERTEX
  8
LY_1
  6
CONTINUOUS
 62
     7
  5
209
 10
-0.792414
 20
0.388268
 30
0.0
  0
VERTEX
  8
LY_1
  6
CONTINUOUS
 62
     7
  5
20A
 10
-0.794675
 20
0.387288
 30
0.0
  0
VERTEX
  8
LY_1
  6
CONTINUOUS
 62
     7
  5
20B
 10
-0.796784
 20
0.386001
 30
0.0
  0
VERTEX
  8
LY_1
  6
CONTINUOUS
 62
     7
  5
20C
 10
-0.7987
 20
0.384431
 30
0.0
  0
VERTEX
  8
LY_1
  6
CONTINUOUS
 62
     7
  5
20D
 10
-0.800386
 20
0.382607
 30
0.0
  0
VERTEX
  8
LY_1
  6
CONTINUOUS
 62
     7
  5
20E
 10
-0.801812
 20
0.380563
 30
0.0
  0
VERTEX
  8
LY_1
  6
CONTINUOUS
 62
     7
  5
20F
 10
-0.80295
 20
0.378339
 30
0.0
  0
VERTEX
  8
LY_1
  6
CONTINUOUS
 62
     7
  5
210
 10
-0.803779
 20
0.375977
 30
0.0
  0
VERTEX
  8
LY_1
  6
CONTINUOUS
 62
     7
  5
211
 10
-0.804282
 20
0.373521
 30
0.0
  0
VERTEX
  8
LY_1
  6
CONTINUOUS
 62
     7
  5
212
 10
-0.804451
 20
0.371017
 30
0.0
  0
VERTEX
  8
LY_1
  6
CONTINUOUS
 62
     7
  5
213
 10
-0.804451
 20
0.371017
 30
0.0
  0
SEQEND
  8
LY_1
  6
CONTINUOUS
 62
     7
  5
214
  0
POLYLINE
  8
LY_1
  6
CONTINUOUS
 62
     7
  5
58
 66
     1
 10
0.0
 20
0.0
 30
0.0
  0
VERTEX
  8
LY_1
  6
CONTINUOUS
 62
     7
  5
215
 10
1.354193
 20
-0.75954
 30
0.0
  0
VERTEX
  8
LY_1
  6
CONTINUOUS
 62
     7
  5
216
 10
1.355949
 20
-0.761515
 30
0.0
  0
VERTEX
  8
LY_1
  6
CONTINUOUS
 62
     7
  5
217
 10
1.357969
 20
-0.763208
 30
0.0
  0
VERTEX
  8
LY_1
  6
CONTINUOUS
 62
     7
  5
218
 10
1.360208
 20
-0.764581
 30
0.0
  0
VERTEX
  8
LY_1
  6
CONTINUOUS
 62
     7
  5
219
 10
1.36262
 20
-0.765606
 30
0.0
  0
VERTEX
  8
LY_1
  6
CONTINUOUS
 62
     7
  5
21A
 10
1.365152
 20
-0.766261
 30
0.0
  0
VERTEX
  8
LY_1
  6
CONTINUOUS
 62
     7
  5
21B
 10
1.367751
 20
-0.766531
 30
0.0
  0
VERTEX
  8
LY_1
  6
CONTINUOUS
 62
     7
  5
21C
 10
1.37036
 20
-0.766411
 30
0.0
  0
VERTEX
  8
LY_1
  6
CONTINUOUS
 62
     7
  5
21D
 10
1.372925
 20
-0.765904
 30
0.0
  0
VERTEX
  8
LY_1
  6
CONTINUOUS
 62
     7
  5
21E
 10
1.375389
 20
-0.76502
 30
0.0
  0
VERTEX
  8
LY_1
  6
CONTINUOUS
 62
     7
  5
21F
 10
1.377701
 20
-0.763778
 30
0.0
  0
VERTEX
  8
LY_1
  6
CONTINUOUS
 62
     7
  5
220
 10
1.379811
 20
-0.762205
 30
0.0
  0
VERTEX
  8
LY_1
  6
CONTINUOUS
 62
     7
  5
221
 10
1.381674
 20
-0.760334
 30
0.0
  0
VERTEX
  8
LY_1
  6
CONTINUOUS
 62
     7
  5
222
 10
1.38325
 20
-0.758206
 30
0.0
  0
VERTEX
  8
LY_1
  6
CONTINUOUS
 62
     7
  5
223
 10
1.384505
 20
-0.755865
 30
0.0
  0
VERTEX
  8
LY_1
  6
CONTINUOUS
 62
     7
  5
224
 10
1.385412
 20
-0.753363
 30
0.0
  0
VERTEX
  8
LY_1
  6
CONTINUOUS
 62
     7
  5
225
 10
1.385953
 20
-0.750752
 30
0.0
  0
VERTEX
  8
LY_1
  6
CONTINUOUS
 62
     7
  5
226
 10
1.386075
 20
-0.749524
 30
0.0
  0
VERTEX
  8
LY_1
  6
CONTINUOUS
 62
     7
  5
227
 10
1.386116
 20
-0.748291
 30
0.0
  0
SEQEND
  8
LY_1
  6
CONTINUOUS
 62
     7
  5
228
  0
POLYLINE
  8
LY_1
  6
CONTINUOUS
 62
     7
  5
59
 66
     1
 10
0.0
 20
0.0
 30
0.0
  0
VERTEX
  8
LY_1
  6
CONTINUOUS
 62
     7
  5
229
 10
0.014608
 20
12.973955
 30
0.0
  0
VERTEX
  8
LY_1
  6
CONTINUOUS
 62
     7
  5
22A
 10
0.01307
 20
12.975892
 30
0.0
  0
VERTEX
  8
LY_1
  6
CONTINUOUS
 62
     7
  5
22B
 10
0.011287
 20
12.977597
 30
0.0
  0
VERTEX
  8
LY_1
  6
CONTINUOUS
 62
     7
  5
22C
 10
0.009294
 20
12.979038
 30
0.0
  0
VERTEX
  8
LY_1
  6
CONTINUOUS
 62
     7
  5
22D
 10
0.007127
 20
12.980187
 30
0.0
  0
VERTEX
  8
LY_1
  6
CONTINUOUS
 62
     7
  5
22E
 10
0.004826
 20
12.981024
 30
0.0
  0
VERTEX
  8
LY_1
  6
CONTINUOUS
 62
     7
  5
22F
 10
0.002436
 20
12.981532
 30
0.0
  0
VERTEX
  8
LY_1
  6
CONTINUOUS
 62
     7
  5
230
 10
0.0
 20
12.981703
 30
0.0
  0
VERTEX
  8
LY_1
  6
CONTINUOUS
 62
     7
  5
231
 10
-0.002436
 20
12.981532
 30
0.0
  0
VERTEX
  8
LY_1
  6
CONTINUOUS
 62
     7
  5
232
 10
-0.004826
 20
12.981024
 30
0.0
  0
VERTEX
  8
LY_1
  6
CONTINUOUS
 62
     7
  5
233
 10
-0.007127
 20
12.980187
 30
0.0
  0
VERTEX
  8
LY_1
  6
CONTINUOUS
 62
     7
  5
234
 10
-0.009294
 20
12.979038
 30
0.0
  0
VERTEX
  8
LY_1
  6
CONTINUOUS
 62
     7
  5
235
 10
-0.011287
 20
12.977597
 30
0.0
  0
VERTEX
  8
LY_1
  6
CONTINUOUS
 62
     7
  5
236
 10
-0.013069
 20
12.975892
 30
0.0
  0
VERTEX
  8
LY_1
  6
CONTINUOUS
 62
     7
  5
237
 10
-0.014608
 20
12.973955
 30
0.0
  0
SEQEND
  8
LY_1
  6
CONTINUOUS
 62
     7
  5
238
  0
POLYLINE
  8
LY_1
  6
CONTINUOUS
 62
     7
  5
5A
 66
     1
 10
0.0
 20
0.0
 30
0.0
  0
VERTEX
  8
LY_1
  6
CONTINUOUS
 62
     7
  5
239
 10
-3.432405
 20
132.519294
 30
0.0
  0
VERTEX
  8
LY_1
  6
CONTINUOUS
 62
     7
  5
23A
 10
-3.433373
 20
132.518398
 30
0.0
  0
VERTEX
  8
LY_1
  6
CONTINUOUS
 62
     7
  5
23B
 10
-3.434226
 20
132.517356
 30
0.0
  0
VERTEX
  8
LY_1
  6
CONTINUOUS
 62
     7
  5
23C
 10
-3.434949
 20
132.516186
 30
0.0
  0
VERTEX
  8
LY_1
  6
CONTINUOUS
 62
     7
  5
23D
 10
-3.435528
 20
132.514913
 30
0.0
  0
VERTEX
  8
LY_1
  6
CONTINUOUS
 62
     7
  5
23E
 10
-3.435951
 20
132.513558
 30
0.0
  0
VERTEX
  8
LY_1
  6
CONTINUOUS
 62
     7
  5
23F
 10
-3.436211
 20
132.512149
 30
0.0
  0
VERTEX
  8
LY_1
  6
CONTINUOUS
 62
     7
  5
240
 10
-3.436303
 20
132.510711
 30
0.0
  0
VERTEX
  8
LY_1
  6
CONTINUOUS
 62
     7
  5
241
 10
-3.436226
 20
132.509272
 30
0.0
  0
VERTEX
  8
LY_1
  6
CONTINUOUS
 62
     7
  5
242
 10
-3.435979
 20
132.507859
 30
0.0
  0
VERTEX
  8
LY_1
  6
CONTINUOUS
 62
     7
  5
243
 10
-3.435569
 20
132.506499
 30
0.0
  0
VERTEX
  8
LY_1
  6
CONTINUOUS
 62
     7
  5
244
 10
-3.435003
 20
132.505217
 30
0.0
  0
VERTEX
  8
LY_1
  6
CONTINUOUS
 62
     7
  5
245
 10
-3.434292
 20
132.504039
 30
0.0
  0
VERTEX
  8
LY_1
  6
CONTINUOUS
 62
     7
  5
246
 10
-3.433448
 20
132.502985
 30
0.0
  0
VERTEX
  8
LY_1
  6
CONTINUOUS
 62
     7
  5
247
 10
-3.432489
 20
132.502076
 30
0.0
  0
VERTEX
  8
LY_1
  6
CONTINUOUS
 62
     7
  5
248
 10
-3.432489
 20
132.502076
 30
0.0
  0
SEQEND
  8
LY_1
  6
CONTINUOUS
 62
     7
  5
249
  0
ARC
  8
LY_1
  6
CONTINUOUS
 62
     7
  5
5B
 10
1.298248
 20
-1.510513
 30
0.0
 40
0.489466
 50
217.524112
 51
359.999982
  0
ARC
  8
LY_1
  6
CONTINUOUS
 62
     7
  5
5C
 10
-1.296066
 20
-1.508392
 30
0.0
 40
0.491616
 50
180.000036
 51
359.999982
  0
ARC
  8
LY_1
  6
CONTINUOUS
 62
     7
  5
5D
 10
-1.298187
 20
1.890274
 30
0.0
 40
0.48955
 50
37.524113
 51
180.000019
  0
ARC
  8
LY_1
  6
CONTINUOUS
 62
     7
  5
5E
 10
1.285446
 20
1.696823
 30
0.0
 40
0.502272
 50
359.999982
 51
270.000001
  0
ARC
  8
LY_1
  6
CONTINUOUS
 62
     7
  5
5F
 10
1.295975
 20
3.402649
 30
0.0
 40
0.491595
 50
180.000036
 51
359.999982
  0
ARC
  8
LY_1
  6
CONTINUOUS
 62
     7
  5
60
 10
-1.285416
 20
5.009384
 30
0.0
 40
0.502286
 50
90.000037
 51
270.000001
  0
ARC
  8
LY_1
  6
CONTINUOUS
 62
     7
  5
61
 10
1.285309
 20
6.769867
 30
0.0
 40
0.502243
 50
359.999982
 51
270.000001
  0
ARC
  8
LY_1
  6
CONTINUOUS
 62
     7
  5
62
 10
-1.285416
 20
8.493286
 30
0.0
 40
0.50228
 50
90.000037
 51
270.000001
  0
ARC
  8
LY_1
  6
CONTINUOUS
 62
     7
  5
63
 10
1.285446
 20
8.493286
 30
0.0
 40
0.50228
 50
270.000018
 51
90.000037
  0
ARC
  8
LY_1
  6
CONTINUOUS
 62
     7
  5
64
 10
1.192001
 20
10.186996
 30
0.0
 40
0.595744
 50
0.778951
 51
34.259064
  0
ARC
  8
LY_1
  6
CONTINUOUS
 62
     7
  5
65
 10
1.296249
 20
10.202484
 30
0.0
 40
0.491495
 50
123.574515
 51
359.143204
  0
ARC
  8
LY_1
  6
CONTINUOUS
 62
     7
  5
66
 10
-1.297241
 20
10.211548
 30
0.0
 40
0.494993
 50
145.740937
 51
325.740956
  0
ARC
  8
LY_1
  6
CONTINUOUS
 62
     7
  5
67
 10
-1.285477
 20
13.497772
 30
0.0
 40
0.50225
 50
89.999982
 51
270.000001
  0
ARC
  8
LY_1
  6
CONTINUOUS
 62
     7
  5
68
 10
1.285492
 20
13.497772
 30
0.0
 40
0.50225
 50
270.000018
 51
90.000037
  0
ARC
  8
LY_1
  6
CONTINUOUS
 62
     7
  5
69
 10
1.302307
 20
123.701004
 30
0.0
 40
7.571756
 50
318.474707
 51
336.525422
  0
ARC
  8
LY_1
  6
CONTINUOUS
 62
     7
  5
6A
 10
1.263107
 20
123.726013
 30
0.0
 40
6.218242
 50
318.198276
 51
336.801307
  0
ARC
  8
LY_1
  6
CONTINUOUS
 62
     7
  5
6B
 10
-1.302307
 20
123.701004
 30
0.0
 40
7.571756
 50
203.474577
 51
221.525291
  0
ARC
  8
LY_1
  6
CONTINUOUS
 62
     7
  5
6C
 10
-1.263123
 20
123.726013
 30
0.0
 40
6.218242
 50
203.198692
 51
221.801723
  0
ARC
  8
LY_1
  6
PHANTOM
 62
     7
  5
6E
 10
0.0
 20
124.530685
 30
0.0
 40
9.1
 50
226.309046
 51
313.690976
  0
ARC
  8
LY_1
  6
PHANTOM
 62
     7
  5
6F
 10
0.0
 20
124.530685
 30
0.0
 40
7.699997
 50
227.462092
 51
312.53789
  0
ARC
  8
LY_1
  6
CONTINUOUS
 62
     7
  5
70
 10
8.439362
 20
124.878494
 30
0.0
 40
0.889
 50
227.874799
 51
264.434343
  0
ARC
  8
LY_1
  6
CONTINUOUS
 62
     7
  5
71
 10
8.157639
 20
124.566971
 30
0.0
 40
0.469
 50
176.848023
 51
227.874618
  0
ARC
  8
LY_1
  6
CONTINUOUS
 62
     7
  5
72
 10
8.155029
 20
124.537003
 30
0.0
 40
0.469
 50
122.125367
 51
173.171961
  0
ARC
  8
LY_1
  6
CONTINUOUS
 62
     7
  5
73
 10
8.378357
 20
124.18132
 30
0.0
 40
0.889
 50
85.578118
 51
122.125203
  0
ARC
  8
LY_1
  6
CONTINUOUS
 62
     7
  5
74
 10
8.360641
 20
124.182877
 30
0.0
 40
0.889
 50
47.874821
 51
84.431739
  0
ARC
  8
LY_1
  6
CONTINUOUS
 62
     7
  5
75
 10
8.642349
 20
124.49437
 30
0.0
 40
0.469
 50
356.84801
 51
47.874602
  0
ARC
  8
LY_1
  6
CONTINUOUS
 62
     7
  5
76
 10
8.644974
 20
124.524353
 30
0.0
 40
0.469
 50
302.125403
 51
353.171979
  0
ARC
  8
LY_1
  6
CONTINUOUS
 62
     7
  5
77
 10
8.421631
 20
124.880035
 30
0.0
 40
0.889
 50
265.581487
 51
302.125184
  0
ARC
  8
LY_1
  6
CONTINUOUS
 62
     7
  5
78
 10
8.378357
 20
124.18132
 30
0.0
 40
1.05
 50
85.485391
 51
122.125203
  0
ARC
  8
LY_1
  6
CONTINUOUS
 62
     7
  5
79
 10
8.642349
 20
124.49437
 30
0.0
 40
0.63
 50
356.37819
 51
47.874602
  0
ARC
  8
LY_1
  6
CONTINUOUS
 62
     7
  5
7A
 10
8.360641
 20
124.182877
 30
0.0
 40
1.05
 50
47.874821
 51
84.51463
  0
ARC
  8
LY_1
  6
CONTINUOUS
 62
     7
  5
7B
 10
8.157639
 20
124.566971
 30
0.0
 40
0.63
 50
176.378215
 51
227.874618
  0
ARC
  8
LY_1
  6
CONTINUOUS
 62
     7
  5
7C
 10
8.439362
 20
124.878494
 30
0.0
 40
1.05
 50
227.874799
 51
264.514447
  0
ARC
  8
LY_1
  6
CONTINUOUS
 62
     7
  5
7D
 10
8.155029
 20
124.537003
 30
0.0
 40
0.63
 50
122.125367
 51
173.641823
  0
ARC
  8
LY_1
  6
CONTINUOUS
 62
     7
  5
7E
 10
8.644974
 20
124.524353
 30
0.0
 40
0.63
 50
302.125403
 51
353.641797
  0
ARC
  8
LY_1
  6
CONTINUOUS
 62
     7
  5
7F
 10
8.421631
 20
124.880035
 30
0.0
 40
1.05
 50
265.485645
 51
302.125184
  0
ARC
  8
LY_1
  6
CONTINUOUS
 62
     7
  5
80
 10
2.150757
 20
133.28064
 30
0.0
 40
0.28
 50
89.999982
 51
180.000019
  0
ARC
  8
LY_1
  6
CONTINUOUS
 62
     7
  5
81
 10
2.085144
 20
133.263168
 30
0.0
 40
0.28
 50
274.658043
 51
0.0
  0
ARC
  8
LY_1
  6
CONTINUOUS
 62
     7
  5
82
 10
2.129761
 20
133.242172
 30
0.0
 40
0.259
 50
180.000036
 51
265.157141
  0
ARC
  8
LY_1
  6
CONTINUOUS
 62
     7
  5
83
 10
3.320435
 20
133.314285
 30
0.0
 40
0.0105
 50
312.505723
 51
89.998288
  0
ARC
  8
LY_1
  6
CONTINUOUS
 62
     7
  5
84
 10
3.639435
 20
133.262634
 30
0.0
 40
0.298053
 50
312.504463
 51
89.999982
  0
ARC
  8
LY_1
  6
CONTINUOUS
 62
     7
  5
85
 10
2.77153
 20
132.048676
 30
0.0
 40
0.0105
 50
132.505506
 51
269.998635
  0
ARC
  8
LY_1
  6
CONTINUOUS
 62
     7
  5
86
 10
2.079895
 20
131.758774
 30
0.0
 40
0.298095
 50
132.504468
 51
270.000001
  0
ARC
  8
LY_1
  6
CONTINUOUS
 62
     7
  5
87
 10
3.648743
 20
131.74942
 30
0.0
 40
0.288751
 50
270.000018
 51
89.999982
  0
ARC
  8
LY_1
  6
CONTINUOUS
 62
     7
  5
88
 10
-0.3461
 20
133.280579
 30
0.0
 40
0.28
 50
89.999982
 51
180.000019
  0
ARC
  8
LY_1
  6
CONTINUOUS
 62
     7
  5
89
 10
-0.411713
 20
133.263092
 30
0.0
 40
0.28
 50
274.658043
 51
0.0
  0
ARC
  8
LY_1
  6
CONTINUOUS
 62
     7
  5
8A
 10
-0.367111
 20
133.242096
 30
0.0
 40
0.259
 50
180.000036
 51
265.157141
  0
ARC
  8
LY_1
  6
CONTINUOUS
 62
     7
  5
8B
 10
0.487579
 20
131.707886
 30
0.0
 40
0.247217
 50
180.000036
 51
359.999983
  0
ARC
  8
LY_1
  6
CONTINUOUS
 62
     7
  5
8C
 10
1.231613
 20
133.271835
 30
0.0
 40
0.288733
 50
270.000018
 51
89.999982
  0
ARC
  8
LY_1
  6
CONTINUOUS
 62
     7
  5
8D
 10
-1.227188
 20
133.313492
 30
0.0
 40
0.2472
 50
0.0
 51
180.000019
  0
ARC
  8
LY_1
  6
CONTINUOUS
 62
     7
  5
8E
 10
-1.227188
 20
131.707886
 30
0.0
 40
0.2472
 50
179.999964
 51
359.999983
  0
ARC
  8
LY_1
  6
CONTINUOUS
 62
     7
  5
8F
 10
-2.082031
 20
133.346268
 30
0.0
 40
0.21
 50
69.540669
 51
129.103799
  0
ARC
  8
LY_1
  6
CONTINUOUS
 62
     7
  5
90
 10
-2.07579
 20
133.228317
 30
0.0
 40
0.245
 50
211.487864
 51
266.528697
  0
ARC
  8
LY_1
  6
CONTINUOUS
 62
     7
  5
91
 10
-2.106491
 20
133.263321
 30
0.0
 40
0.28
 50
273.248893
 51
0.0
  0
ARC
  8
LY_1
  6
CONTINUOUS
 62
     7
  5
92
 10
-2.106491
 20
133.280685
 30
0.0
 40
0.28
 50
0.0
 51
69.540724
  0
ARC
  8
LY_1
  6
CONTINUOUS
 62
     7
  5
93
 10
-2.07695
 20
131.75206
 30
0.0
 40
0.272962
 50
230.896201
 51
50.89622
  0
ARC
  8
LY_1
  6
CONTINUOUS
 62
     7
  5
94
 10
-3.690308
 20
133.313477
 30
0.0
 40
0.2472
 50
0.0
 51
180.000019
  0
ARC
  8
LY_1
  6
CONTINUOUS
 62
     7
  5
95
 10
-3.690308
 20
131.70787
 30
0.0
 40
0.2472
 50
179.999964
 51
359.999983
  0
CIRCLE
  8
LY_1
  6
CONTINUOUS
 62
     7
  5
96
 10
0.0
 20
124.530685
 30
0.0
 40
6.3
  0
CIRCLE
  8
LY_1
  6
CONTINUOUS
 62
     7
  5
97
 10
0.0
 20
124.530685
 30
0.0
 40
10.5
  0
ARC
  8
LY_1
  6
CONTINUOUS
 62
     7
  5
98
 10
-8.921173
 20
125.358047
 30
0.0
 40
0.105
 50
329.803437
 51
149.803424
  0
ARC
  8
LY_1
  6
CONTINUOUS
 62
     7
  5
99
 10
-7.767303
 20
123.81694
 30
0.0
 40
0.105
 50
154.285886
 51
334.374971
  0
ARC
  8
LY_1
  6
CONTINUOUS
 62
     7
  5
9A
 10
-7.9841
 20
124.953262
 30
0.0
 40
0.205992
 50
18.468446
 51
169.999966
  0
ARC
  8
LY_1
  6
CONTINUOUS
 62
     7
  5
9B
 10
-8.755081
 20
124.004578
 30
0.0
 40
0.178551
 50
202.732326
 51
349.999978
  0
ARC
  8
LY_1
  6
CONTINUOUS
 62
     7
  5
9C
 10
-8.755081
 20
124.004578
 30
0.0
 40
0.388551
 50
202.732326
 51
349.999978
  0
ARC
  8
LY_1
  6
CONTINUOUS
 62
     7
  5
9D
 10
-7.9841
 20
124.953262
 30
0.0
 40
0.415992
 50
18.468446
 51
169.999966
  0
ARC
  8
LY_1
  6
CONTINUOUS
 62
     7
  5
9E
 10
-9.249405
 20
124.530685
 30
0.0
 40
1.54
 50
334.285898
 51
18.46848
  0
ARC
  8
LY_1
  6
CONTINUOUS
 62
     7
  5
9F
 10
-7.499405
 20
124.530685
 30
0.0
 40
1.54
 50
149.803424
 51
202.732309
  0
ARC
  8
LY_1
  6
CONTINUOUS
 62
     7
  5
A0
 10
-7.499405
 20
124.530685
 30
0.0
 40
1.75
 50
149.803424
 51
202.732309
  0
ARC
  8
LY_1
  6
CONTINUOUS
 62
     7
  5
A1
 10
-9.249405
 20
124.530685
 30
0.0
 40
1.75
 50
334.285898
 51
18.46848
  0
ARC
  8
LY_1
  6
CONTINUOUS
 62
     7
  5
A2
 10
-13.5
 20
14.5
 30
0.0
 40
2.0
 50
270.000018
 51
0.0
  0
ARC
  8
LY_1
  6
CONTINUOUS
 62
     7
  5
A3
 10
-17.0
 20
14.5
 30
0.0
 40
2.0
 50
270.000018
 51
0.0
  0
ARC
  8
LY_1
  6
CONTINUOUS
 62
     7
  5
A4
 10
17.0
 20
14.5
 30
0.0
 40
2.0
 50
180.000019
 51
270.000001
  0
ARC
  8
LY_1
  6
CONTINUOUS
 62
     7
  5
A5
 10
13.5
 20
14.5
 30
0.0
 40
2.0
 50
180.000019
 51
270.000001
  0
ARC
  8
LY_1
  6
CONTINUOUS
 62
     7
  5
A6
 10
82.121613
 20
-2.45
 30
0.0
 40
11.8
 50
202.633152
 51
337.36685
  0
ARC
  8
LY_1
  6
CONTINUOUS
 62
     7
  5
A7
 10
82.121613
 20
-2.45
 30
0.0
 40
11.8
 50
347.052622
 51
359.999983
  0
ARC
  8
LY_1
  6
CONTINUOUS
 62
     7
  5
A8
 10
78.621613
 20
16.5
 30
0.0
 40
2.0
 50
359.999981
 51
90.000037
  0
ARC
  8
LY_1
  6
CONTINUOUS
 62
     7
  5
A9
 10
69.121613
 20
20.5
 30
0.0
 40
2.0
 50
180.000019
 51
270.000001
  0
ARC
  8
LY_1
  6
CONTINUOUS
 62
     7
  5
AA
 10
95.121613
 20
20.5
 30
0.0
 40
2.0
 50
270.000018
 51
0.0
  0
ARC
  8
LY_1
  6
CONTINUOUS
 62
     7
  5
AB
 10
85.621613
 20
16.5
 30
0.0
 40
2.0
 50
89.999982
 51
180.000019
  0
ARC
  8
LY_1
  6
CONTINUOUS
 62
     7
  5
AC
 10
68.154678
 20
16.618637
 30
0.0
 40
2.0
 50
0.500224
 51
76.011154
  0
ARC
  8
LY_1
  6
CONTINUOUS
 62
     7
  5
AD
 10
96.088547
 20
16.618637
 30
0.0
 40
2.0
 50
103.988865
 51
179.499776
  0
ARC
  8
LY_1
  6
CONTINUOUS
 62
     7
  5
AE
 10
82.121613
 20
-2.45
 30
0.0
 40
11.8
 50
180.500006
 51
192.947397
  0
CIRCLE
  8
LY_1
  6
CONTINUOUS
 62
     7
  5
AF
 10
82.121613
 20
0.0
 30
0.0
 40
7.5
  0
CIRCLE
  8
LY_1
  6
CONTINUOUS
 62
     7
  5
B0
 10
82.121613
 20
0.0
 30
0.0
 40
8.35
  0
ARC
  8
LY_1
  6
CONTINUOUS
 62
     7
  5
B1
 10
92.121613
 20
38.232056
 30
0.0
 40
2.0
 50
180.000036
 51
239.999969
  0
ARC
  8
LY_1
  6
CONTINUOUS
 62
     7
  5
B2
 10
72.121613
 20
38.232056
 30
0.0
 40
2.0
 50
300.000012
 51
359.999983
  0
CIRCLE
  8
LY_1
  6
CONTINUOUS
 62
     7
  5
B3
 10
0.0
 20
124.530685
 30
0.0
 40
3.0
  0
CIRCLE
  8
LY_1
  6
CONTINUOUS
 62
     7
  5
B4
 10
0.0
 20
124.530685
 30
0.0
 40
2.3
  0
ARC
  8
LY_1
  6
CONTINUOUS
 62
     7
  5
B5
 10
0.0
 20
124.530685
 30
0.0
 40
13.2
 50
255.601105
 51
344.398871
  0
ARC
  8
LY_1
  6
CONTINUOUS
 62
     7
  5
B6
 10
0.0
 20
124.530685
 30
0.0
 40
13.2
 50
135.601112
 51
224.398871
  0
ARC
  8
LY_1
  6
CONTINUOUS
 62
     7
  5
B7
 10
0.0
 20
124.530685
 30
0.0
 40
13.2
 50
15.601108
 51
104.398895
  0
ARC
  8
LY_1
  6
CONTINUOUS
 62
     7
  5
B8
 10
3.185254
 20
107.119675
 30
0.0
 40
1.3
 50
27.201133
 51
100.367663
  0
ARC
  8
LY_1
  6
CONTINUOUS
 62
     7
  5
B9
 10
-3.185244
 20
107.119659
 30
0.0
 40
1.3
 50
79.632738
 51
152.799145
  0
ARC
  8
LY_1
  6
CONTINUOUS
 62
     7
  5
BA
 10
0.0
 20
124.530701
 30
0.0
 40
16.399994
 50
259.63272
 51
280.367316
  0
ARC
  8
LY_1
  6
CONTINUOUS
 62
     7
  5
BB
 10
0.0
 20
124.530701
 30
0.0
 40
19.399994
 50
254.172721
 51
285.827315
  0
ARC
  8
LY_1
  6
CONTINUOUS
 62
     7
  5
BC
 10
3.185254
 20
141.941696
 30
0.0
 40
1.3
 50
259.632337
 51
332.798867
  0
ARC
  8
LY_1
  6
CONTINUOUS
 62
     7
  5
BD
 10
-3.185244
 20
141.941711
 30
0.0
 40
1.3
 50
207.200855
 51
280.367262
  0
ARC
  8
LY_1
  6
CONTINUOUS
 62
     7
  5
BE
 10
0.0
 20
124.53067
 30
0.0
 40
16.399994
 50
79.632684
 51
100.36728
  0
ARC
  8
LY_1
  6
CONTINUOUS
 62
     7
  5
BF
 10
0.0
 20
124.53067
 30
0.0
 40
19.399994
 50
74.172685
 51
105.827279
  0
ARC
  8
LY_1
  6
CONTINUOUS
 62
     7
  5
C0
 10
16.671021
 20
118.583679
 30
0.0
 40
1.3
 50
87.201134
 51
160.367651
  0
ARC
  8
LY_1
  6
CONTINUOUS
 62
     7
  5
C1
 10
13.485768
 20
113.066666
 30
0.0
 40
1.3
 50
139.632781
 51
212.799188
  0
ARC
  8
LY_1
  6
CONTINUOUS
 62
     7
  5
C2
 10
-0.000009
 20
124.530685
 30
0.0
 40
16.399994
 50
319.632728
 51
340.367325
  0
ARC
  8
LY_1
  6
CONTINUOUS
 62
     7
  5
C3
 10
-0.000009
 20
124.530685
 30
0.0
 40
19.399994
 50
314.17273
 51
345.827323
  0
ARC
  8
LY_1
  6
CONTINUOUS
 62
     7
  5
C4
 10
16.671021
 20
130.477692
 30
0.0
 40
1.3
 50
199.632349
 51
272.798866
  0
ARC
  8
LY_1
  6
CONTINUOUS
 62
     7
  5
C5
 10
13.485768
 20
135.994705
 30
0.0
 40
1.3
 50
147.200849
 51
220.367256
  0
ARC
  8
LY_1
  6
CONTINUOUS
 62
     7
  5
C6
 10
-0.000009
 20
124.530685
 30
0.0
 40
16.399994
 50
19.632679
 51
40.367275
  0
ARC
  8
LY_1
  6
CONTINUOUS
 62
     7
  5
C7
 10
-0.000009
 20
124.530685
 30
0.0
 40
19.399994
 50
14.17268
 51
45.827274
  0
ARC
  8
LY_1
  6
CONTINUOUS
 62
     7
  5
C8
 10
-16.671005
 20
118.583679
 30
0.0
 40
1.3
 50
19.632324
 51
92.798884
  0
ARC
  8
LY_1
  6
CONTINUOUS
 62
     7
  5
C9
 10
-13.485767
 20
113.066666
 30
0.0
 40
1.3
 50
327.200827
 51
40.367238
  0
ARC
  8
LY_1
  6
CONTINUOUS
 62
     7
  5
CA
 10
0.000009
 20
124.530685
 30
0.0
 40
16.399994
 50
199.632677
 51
220.367274
  0
ARC
  8
LY_1
  6
CONTINUOUS
 62
     7
  5
CB
 10
0.000009
 20
124.530685
 30
0.0
 40
19.399994
 50
194.172678
 51
225.827272
  0
ARC
  8
LY_1
  6
CONTINUOUS
 62
     7
  5
CC
 10
-16.671005
 20
130.477692
 30
0.0
 40
1.3
 50
267.201116
 51
340.367676
  0
ARC
  8
LY_1
  6
CONTINUOUS
 62
     7
  5
CD
 10
-13.485767
 20
135.994705
 30
0.0
 40
1.3
 50
319.632762
 51
32.799173
  0
ARC
  8
LY_1
  6
CONTINUOUS
 62
     7
  5
CE
 10
0.000009
 20
124.530685
 30
0.0
 40
16.399994
 50
139.632726
 51
160.367323
  0
ARC
  8
LY_1
  6
CONTINUOUS
 62
     7
  5
CF
 10
0.000009
 20
124.530685
 30
0.0
 40
19.399994
 50
134.172728
 51
165.827322
  0
ARC
  8
LY_1
  6
CONTINUOUS
 62
     7
  5
D0
 10
-19.399994
 20
124.530685
 30
0.0
 40
5.6
 50
134.23256
 51
225.767477
  0
ARC
  8
LY_1
  6
CONTINUOUS
 62
     7
  5
D1
 10
19.400009
 20
124.530685
 30
0.0
 40
5.6
 50
314.232525
 51
45.767458
  0
ARC
  8
LY_1
  6
CONTINUOUS
 62
     7
  5
D2
 10
-28.310669
 20
103.009338
 30
0.0
 40
13.6
 50
14.232513
 51
25.44129
  0
ARC
  8
LY_1
  6
CONTINUOUS
 62
     7
  5
D3
 10
-9.700006
 20
107.729797
 30
0.0
 40
5.6
 50
194.1694
 51
285.767428
  0
ARC
  8
LY_1
  6
CONTINUOUS
 62
     7
  5
D4
 10
-9.700006
 20
141.331573
 30
0.0
 40
5.6
 50
74.232572
 51
165.8306
  0
ARC
  8
LY_1
  6
CONTINUOUS
 62
     7
  5
D5
 10
-32.793381
 20
110.773605
 30
0.0
 40
13.6
 50
34.558718
 51
45.767441
  0
ARC
  8
LY_1
  6
CONTINUOUS
 62
     7
  5
D6
 10
-79.241318
 20
78.78067
 30
0.0
 40
70.0
 50
25.44129
 51
34.558718
  0
ARC
  8
LY_1
  6
CONTINUOUS
 62
     7
  5
D7
 10
-28.310669
 20
146.052032
 30
0.0
 40
13.6
 50
334.558713
 51
345.767491
  0
ARC
  8
LY_1
  6
CONTINUOUS
 62
     7
  5
D8
 10
-32.793381
 20
138.287766
 30
0.0
 40
13.6
 50
314.232562
 51
325.441285
  0
ARC
  8
LY_1
  6
CONTINUOUS
 62
     7
  5
D9
 10
-79.241318
 20
170.280701
 30
0.0
 40
70.0
 50
325.441285
 51
334.558713
  0
ARC
  8
LY_1
  6
CONTINUOUS
 62
     7
  5
DA
 10
28.310684
 20
103.009338
 30
0.0
 40
13.6
 50
154.558711
 51
165.767489
  0
ARC
  8
LY_1
  6
CONTINUOUS
 62
     7
  5
DB
 10
9.700006
 20
107.729797
 30
0.0
 40
5.6
 50
254.232554
 51
345.830598
  0
ARC
  8
LY_1
  6
CONTINUOUS
 62
     7
  5
DC
 10
-4.482689
 20
89.252258
 30
0.0
 40
13.6
 50
94.558723
 51
105.767501
  0
ARC
  8
LY_1
  6
CONTINUOUS
 62
     7
  5
DD
 10
4.482719
 20
89.252243
 30
0.0
 40
13.6
 50
74.232572
 51
85.441295
  0
ARC
  8
LY_1
  6
CONTINUOUS
 62
     7
  5
DE
 10
-0.000008
 20
33.030746
 30
0.0
 40
70.0
 50
85.441295
 51
94.558723
  0
ARC
  8
LY_1
  6
CONTINUOUS
 62
     7
  5
DF
 10
9.700006
 20
141.331573
 30
0.0
 40
5.6
 50
14.169402
 51
105.767446
  0
ARC
  8
LY_1
  6
CONTINUOUS
 62
     7
  5
E0
 10
32.793396
 20
110.773605
 30
0.0
 40
13.6
 50
134.23256
 51
145.441283
  0
ARC
  8
LY_1
  6
CONTINUOUS
 62
     7
  5
E1
 10
79.241333
 20
78.78067
 30
0.0
 40
70.0
 50
145.441283
 51
154.558711
  0
ARC
  8
LY_1
  6
CONTINUOUS
 62
     7
  5
E2
 10
-4.482689
 20
159.809113
 30
0.0
 40
13.6
 50
254.232499
 51
265.441277
  0
ARC
  8
LY_1
  6
CONTINUOUS
 62
     7
  5
E3
 10
4.482719
 20
159.809128
 30
0.0
 40
13.6
 50
274.558705
 51
285.767428
  0
ARC
  8
LY_1
  6
CONTINUOUS
 62
     7
  5
E4
 10
-0.000008
 20
216.030624
 30
0.0
 40
70.0
 50
265.441277
 51
274.558705
  0
ARC
  8
LY_1
  6
CONTINUOUS
 62
     7
  5
E5
 10
28.310684
 20
146.052032
 30
0.0
 40
13.6
 50
194.232511
 51
205.441289
  0
ARC
  8
LY_1
  6
CONTINUOUS
 62
     7
  5
E6
 10
32.793396
 20
138.287766
 30
0.0
 40
13.6
 50
214.558717
 51
225.76744
  0
ARC
  8
LY_1
  6
CONTINUOUS
 62
     7
  5
E7
 10
79.241333
 20
170.280701
 30
0.0
 40
70.0
 50
205.441289
 51
214.558717
  0
ARC
  8
LY_1
  6
CONTINUOUS
 62
     7
  5
E8
 10
76.121613
 20
70.900009
 30
0.0
 40
1.0
 50
270.000018
 51
359.999981
  0
ARC
  8
LY_1
  6
CONTINUOUS
 62
     7
  5
E9
 10
82.121613
 20
72.0
 30
0.0
 40
5.0
 50
359.999981
 51
180.000019
  0
ARC
  8
LY_1
  6
CONTINUOUS
 62
     7
  5
EA
 10
66.91124
 20
70.900009
 30
0.0
 40
1.0
 50
180.000019
 51
270.000001
  0
ARC
  8
LY_1
  6
CONTINUOUS
 62
     7
  5
EB
 10
67.91124
 20
71.300003
 30
0.0
 40
2.0
 50
90.000037
 51
180.000019
  0
ARC
  8
LY_1
  6
CONTINUOUS
 62
     7
  5
EC
 10
66.001328
 20
72.0
 30
0.0
 40
5.0
 50
38.316251
 51
135.596904
  0
ARC
  8
LY_1
  6
CONTINUOUS
 62
     7
  5
ED
 10
67.783798
 20
70.247055
 30
0.0
 40
7.5
 50
135.399539
 51
166.921572
  0
ARC
  8
LY_1
  6
CONTINUOUS
 62
     7
  5
EE
 10
94.489899
 20
63.687012
 30
0.0
 40
35.0
 50
166.065777
 51
173.416153
  0
ARC
  8
LY_1
  6
CONTINUOUS
 62
     7
  5
EF
 10
88.121613
 20
70.900009
 30
0.0
 40
1.0
 50
180.000019
 51
270.000001
  0
ARC
  8
LY_1
  6
CONTINUOUS
 62
     7
  5
F0
 10
97.331985
 20
70.900009
 30
0.0
 40
1.0
 50
270.000018
 51
0.0
  0
ARC
  8
LY_1
  6
CONTINUOUS
 62
     7
  5
F1
 10
96.331985
 20
71.300003
 30
0.0
 40
2.0
 50
0.0
 51
89.999982
  0
ARC
  8
LY_1
  6
CONTINUOUS
 62
     7
  5
F2
 10
98.241898
 20
72.0
 30
0.0
 40
5.0
 50
44.403111
 51
141.68375
  0
ARC
  8
LY_1
  6
CONTINUOUS
 62
     7
  5
F3
 10
96.459427
 20
70.247055
 30
0.0
 40
7.5
 50
13.078436
 51
44.600442
  0
ARC
  8
LY_1
  6
CONTINUOUS
 62
     7
  5
F4
 10
69.753326
 20
63.687012
 30
0.0
 40
35.0
 50
6.583824
 51
13.934245
  0
ARC
  8
LY_1
  6
CONTINUOUS
 62
     7
  5
F5
 10
-17.809479
 20
70.900009
 30
0.0
 40
1.0
 50
179.999981
 51
269.999963
  0
ARC
  8
LY_1
  6
CONTINUOUS
 62
     7
  5
F6
 10
-16.809479
 20
71.300003
 30
0.0
 40
2.0
 50
90.000037
 51
180.000019
  0
ARC
  8
LY_1
  6
CONTINUOUS
 62
     7
  5
F7
 10
-8.790092
 20
70.900009
 30
0.0
 40
1.0
 50
179.999981
 51
269.999963
  0
ARC
  8
LY_1
  6
CONTINUOUS
 62
     7
  5
F8
 10
-7.790092
 20
71.300003
 30
0.0
 40
2.0
 50
90.000037
 51
180.000019
  0
ARC
  8
LY_1
  6
CONTINUOUS
 62
     7
  5
F9
 10
-9.700006
 20
72.0
 30
0.0
 40
5.0
 50
38.316251
 51
135.596904
  0
ARC
  8
LY_1
  6
CONTINUOUS
 62
     7
  5
FA
 10
-7.917535
 20
70.247055
 30
0.0
 40
7.5
 50
135.399539
 51
166.921572
  0
ARC
  8
LY_1
  6
CONTINUOUS
 62
     7
  5
FB
 10
18.788574
 20
63.687012
 30
0.0
 40
35.0
 50
166.065777
 51
173.416153
  0
ARC
  8
LY_1
  6
CONTINUOUS
 62
     7
  5
FC
 10
-18.719391
 20
72.0
 30
0.0
 40
5.0
 50
38.316251
 51
135.596904
  0
ARC
  8
LY_1
  6
CONTINUOUS
 62
     7
  5
FD
 10
-16.93692
 20
70.247055
 30
0.0
 40
7.5
 50
135.399539
 51
166.921572
  0
ARC
  8
LY_1
  6
CONTINUOUS
 62
     7
  5
FE
 10
9.769172
 20
63.687012
 30
0.0
 40
35.0
 50
166.065777
 51
173.416153
  0
ARC
  8
LY_1
  6
CONTINUOUS
 62
     7
  5
FF
 10
17.809494
 20
70.900009
 30
0.0
 40
1.0
 50
270.000018
 51
0.0
  0
ARC
  8
LY_1
  6
CONTINUOUS
 62
     7
  5
100
 10
16.809494
 20
71.300003
 30
0.0
 40
2.0
 50
0.0
 51
89.999982
  0
ARC
  8
LY_1
  6
CONTINUOUS
 62
     7
  5
101
 10
8.790091
 20
70.900009
 30
0.0
 40
1.0
 50
270.000018
 51
0.0
  0
ARC
  8
LY_1
  6
CONTINUOUS
 62
     7
  5
102
 10
7.790091
 20
71.300003
 30
0.0
 40
2.0
 50
0.0
 51
89.999982
  0
ARC
  8
LY_1
  6
CONTINUOUS
 62
     7
  5
103
 10
9.700005
 20
72.0
 30
0.0
 40
5.0
 50
44.403111
 51
141.68375
  0
ARC
  8
LY_1
  6
CONTINUOUS
 62
     7
  5
104
 10
7.917534
 20
70.247055
 30
0.0
 40
7.5
 50
13.078436
 51
44.600442
  0
ARC
  8
LY_1
  6
CONTINUOUS
 62
     7
  5
105
 10
-18.788559
 20
63.687012
 30
0.0
 40
35.0
 50
6.583824
 51
13.934245
  0
ARC
  8
LY_1
  6
CONTINUOUS
 62
     7
  5
106
 10
18.719406
 20
72.0
 30
0.0
 40
5.0
 50
44.403111
 51
141.68375
  0
ARC
  8
LY_1
  6
CONTINUOUS
 62
     7
  5
107
 10
16.936935
 20
70.247055
 30
0.0
 40
7.5
 50
13.078436
 51
44.600442
  0
ARC
  8
LY_1
  6
CONTINUOUS
 62
     7
  5
108
 10
-9.769173
 20
63.687012
 30
0.0
 40
35.0
 50
6.583824
 51
13.934245
  0
ARC
  8
LY_1
  6
CONTINUOUS
 62
     7
  5
109
 10
-9.999998
 20
38.497498
 30
0.0
 40
2.0
 50
272.865911
 51
0.000019
  0
ARC
  8
LY_1
  6
CONTINUOUS
 62
     7
  5
10A
 10
9.999998
 20
38.497498
 30
0.0
 40
2.0
 50
179.999981
 51
267.134071
  0
ARC
  8
LY_1
  6
CONTINUOUS
 62
     7
  5
10B
 10
-13.5
 20
15.324574
 30
0.0
 40
2.0
 50
359.999981
 51
59.999988
  0
ARC
  8
LY_1
  6
CONTINUOUS
 62
     7
  5
10C
 10
-13.0
 20
19.654694
 30
0.0
 40
2.0
 50
180.0002
 51
240.000079
  0
ARC
  8
LY_1
  6
CONTINUOUS
 62
     7
  5
10D
 10
13.5
 20
15.324574
 30
0.0
 40
2.0
 50
120.000031
 51
180.000019
  0
ARC
  8
LY_1
  6
CONTINUOUS
 62
     7
  5
10E
 10
13.0
 20
19.654694
 30
0.0
 40
2.0
 50
299.999903
 51
359.999788
  0
ARC
  8
LY_1
  6
CONTINUOUS
 62
     7
  5
10F
 10
-9.45714
 20
-12.5
 30
0.0
 40
2.0
 50
46.740771
 51
90.000037
  0
ARC
  8
LY_1
  6
CONTINUOUS
 62
     7
  5
110
 10
-10.322268
 20
-12.5
 30
0.0
 40
2.0
 50
90.000037
 51
164.999994
  0
ARC
  8
LY_1
  6
CONTINUOUS
 62
     7
  5
111
 10
9.45714
 20
-12.5
 30
0.0
 40
2.0
 50
89.999982
 51
133.259231
  0
ARC
  8
LY_1
  6
CONTINUOUS
 62
     7
  5
112
 10
10.322268
 20
-12.5
 30
0.0
 40
2.0
 50
15.0
 51
89.999982
  0
ARC
  8
LY_1
  6
CONTINUOUS
 62
     7
  5
113
 10
0.0
 20
-2.45
 30
0.0
 40
11.8
 50
226.740769
 51
313.259195
  0
LINE
  8
LY_1
  6
CONTINUOUS
 62
     7
  5
114
 10
1.386093
 20
1.194534
 30
0.0
 11
1.285446
 21
1.194534
 31
0.0
  0
LINE
  8
LY_1
  6
CONTINUOUS
 62
     7
  5
115
 10
1.385956
 20
6.267593
 30
0.0
 11
1.285309
 21
6.267593
 31
0.0
  0
LINE
  8
LY_1
  6
CONTINUOUS
 62
     7
  5
116
 10
1.385956
 20
6.267593
 30
0.0
 11
1.385956
 21
5.511642
 31
0.0
  0
LINE
  8
LY_1
  6
CONTINUOUS
 62
     7
  5
117
 10
0.804367
 20
4.507065
 30
0.0
 11
0.804367
 21
3.402649
 31
0.0
  0
LINE
  8
LY_1
  6
CONTINUOUS
 62
     7
  5
118
 10
0.804367
 20
4.507065
 30
0.0
 11
-1.285416
 21
4.507065
 31
0.0
  0
LINE
  8
LY_1
  6
CONTINUOUS
 62
     7
  5
119
 10
1.385956
 20
5.511642
 30
0.0
 11
-1.285416
 21
5.511642
 31
0.0
  0
LINE
  8
LY_1
  6
CONTINUOUS
 62
     7
  5
11A
 10
1.787537
 20
6.769867
 30
0.0
 11
1.787537
 21
3.402649
 31
0.0
  0
LINE
  8
LY_1
  6
CONTINUOUS
 62
     7
  5
11B
 10
1.386093
 20
1.194534
 30
0.0
 11
1.386093
 21
-0.748291
 31
0.0
  0
LINE
  8
LY_1
  6
CONTINUOUS
 62
     7
  5
11C
 10
-1.787689
 20
1.890274
 30
0.0
 11
-1.787689
 21
-1.508392
 31
0.0
  0
LINE
  8
LY_1
  6
CONTINUOUS
 62
     7
  5
11D
 10
-0.804459
 20
-1.508392
 30
0.0
 11
-0.804459
 21
0.371002
 31
0.0
  0
LINE
  8
LY_1
  6
CONTINUOUS
 62
     7
  5
11E
 10
0.910067
 20
-1.808669
 30
0.0
 11
-0.772575
 21
0.382284
 31
0.0
  0
LINE
  8
LY_1
  6
CONTINUOUS
 62
     7
  5
11F
 10
1.354172
 20
-0.759585
 30
0.0
 11
-0.909887
 21
2.188427
 31
0.0
  0
LINE
  8
LY_1
  6
CONTINUOUS
 62
     7
  5
120
 10
1.78772
 20
1.696823
 30
0.0
 11
1.78772
 21
-1.510513
 31
0.0
  0
LINE
  8
LY_1
  6
CONTINUOUS
 62
     7
  5
121
 10
-1.285416
 20
8.995575
 30
0.0
 11
1.285446
 21
8.995575
 31
0.0
  0
LINE
  8
LY_1
  6
CONTINUOUS
 62
     7
  5
122
 10
1.285446
 20
7.990997
 30
0.0
 11
-1.285416
 21
7.990997
 31
0.0
  0
LINE
  8
LY_1
  6
CONTINUOUS
 62
     7
  5
123
 10
0.299434
 20
11.676408
 30
0.0
 11
1.024423
 21
10.61198
 31
0.0
  0
LINE
  8
LY_1
  6
CONTINUOUS
 62
     7
  5
124
 10
0.299418
 20
11.676419
 30
0.0
 11
-0.888136
 21
9.932854
 31
0.0
  0
LINE
  8
LY_1
  6
CONTINUOUS
 62
     7
  5
125
 10
0.01459
 20
12.9739
 30
0.0
 11
1.684335
 21
10.522382
 31
0.0
  0
LINE
  8
LY_1
  6
CONTINUOUS
 62
     7
  5
126
 10
-0.014701
 20
12.973879
 30
0.0
 11
-1.706376
 21
10.490164
 31
0.0
  0
LINE
  8
LY_1
  6
CONTINUOUS
 62
     7
  5
127
 10
1.285492
 20
12.995529
 30
0.0
 11
-1.285477
 21
12.995529
 31
0.0
  0
LINE
  8
LY_1
  6
CONTINUOUS
 62
     7
  5
128
 10
1.285492
 20
14.000015
 30
0.0
 11
-1.285477
 21
14.000015
 31
0.0
  0
LINE
  8
LY_1
  6
CONTINUOUS
 62
     7
  5
129
 10
5.898532
 20
119.581214
 30
0.0
 11
6.970998
 21
118.681303
 31
0.0
  0
LINE
  8
LY_1
  6
CONTINUOUS
 62
     7
  5
12A
 10
6.344152
 20
121.57235
 30
0.0
 11
6.978564
 21
121.276516
 31
0.0
  0
LINE
  8
LY_1
  6
CONTINUOUS
 62
     7
  5
12B
 10
8.881819
 20
120.389022
 30
0.0
 11
8.247394
 21
120.684862
 31
0.0
  0
LINE
  8
LY_1
  6
CONTINUOUS
 62
     7
  5
12C
 10
8.272389
 20
123.072022
 30
0.0
 11
6.344157
 21
121.572349
 31
0.0
  0
LINE
  8
LY_1
  6
CONTINUOUS
 62
     7
  5
12D
 10
8.272393
 20
123.07202
 30
0.0
 11
8.881815
 21
120.38902
 31
0.0
  0
LINE
  8
LY_1
  6
CONTINUOUS
 62
     7
  5
12E
 10
-5.898534
 20
119.581193
 30
0.0
 11
-6.971
 21
118.681281
 31
0.0
  0
LINE
  8
LY_1
  6
CONTINUOUS
 62
     7
  5
12F
 10
-6.344172
 20
121.572357
 30
0.0
 11
-6.978584
 21
121.276523
 31
0.0
  0
LINE
  8
LY_1
  6
CONTINUOUS
 62
     7
  5
130
 10
-8.881819
 20
120.389022
 30
0.0
 11
-8.247407
 21
120.684856
 31
0.0
  0
LINE
  8
LY_1
  6
CONTINUOUS
 62
     7
  5
131
 10
-8.272401
 20
123.072031
 30
0.0
 11
-6.344169
 21
121.572359
 31
0.0
  0
LINE
  8
LY_1
  6
CONTINUOUS
 62
     7
  5
132
 10
-8.272393
 20
123.07202
 30
0.0
 11
-8.881815
 21
120.38902
 31
0.0
  0
LINE
  8
LY_1
  6
CONTINUOUS
 62
     7
  5
133
 10
1.870743
 20
133.28064
 30
0.0
 11
1.870743
 21
133.242172
 31
0.0
  0
LINE
  8
LY_1
  6
CONTINUOUS
 62
     7
  5
134
 10
2.365143
 20
133.324753
 30
0.0
 11
2.365143
 21
133.263168
 31
0.0
  0
LINE
  8
LY_1
  6
CONTINUOUS
 62
     7
  5
135
 10
-0.131714
 20
133.324692
 30
0.0
 11
-0.131714
 21
133.263092
 31
0.0
  0
LINE
  8
LY_1
  6
CONTINUOUS
 62
     7
  5
136
 10
-0.626099
 20
133.280579
 30
0.0
 11
-0.626099
 21
133.242096
 31
0.0
  0
LINE
  8
LY_1
  6
CONTINUOUS
 62
     7
  5
137
 10
-0.979996
 20
133.313492
 30
0.0
 11
-0.979996
 21
131.707886
 31
0.0
  0
LINE
  8
LY_1
  6
CONTINUOUS
 62
     7
  5
138
 10
-1.47438
 20
133.313492
 30
0.0
 11
-1.47438
 21
131.707886
 31
0.0
  0
LINE
  8
LY_1
  6
CONTINUOUS
 62
     7
  5
139
 10
-1.826492
 20
133.280685
 30
0.0
 11
-1.826492
 21
133.263321
 31
0.0
  0
LINE
  8
LY_1
  6
CONTINUOUS
 62
     7
  5
13A
 10
-0.131714
 20
133.324692
 30
0.0
 11
0.240372
 21
133.324692
 31
0.0
  0
LINE
  8
LY_1
  6
CONTINUOUS
 62
     7
  5
13B
 10
0.734802
 20
132.983109
 30
0.0
 11
1.231613
 21
132.983109
 31
0.0
  0
LINE
  8
LY_1
  6
CONTINUOUS
 62
     7
  5
13C
 10
0.734802
 20
132.983109
 30
0.0
 11
0.734802
 21
131.707886
 31
0.0
  0
LINE
  8
LY_1
  6
CONTINUOUS
 62
     7
  5
13D
 10
0.240372
 20
133.324692
 30
0.0
 11
0.240372
 21
131.707886
 31
0.0
  0
LINE
  8
LY_1
  6
CONTINUOUS
 62
     7
  5
13E
 10
-0.3461
 20
133.560562
 30
0.0
 11
1.231613
 21
133.560562
 31
0.0
  0
LINE
  8
LY_1
  6
CONTINUOUS
 62
     7
  5
13F
 10
2.365143
 20
133.324783
 30
0.0
 11
3.320435
 21
133.324783
 31
0.0
  0
LINE
  8
LY_1
  6
CONTINUOUS
 62
     7
  5
140
 10
2.079895
 20
131.460678
 30
0.0
 11
3.648743
 21
131.460678
 31
0.0
  0
LINE
  8
LY_1
  6
CONTINUOUS
 62
     7
  5
141
 10
3.648743
 20
132.038177
 30
0.0
 11
2.77153
 21
132.038177
 31
0.0
  0
LINE
  8
LY_1
  6
CONTINUOUS
 62
     7
  5
142
 10
3.840807
 20
133.042884
 30
0.0
 11
2.764442
 21
132.056424
 31
0.0
  0
LINE
  8
LY_1
  6
CONTINUOUS
 62
     7
  5
143
 10
3.327522
 20
133.306534
 30
0.0
 11
1.876415
 21
131.976631
 31
0.0
  0
LINE
  8
LY_1
  6
CONTINUOUS
 62
     7
  5
144
 10
2.150757
 20
133.560669
 30
0.0
 11
3.639435
 21
133.560669
 31
0.0
  0
LINE
  8
LY_1
  6
CONTINUOUS
 62
     7
  5
145
 10
-2.79385
 20
132.686526
 30
0.0
 11
-2.284703
 21
133.100354
 31
0.0
  0
LINE
  8
LY_1
  6
CONTINUOUS
 62
     7
  5
146
 10
-2.793872
 20
132.686512
 30
0.0
 11
-1.904787
 21
131.963875
 31
0.0
  0
LINE
  8
LY_1
  6
CONTINUOUS
 62
     7
  5
147
 10
-3.43245
 20
132.519256
 30
0.0
 11
-2.21446
 21
133.509223
 31
0.0
  0
LINE
  8
LY_1
  6
CONTINUOUS
 62
     7
  5
148
 10
-3.432453
 20
132.50205
 30
0.0
 11
-2.249109
 21
131.540243
 31
0.0
  0
LINE
  8
LY_1
  6
CONTINUOUS
 62
     7
  5
149
 10
-3.443115
 20
133.313477
 30
0.0
 11
-3.443115
 21
131.70787
 31
0.0
  0
LINE
  8
LY_1
  6
CONTINUOUS
 62
     7
  5
14A
 10
-3.937515
 20
133.313477
 30
0.0
 11
-3.937515
 21
131.70787
 31
0.0
  0
LINE
  8
LY_1
  6
CONTINUOUS
 62
     7
  5
14B
 10
-8.393784
 20
125.025499
 30
0.0
 11
-8.579268
 21
123.973566
 31
0.0
  0
LINE
  8
LY_1
  6
CONTINUOUS
 62
     7
  5
14C
 10
-8.186968
 20
124.989032
 30
0.0
 11
-8.372452
 21
123.937099
 31
0.0
  0
LINE
  8
LY_1
  6
CONTINUOUS
 62
     7
  5
14D
 10
-12.186266
 20
136.030685
 30
0.0
 11
-15.624004
 21
136.030685
 31
0.0
  0
LINE
  8
LY_1
  6
CONTINUOUS
 62
     7
  5
14E
 10
-12.186266
 20
113.030685
 30
0.0
 11
-15.624003
 21
113.030685
 31
0.0
  0
LINE
  8
LY_1
  6
CONTINUOUS
 62
     7
  5
14F
 10
12.186266
 20
136.030685
 30
0.0
 11
15.624003
 21
136.030685
 31
0.0
  0
LINE
  8
LY_1
  6
CONTINUOUS
 62
     7
  5
150
 10
18.192688
 20
113.030685
 30
0.0
 11
19.0
 21
113.030685
 31
0.0
  0
LINE
  8
LY_1
  6
CONTINUOUS
 62
     7
  5
151
 10
82.121613
 20
36.5
 30
0.0
 11
82.121613
 21
31.0
 31
0.0
  0
LINE
  8
LY_1
  6
CONTINUOUS
 62
     7
  5
152
 10
82.121613
 20
54.0
 30
0.0
 11
82.121613
 21
43.5
 31
0.0
  0
LINE
  8
LY_1
  6
CONTINUOUS
 62
     7
  5
153
 10
66.621613
 20
30.290085
 30
0.0
 11
97.621613
 21
30.290085
 31
0.0
  0
LINE
  8
LY_1
  6
CONTINUOUS
 62
     7
  5
154
 10
-15.5
 20
30.388351
 30
0.0
 11
15.5
 21
30.388351
 31
0.0
  0
LINE
  8
LY_1
  6
CONTINUOUS
 62
     7
  5
155
 10
-18.19269
 20
113.030685
 30
0.0
 11
-19.000002
 21
113.030685
 31
0.0
  0
LINE
  8
LY_1
  6
CONTINUOUS
 62
     7
  5
156
 10
-19.000002
 20
113.030685
 30
0.0
 11
-19.000002
 21
114.431503
 31
0.0
  0
LINE
  8
LY_1
  6
CONTINUOUS
 62
     7
  5
157
 10
-18.19269
 20
136.030685
 30
0.0
 11
-19.000002
 21
136.030685
 31
0.0
  0
LINE
  8
LY_1
  6
CONTINUOUS
 62
     7
  5
158
 10
-19.000002
 20
136.030685
 30
0.0
 11
-19.000002
 21
134.629867
 31
0.0
  0
LINE
  8
LY_1
  6
CONTINUOUS
 62
     7
  5
159
 10
12.186266
 20
113.030685
 30
0.0
 11
15.624003
 21
113.030685
 31
0.0
  0
LINE
  8
LY_1
  6
CONTINUOUS
 62
     7
  5
15A
 10
19.0
 20
113.030685
 30
0.0
 11
19.0
 21
114.431503
 31
0.0
  0
LINE
  8
LY_1
  6
CONTINUOUS
 62
     7
  5
15B
 10
18.192688
 20
136.030685
 30
0.0
 11
19.0
 21
136.030685
 31
0.0
  0
LINE
  8
LY_1
  6
CONTINUOUS
 62
     7
  5
15C
 10
19.0
 20
136.030685
 30
0.0
 11
19.0
 21
134.629868
 31
0.0
  0
LINE
  8
LY_1
  6
CENTER
 62
     7
  5
15E
 10
-24.0
 20
0.0
 30
0.0
 11
24.0
 21
0.0
 31
0.0
  0
LINE
  8
LY_1
  6
CONTINUOUS
 62
     7
  5
15F
 10
-11.5
 20
15.324574
 30
0.0
 11
-11.5
 21
9.610923
 31
0.0
  0
LINE
  8
LY_1
  6
CONTINUOUS
 62
     7
  5
160
 10
-19.0
 20
12.5
 30
0.0
 11
-13.5
 21
12.5
 31
0.0
  0
LINE
  8
LY_1
  6
CONTINUOUS
 62
     7
  5
161
 10
13.5
 20
12.5
 30
0.0
 11
19.0
 21
12.5
 31
0.0
  0
LINE
  8
LY_1
  6
CONTINUOUS
 62
     7
  5
162
 10
-12.5
 20
6.639528
 30
0.0
 11
-19.0
 21
6.639528
 31
0.0
  0
LINE
  8
LY_1
  6
CONTINUOUS
 62
     7
  5
163
 10
12.5
 20
6.639528
 30
0.0
 11
19.0
 21
6.639528
 31
0.0
  0
LINE
  8
LY_1
  6
CONTINUOUS
 62
     7
  5
164
 10
-12.5
 20
-6.639528
 30
0.0
 11
-19.0
 21
-6.639528
 31
0.0
  0
LINE
  8
LY_1
  6
CONTINUOUS
 62
     7
  5
165
 10
12.5
 20
-6.639528
 30
0.0
 11
19.0
 21
-6.639528
 31
0.0
  0
LINE
  8
LY_1
  6
CONTINUOUS
 62
     7
  5
166
 10
80.621613
 20
16.479279
 30
0.0
 11
80.621613
 21
12.413031
 31
0.0
  0
LINE
  8
LY_1
  6
CONTINUOUS
 62
     7
  5
167
 10
80.772247
 20
12.5
 30
0.0
 11
83.470978
 21
12.5
 31
0.0
  0
LINE
  8
LY_1
  6
CONTINUOUS
 62
     7
  5
168
 10
83.621613
 20
16.5
 30
0.0
 11
83.621613
 21
12.413031
 31
0.0
  0
LINE
  8
LY_1
  6
CONTINUOUS
 62
     7
  5
169
 10
67.121613
 20
26.0
 30
0.0
 11
67.121613
 21
20.5
 31
0.0
  0
LINE
  8
LY_1
  6
CONTINUOUS
 62
     7
  5
16A
 10
70.154599
 20
16.636094
 30
0.0
 11
70.322059
 21
-2.552972
 31
0.0
  0
LINE
  8
LY_1
  6
CONTINUOUS
 62
     7
  5
16B
 10
66.621613
 20
28.0
 30
0.0
 11
97.621613
 21
28.0
 31
0.0
  0
LINE
  8
LY_1
  6
CONTINUOUS
 62
     7
  5
16C
 10
66.621613
 20
30.290085
 30
0.0
 11
66.621613
 21
26.0
 31
0.0
  0
LINE
  8
LY_1
  6
CONTINUOUS
 62
     7
  5
16D
 10
97.121613
 20
26.0
 30
0.0
 11
97.121613
 21
20.5
 31
0.0
  0
LINE
  8
LY_1
  6
CONTINUOUS
 62
     7
  5
16E
 10
97.621613
 20
30.290085
 30
0.0
 11
97.621613
 21
26.0
 31
0.0
  0
LINE
  8
LY_1
  6
CONTINUOUS
 62
     7
  5
16F
 10
69.121613
 20
18.5
 30
0.0
 11
95.121613
 21
18.5
 31
0.0
  0
LINE
  8
LY_1
  6
CONTINUOUS
 62
     7
  5
170
 10
66.621613
 20
26.0
 30
0.0
 11
97.621613
 21
26.0
 31
0.0
  0
LINE
  8
LY_1
  6
CONTINUOUS
 62
     7
  5
171
 10
94.088622
 20
16.636093
 30
0.0
 11
93.921162
 21
-2.552972
 31
0.0
  0
LINE
  8
LY_1
  6
CONTINUOUS
 62
     7
  5
172
 10
70.621611
 20
6.639528
 30
0.0
 11
80.772249
 21
12.500002
 31
0.0
  0
LINE
  8
LY_1
  6
CONTINUOUS
 62
     7
  5
173
 10
82.121611
 20
-13.279056
 30
0.0
 11
93.621608
 21
-6.639529
 31
0.0
  0
LINE
  8
LY_1
  6
CONTINUOUS
 62
     7
  5
174
 10
83.47097
 20
12.500003
 30
0.0
 11
93.621608
 21
6.639529
 31
0.0
  0
LINE
  8
LY_1
  6
CONTINUOUS
 62
     7
  5
175
 10
70.621611
 20
-6.639528
 30
0.0
 11
82.121608
 21
-13.279054
 31
0.0
  0
LINE
  8
LY_1
  6
CONTINUOUS
 62
     7
  5
176
 10
93.621613
 20
6.639528
 30
0.0
 11
93.621613
 21
-6.639528
 31
0.0
  0
LINE
  8
LY_1
  6
CONTINUOUS
 62
     7
  5
177
 10
70.621613
 20
6.639528
 30
0.0
 11
70.621613
 21
-6.639528
 31
0.0
  0
LINE
  8
LY_1
  6
CENTER
 62
     7
  5
178
 10
65.501221
 20
0.0
 30
0.0
 11
98.742004
 21
0.0
 31
0.0
  0
LINE
  8
LY_1
  6
CENTER
 62
     7
  5
179
 10
82.121613
 20
82.0
 30
0.0
 11
82.121613
 21
-19.25
 31
0.0
  0
LINE
  8
LY_1
  6
CONTINUOUS
 62
     7
  5
17A
 10
97.621614
 20
30.290082
 30
0.0
 11
91.121621
 21
31.000034
 31
0.0
  0
LINE
  8
LY_1
  6
CONTINUOUS
 62
     7
  5
17B
 10
91.121613
 20
36.5
 30
0.0
 11
91.121613
 21
31.0
 31
0.0
  0
LINE
  8
LY_1
  6
CONTINUOUS
 62
     7
  5
17C
 10
90.121613
 20
43.5
 30
0.0
 11
90.121613
 21
38.232056
 31
0.0
  0
LINE
  8
LY_1
  6
CONTINUOUS
 62
     7
  5
17D
 10
66.621611
 20
30.290079
 30
0.0
 11
73.121604
 21
31.000031
 31
0.0
  0
LINE
  8
LY_1
  6
CONTINUOUS
 62
     7
  5
17E
 10
73.121613
 20
36.5
 30
0.0
 11
73.121613
 21
31.0
 31
0.0
  0
LINE
  8
LY_1
  6
CONTINUOUS
 62
     7
  5
17F
 10
74.771606
 20
43.5
 30
0.0
 11
74.771606
 21
38.5
 31
0.0
  0
LINE
  8
LY_1
  6
CONTINUOUS
 62
     7
  5
180
 10
89.471619
 20
43.5
 30
0.0
 11
89.471619
 21
38.5
 31
0.0
  0
LINE
  8
LY_1
  6
CONTINUOUS
 62
     7
  5
181
 10
74.121613
 20
43.5
 30
0.0
 11
74.121613
 21
38.232056
 31
0.0
  0
LINE
  8
LY_1
  6
CONTINUOUS
 62
     7
  5
182
 10
74.121613
 20
38.5
 30
0.0
 11
90.121613
 21
38.5
 31
0.0
  0
LINE
  8
LY_1
  6
CONTINUOUS
 62
     7
  5
183
 10
73.121613
 20
36.5
 30
0.0
 11
91.121613
 21
36.5
 31
0.0
  0
LINE
  8
LY_1
  6
CONTINUOUS
 62
     7
  5
184
 10
73.121613
 20
31.0
 30
0.0
 11
91.121613
 21
31.0
 31
0.0
  0
LINE
  8
LY_1
  6
CONTINUOUS
 62
     7
  5
185
 10
-7.35
 20
43.5
 30
0.0
 11
-7.35
 21
38.5
 31
0.0
  0
LINE
  8
LY_1
  6
CONTINUOUS
 62
     7
  5
186
 10
7.35
 20
43.5
 30
0.0
 11
7.35
 21
38.5
 31
0.0
  0
LINE
  8
LY_1
  6
CONTINUOUS
 62
     7
  5
187
 10
-15.814388
 20
65.800017
 30
0.0
 11
-15.980618
 21
67.700016
 31
0.0
  0
LINE
  8
LY_1
  6
CENTER
 62
     7
  5
188
 10
0.0
 20
94.53067
 30
0.0
 11
0.0
 21
154.530701
 31
0.0
  0
LINE
  8
LY_1
  6
CONTINUOUS
 62
     7
  5
189
 10
-5.49993
 20
124.530767
 30
0.0
 11
-2.749918
 21
119.767618
 31
0.0
  0
LINE
  8
LY_1
  6
CONTINUOUS
 62
     7
  5
18A
 10
5.499944
 20
124.53076
 30
0.0
 11
2.749931
 21
119.76761
 31
0.0
  0
LINE
  8
LY_1
  6
CONTINUOUS
 62
     7
  5
18B
 10
-2.750003
 20
119.767548
 30
0.0
 11
2.749994
 21
119.767548
 31
0.0
  0
LINE
  8
LY_1
  6
CONTINUOUS
 62
     7
  5
18C
 10
-5.500068
 20
124.530744
 30
0.0
 11
-2.750055
 21
129.293894
 31
0.0
  0
LINE
  8
LY_1
  6
CONTINUOUS
 62
     7
  5
18D
 10
5.500081
 20
124.530751
 30
0.0
 11
2.750069
 21
129.293901
 31
0.0
  0
LINE
  8
LY_1
  6
CONTINUOUS
 62
     7
  5
18E
 10
-2.750003
 20
129.293823
 30
0.0
 11
2.749994
 21
129.293823
 31
0.0
  0
LINE
  8
LY_1
  6
CONTINUOUS
 62
     7
  5
18F
 10
-3.282513
 20
111.74547
 30
0.0
 11
-1.65848
 21
114.162624
 31
0.0
  0
LINE
  8
LY_1
  6
CONTINUOUS
 62
     7
  5
190
 10
12.713681
 20
120.980581
 30
0.0
 11
9.808363
 21
120.782705
 31
0.0
  0
LINE
  8
LY_1
  6
CONTINUOUS
 62
     7
  5
191
 10
-9.431143
 20
133.766223
 30
0.0
 11
-8.149843
 21
131.151192
 31
0.0
  0
LINE
  8
LY_1
  6
CONTINUOUS
 62
     7
  5
192
 10
-9.431258
 20
115.29549
 30
0.0
 11
-8.149971
 21
117.910493
 31
0.0
  0
LINE
  8
LY_1
  6
CONTINUOUS
 62
     7
  5
193
 10
12.713646
 20
128.080575
 30
0.0
 11
9.808331
 21
128.278451
 31
0.0
  0
LINE
  8
LY_1
  6
CONTINUOUS
 62
     7
  5
194
 10
-3.282411
 20
137.316159
 30
0.0
 11
-1.658387
 21
134.899018
 31
0.0
  0
LINE
  8
LY_1
  6
CONTINUOUS
 62
     7
  5
195
 10
-5.291278
 20
105.866109
 30
0.0
 11
-4.341643
 21
107.713829
 31
0.0
  0
LINE
  8
LY_1
  6
CONTINUOUS
 62
     7
  5
196
 10
5.291336
 20
105.866131
 30
0.0
 11
4.341693
 21
107.713864
 31
0.0
  0
LINE
  8
LY_1
  6
CONTINUOUS
 62
     7
  5
197
 10
-5.290966
 20
143.195105
 30
0.0
 11
-4.341331
 21
141.347385
 31
0.0
  0
LINE
  8
LY_1
  6
CONTINUOUS
 62
     7
  5
198
 10
5.290939
 20
143.195114
 30
0.0
 11
4.341296
 21
141.347381
 31
0.0
  0
LINE
  8
LY_1
  6
CONTINUOUS
 62
     7
  5
199
 10
13.518383
 20
110.61599
 30
0.0
 11
12.393028
 21
112.362258
 31
0.0
  0
LINE
  8
LY_1
  6
CONTINUOUS
 62
     7
  5
19A
 10
18.809494
 20
119.780715
 30
0.0
 11
16.734489
 21
119.882167
 31
0.0
  0
LINE
  8
LY_1
  6
CONTINUOUS
 62
     7
  5
19B
 10
13.518375
 20
138.444984
 30
0.0
 11
12.39302
 21
136.698716
 31
0.0
  0
LINE
  8
LY_1
  6
CONTINUOUS
 62
     7
  5
19C
 10
18.809466
 20
129.280702
 30
0.0
 11
16.73446
 21
129.17925
 31
0.0
  0
LINE
  8
LY_1
  6
CONTINUOUS
 62
     7
  5
19D
 10
-13.518391
 20
110.615977
 30
0.0
 11
-12.393036
 21
112.362245
 31
0.0
  0
LINE
  8
LY_1
  6
CONTINUOUS
 62
     7
  5
19E
 10
-18.809494
 20
119.780715
 30
0.0
 11
-16.734489
 21
119.882167
 31
0.0
  0
LINE
  8
LY_1
  6
CONTINUOUS
 62
     7
  5
19F
 10
-13.518375
 20
138.444984
 30
0.0
 11
-12.39302
 21
136.698716
 31
0.0
  0
LINE
  8
LY_1
  6
CONTINUOUS
 62
     7
  5
1A0
 10
-18.809468
 20
129.280701
 30
0.0
 11
-16.734462
 21
129.179249
 31
0.0
  0
LINE
  8
LY_1
  6
CENTER
 62
     7
  5
1A1
 10
-30.000015
 20
124.530685
 30
0.0
 11
30.000015
 21
124.530685
 31
0.0
  0
LINE
  8
LY_1
  6
CONTINUOUS
 62
     7
  5
1A2
 10
77.121613
 20
72.0
 30
0.0
 11
77.121613
 21
70.900009
 31
0.0
  0
LINE
  8
LY_1
  6
CONTINUOUS
 62
     7
  5
1A3
 10
76.121613
 20
69.900009
 30
0.0
 11
66.91124
 21
69.900009
 31
0.0
  0
LINE
  8
LY_1
  6
CONTINUOUS
 62
     7
  5
1A4
 10
77.10141
 20
70.699997
 30
0.0
 11
66.003357
 21
70.699997
 31
0.0
  0
LINE
  8
LY_1
  6
CONTINUOUS
 62
     7
  5
1A5
 10
77.293564
 20
73.300003
 30
0.0
 11
67.91124
 21
73.300003
 31
0.0
  0
LINE
  8
LY_1
  6
CONTINUOUS
 62
     7
  5
1A6
 10
65.91124
 20
71.300003
 30
0.0
 11
65.91124
 21
70.900009
 31
0.0
  0
LINE
  8
LY_1
  6
CONTINUOUS
 62
     7
  5
1A7
 10
78.198608
 20
75.100006
 30
0.0
 11
69.924332
 21
75.100006
 31
0.0
  0
LINE
  8
LY_1
  6
CONTINUOUS
 62
     7
  5
1A8
 10
59.886963
 20
65.800051
 30
0.0
 11
59.720733
 21
67.70005
 31
0.0
  0
LINE
  8
LY_1
  6
CONTINUOUS
 62
     7
  5
1A9
 10
87.121613
 20
72.0
 30
0.0
 11
87.121613
 21
70.900009
 31
0.0
  0
LINE
  8
LY_1
  6
CONTINUOUS
 62
     7
  5
1AA
 10
88.121613
 20
69.900009
 30
0.0
 11
97.331985
 21
69.900009
 31
0.0
  0
LINE
  8
LY_1
  6
CONTINUOUS
 62
     7
  5
1AB
 10
87.141815
 20
70.699997
 30
0.0
 11
98.239868
 21
70.699997
 31
0.0
  0
LINE
  8
LY_1
  6
CONTINUOUS
 62
     7
  5
1AC
 10
86.949661
 20
73.300003
 30
0.0
 11
96.331985
 21
73.300003
 31
0.0
  0
LINE
  8
LY_1
  6
CONTINUOUS
 62
     7
  5
1AD
 10
98.331985
 20
71.300003
 30
0.0
 11
98.331985
 21
70.900009
 31
0.0
  0
LINE
  8
LY_1
  6
CONTINUOUS
 62
     7
  5
1AE
 10
86.044617
 20
75.100006
 30
0.0
 11
94.318893
 21
75.100006
 31
0.0
  0
LINE
  8
LY_1
  6
CONTINUOUS
 62
     7
  5
1AF
 10
104.356277
 20
65.799958
 30
0.0
 11
104.522507
 21
67.699957
 31
0.0
  0
LINE
  8
LY_1
  6
CONTINUOUS
 62
     7
  5
1B0
 10
78.121612
 20
54.000001
 30
0.0
 11
78.121612
 21
62.000001
 31
0.0
  0
LINE
  8
LY_1
  6
CONTINUOUS
 62
     7
  5
1B1
 10
86.121612
 20
54.000001
 30
0.0
 11
86.121612
 21
62.000001
 31
0.0
  0
LINE
  8
LY_1
  6
CONTINUOUS
 62
     7
  5
1B2
 10
75.016816
 20
63.999983
 30
0.0
 11
71.899119
 21
65.799986
 31
0.0
  0
LINE
  8
LY_1
  6
CONTINUOUS
 62
     7
  5
1B3
 10
89.226471
 20
64.000016
 30
0.0
 11
92.344167
 21
65.800019
 31
0.0
  0
LINE
  8
LY_1
  6
CONTINUOUS
 62
     7
  5
1B4
 10
59.720718
 20
67.699997
 30
0.0
 11
104.522507
 21
67.699997
 31
0.0
  0
LINE
  8
LY_1
  6
CONTINUOUS
 62
     7
  5
1B5
 10
74.922458
 20
65.800025
 30
0.0
 11
75.121607
 21
62.000034
 31
0.0
  0
LINE
  8
LY_1
  6
CONTINUOUS
 62
     7
  5
1B6
 10
89.320752
 20
65.799964
 30
0.0
 11
89.121602
 21
61.999972
 31
0.0
  0
LINE
  8
LY_1
  6
CONTINUOUS
 62
     7
  5
1B7
 10
59.886948
 20
65.800003
 30
0.0
 11
104.356277
 21
65.800003
 31
0.0
  0
LINE
  8
LY_1
  6
CONTINUOUS
 62
     7
  5
1B8
 10
75.121628
 20
62.0
 30
0.0
 11
89.121628
 21
62.0
 31
0.0
  0
LINE
  8
LY_1
  6
CONTINUOUS
 62
     7
  5
1B9
 10
91.121613
 20
54.0
 30
0.0
 11
91.121613
 21
43.5
 31
0.0
  0
LINE
  8
LY_1
  6
CONTINUOUS
 62
     7
  5
1BA
 10
73.121613
 20
54.0
 30
0.0
 11
73.121613
 21
43.5
 31
0.0
  0
LINE
  8
LY_1
  6
CONTINUOUS
 62
     7
  5
1BB
 10
73.121613
 20
43.5
 30
0.0
 11
91.121613
 21
43.5
 31
0.0
  0
LINE
  8
LY_1
  6
CONTINUOUS
 62
     7
  5
1BC
 10
73.121613
 20
54.0
 30
0.0
 11
91.121613
 21
54.0
 31
0.0
  0
LINE
  8
LY_1
  6
CONTINUOUS
 62
     7
  5
1BD
 10
-15.655567
 20
69.900009
 30
0.0
 11
-17.809495
 21
69.900009
 31
0.0
  0
LINE
  8
LY_1
  6
CONTINUOUS
 62
     7
  5
1BE
 10
-15.501632
 20
70.699997
 30
0.0
 11
-18.717378
 21
70.699997
 31
0.0
  0
LINE
  8
LY_1
  6
CONTINUOUS
 62
     7
  5
1BF
 10
-14.768041
 20
73.300003
 30
0.0
 11
-16.809495
 21
73.300003
 31
0.0
  0
LINE
  8
LY_1
  6
CONTINUOUS
 62
     7
  5
1C0
 10
-18.809495
 20
71.300003
 30
0.0
 11
-18.809495
 21
70.900009
 31
0.0
  0
LINE
  8
LY_1
  6
CONTINUOUS
 62
     7
  5
1C1
 10
-9.790092
 20
71.300003
 30
0.0
 11
-9.790092
 21
70.900009
 31
0.0
  0
LINE
  8
LY_1
  6
CONTINUOUS
 62
     7
  5
1C2
 10
-13.635827
 20
75.100006
 30
0.0
 11
-14.796396
 21
75.100006
 31
0.0
  0
LINE
  8
LY_1
  6
CONTINUOUS
 62
     7
  5
1C3
 10
15.655566
 20
69.900009
 30
0.0
 11
17.809494
 21
69.900009
 31
0.0
  0
LINE
  8
LY_1
  6
CONTINUOUS
 62
     7
  5
1C4
 10
15.501631
 20
70.699997
 30
0.0
 11
18.717377
 21
70.699997
 31
0.0
  0
LINE
  8
LY_1
  6
CONTINUOUS
 62
     7
  5
1C5
 10
14.76804
 20
73.300003
 30
0.0
 11
16.809494
 21
73.300003
 31
0.0
  0
LINE
  8
LY_1
  6
CONTINUOUS
 62
     7
  5
1C6
 10
18.809494
 20
71.300003
 30
0.0
 11
18.809494
 21
70.900009
 31
0.0
  0
LINE
  8
LY_1
  6
CONTINUOUS
 62
     7
  5
1C7
 10
-8.790092
 20
69.900009
 30
0.0
 11
8.790091
 21
69.900009
 31
0.0
  0
LINE
  8
LY_1
  6
CONTINUOUS
 62
     7
  5
1C8
 10
-9.790092
 20
70.699997
 30
0.0
 11
9.697973
 21
70.699997
 31
0.0
  0
LINE
  8
LY_1
  6
CONTINUOUS
 62
     7
  5
1C9
 10
-7.790092
 20
73.300003
 30
0.0
 11
7.790091
 21
73.300003
 31
0.0
  0
LINE
  8
LY_1
  6
CONTINUOUS
 62
     7
  5
1CA
 10
9.790091
 20
71.300003
 30
0.0
 11
9.790091
 21
70.900009
 31
0.0
  0
LINE
  8
LY_1
  6
CONTINUOUS
 62
     7
  5
1CB
 10
13.635826
 20
75.100006
 30
0.0
 11
14.796394
 21
75.100006
 31
0.0
  0
LINE
  8
LY_1
  6
CONTINUOUS
 62
     7
  5
1CC
 10
-5.777001
 20
75.100006
 30
0.0
 11
5.777
 21
75.100006
 31
0.0
  0
LINE
  8
LY_1
  6
CONTINUOUS
 62
     7
  5
1CD
 10
15.814387
 20
65.800017
 30
0.0
 11
15.980617
 21
67.700016
 31
0.0
  0
LINE
  8
LY_1
  6
CONTINUOUS
 62
     7
  5
1CE
 10
24.833775
 20
65.800022
 30
0.0
 11
25.000005
 21
67.700021
 31
0.0
  0
LINE
  8
LY_1
  6
CONTINUOUS
 62
     7
  5
1CF
 10
-4.900006
 20
54.0
 30
0.0
 11
-4.900006
 21
43.5
 31
0.0
  0
LINE
  8
LY_1
  6
CONTINUOUS
 62
     7
  5
1D0
 10
4.900005
 20
54.0
 30
0.0
 11
4.900005
 21
43.5
 31
0.0
  0
LINE
  8
LY_1
  6
CONTINUOUS
 62
     7
  5
1D1
 10
-4.0
 20
54.0
 30
0.0
 11
-4.0
 21
62.0
 31
0.0
  0
LINE
  8
LY_1
  6
CONTINUOUS
 62
     7
  5
1D2
 10
4.0
 20
54.0
 30
0.0
 11
4.0
 21
62.0
 31
0.0
  0
LINE
  8
LY_1
  6
CONTINUOUS
 62
     7
  5
1D3
 10
-7.104838
 20
64.000026
 30
0.0
 11
-10.222535
 21
65.800029
 31
0.0
  0
LINE
  8
LY_1
  6
CONTINUOUS
 62
     7
  5
1D4
 10
7.104825
 20
64.000019
 30
0.0
 11
10.222522
 21
65.800022
 31
0.0
  0
LINE
  8
LY_1
  6
CONTINUOUS
 62
     7
  5
1D5
 10
-24.999987
 20
67.699989
 30
0.0
 11
-24.833758
 21
65.79999
 31
0.0
  0
LINE
  8
LY_1
  6
CONTINUOUS
 62
     7
  5
1D6
 10
-24.999985
 20
67.699997
 30
0.0
 11
25.000015
 21
67.699997
 31
0.0
  0
LINE
  8
LY_1
  6
CONTINUOUS
 62
     7
  5
1D7
 10
-7.199141
 20
65.799995
 30
0.0
 11
-6.999992
 21
62.000003
 31
0.0
  0
LINE
  8
LY_1
  6
CONTINUOUS
 62
     7
  5
1D8
 10
7.199156
 20
65.799994
 30
0.0
 11
7.000007
 21
62.000003
 31
0.0
  0
LINE
  8
LY_1
  6
CONTINUOUS
 62
     7
  5
1D9
 10
-24.833755
 20
65.800003
 30
0.0
 11
24.833786
 21
65.800003
 31
0.0
  0
LINE
  8
LY_1
  6
CONTINUOUS
 62
     7
  5
1DA
 10
-6.999992
 20
62.0
 30
0.0
 11
7.000008
 21
62.0
 31
0.0
  0
LINE
  8
LY_1
  6
CONTINUOUS
 62
     7
  5
1DB
 10
-9.799993
 20
54.0
 30
0.0
 11
-9.799993
 21
43.5
 31
0.0
  0
LINE
  8
LY_1
  6
CONTINUOUS
 62
     7
  5
1DC
 10
9.800008
 20
54.0
 30
0.0
 11
9.800008
 21
43.5
 31
0.0
  0
LINE
  8
LY_1
  6
CONTINUOUS
 62
     7
  5
1DD
 10
-9.799993
 20
43.5
 30
0.0
 11
9.800008
 21
43.5
 31
0.0
  0
LINE
  8
LY_1
  6
CONTINUOUS
 62
     7
  5
1DE
 10
-9.799993
 20
54.0
 30
0.0
 11
9.800008
 21
54.0
 31
0.0
  0
LINE
  8
LY_1
  6
CONTINUOUS
 62
     7
  5
1DF
 10
-8.0
 20
43.5
 30
0.0
 11
-8.0
 21
38.5
 31
0.0
  0
LINE
  8
LY_1
  6
CONTINUOUS
 62
     7
  5
1E0
 10
8.0
 20
43.5
 30
0.0
 11
8.0
 21
38.5
 31
0.0
  0
LINE
  8
LY_1
  6
CONTINUOUS
 62
     7
  5
1E1
 10
-8.0
 20
38.5
 30
0.0
 11
8.0
 21
38.5
 31
0.0
  0
LINE
  8
LY_1
  6
CONTINUOUS
 62
     7
  5
1E2
 10
5.196153
 20
36.5
 30
0.0
 11
5.196153
 21
31.0
 31
0.0
  0
LINE
  8
LY_1
  6
CONTINUOUS
 62
     7
  5
1E3
 10
15.499999
 20
30.388349
 30
0.0
 11
9.9
 21
31.0
 31
0.0
  0
LINE
  8
LY_1
  6
CONTINUOUS
 62
     7
  5
1E4
 10
9.9
 20
36.5
 30
0.0
 11
9.9
 21
31.0
 31
0.0
  0
LINE
  8
LY_1
  6
CONTINUOUS
 62
     7
  5
1E5
 10
-5.196153
 20
36.5
 30
0.0
 11
-5.196153
 21
31.0
 31
0.0
  0
LINE
  8
LY_1
  6
CONTINUOUS
 62
     7
  5
1E6
 10
-9.9
 20
36.5
 30
0.0
 11
9.9
 21
36.5
 31
0.0
  0
LINE
  8
LY_1
  6
CONTINUOUS
 62
     7
  5
1E7
 10
-15.499999
 20
30.388349
 30
0.0
 11
-9.9
 21
31.0
 31
0.0
  0
LINE
  8
LY_1
  6
CONTINUOUS
 62
     7
  5
1E8
 10
-9.9
 20
36.5
 30
0.0
 11
-9.9
 21
31.0
 31
0.0
  0
LINE
  8
LY_1
  6
CONTINUOUS
 62
     7
  5
1E9
 10
-9.9
 20
31.0
 30
0.0
 11
9.9
 21
31.0
 31
0.0
  0
LINE
  8
LY_1
  6
CONTINUOUS
 62
     7
  5
1EA
 10
-12.499993
 20
17.056621
 30
0.0
 11
-13.999998
 21
17.922648
 31
0.0
  0
LINE
  8
LY_1
  6
CONTINUOUS
 62
     7
  5
1EB
 10
-15.0
 20
26.0
 30
0.0
 11
-15.0
 21
14.5
 31
0.0
  0
LINE
  8
LY_1
  6
CONTINUOUS
 62
     7
  5
1EC
 10
-15.5
 20
30.388351
 30
0.0
 11
-15.5
 21
26.0
 31
0.0
  0
LINE
  8
LY_1
  6
CONTINUOUS
 62
     7
  5
1ED
 10
-12.5
 20
12.5
 30
0.0
 11
-12.5
 21
-12.9
 31
0.0
  0
LINE
  8
LY_1
  6
CONTINUOUS
 62
     7
  5
1EE
 10
-19.0
 20
12.5
 30
0.0
 11
-19.0
 21
-12.9
 31
0.0
  0
LINE
  8
LY_1
  6
CONTINUOUS
 62
     7
  5
1EF
 10
11.5
 20
15.324574
 30
0.0
 11
11.5
 21
9.610923
 31
0.0
  0
LINE
  8
LY_1
  6
CONTINUOUS
 62
     7
  5
1F0
 10
12.499993
 20
17.056621
 30
0.0
 11
13.999998
 21
17.922648
 31
0.0
  0
LINE
  8
LY_1
  6
CONTINUOUS
 62
     7
  5
1F1
 10
15.0
 20
26.0
 30
0.0
 11
15.0
 21
14.5
 31
0.0
  0
LINE
  8
LY_1
  6
CONTINUOUS
 62
     7
  5
1F2
 10
15.5
 20
30.388351
 30
0.0
 11
15.5
 21
26.0
 31
0.0
  0
LINE
  8
LY_1
  6
CONTINUOUS
 62
     7
  5
1F3
 10
-13.957436
 20
18.5
 30
0.0
 11
13.957436
 21
18.5
 31
0.0
  0
LINE
  8
LY_1
  6
CONTINUOUS
 62
     7
  5
1F4
 10
-15.5
 20
26.0
 30
0.0
 11
15.5
 21
26.0
 31
0.0
  0
LINE
  8
LY_1
  6
CONTINUOUS
 62
     7
  5
1F5
 10
-15.5
 20
28.0
 30
0.0
 11
15.5
 21
28.0
 31
0.0
  0
LINE
  8
LY_1
  6
CONTINUOUS
 62
     7
  5
1F6
 10
-9.45714
 20
-10.5
 30
0.0
 11
-10.322268
 21
-10.5
 31
0.0
  0
LINE
  8
LY_1
  6
CONTINUOUS
 62
     7
  5
1F7
 10
-12.25412
 20
-11.982361
 30
0.0
 11
-12.5
 21
-12.899999
 31
0.0
  0
LINE
  8
LY_1
  6
CONTINUOUS
 62
     7
  5
1F8
 10
-12.500001
 20
-12.9
 30
0.0
 11
-19.0
 21
-12.9
 31
0.0
  0
LINE
  8
LY_1
  6
CONTINUOUS
 62
     7
  5
1F9
 10
9.45714
 20
-10.5
 30
0.0
 11
10.322268
 21
-10.5
 31
0.0
  0
LINE
  8
LY_1
  6
CONTINUOUS
 62
     7
  5
1FA
 10
12.25412
 20
-11.982361
 30
0.0
 11
12.5
 21
-12.899999
 31
0.0
  0
LINE
  8
LY_1
  6
CONTINUOUS
 62
     7
  5
1FB
 10
12.500001
 20
-12.9
 30
0.0
 11
19.0
 21
-12.9
 31
0.0
  0
LINE
  8
LY_1
  6
CONTINUOUS
 62
     7
  5
1FC
 10
12.5
 20
12.5
 30
0.0
 11
12.5
 21
-12.9
 31
0.0
  0
LINE
  8
LY_1
  6
CONTINUOUS
 62
     7
  5
1FD
 10
19.0
 20
12.5
 30
0.0
 11
19.0
 21
-12.9
 31
0.0
  0
LINE
  8
LY_1
  6
CENTER
 62
     7
  5
1FE
 10
0.0
 20
82.0
 30
0.0
 11
0.0
 21
-19.25
 31
0.0
  0
ENDSEC
  0
EOF
