  0
SECTION
  2
HEADER
  9
$ACADVER
  1
AC1009
  9
$DWGCODEPAGE
  3
dos932
  9
$INSBASE
 10
0.0
 20
0.0
 30
0.0
  9
$EXTMIN
 10
-32.5
 20
-69.014697
 30
0.0
  9
$EXTMAX
 10
111.059263
 20
178.75795
 30
0.0
  9
$LIMMIN
 10
-32.5
 20
-69.014697
  9
$LIMMAX
 10
111.059263
 20
178.75795
  9
$ORTHOMODE
 70
     0
  9
$REGENMODE
 70
     1
  9
$FILLMODE
 70
     1
  9
$QTEXTMODE
 70
     0
  9
$MIRRTEXT
 70
     1
  9
$DRAGMODE
 70
     2
  9
$LTSCALE
 40
1.0
  9
$OSMODE
 70
     0
  9
$ATTMODE
 70
     1
  9
$TEXTSIZE
 40
3.3
  9
$TRACEWID
 40
0.05
  9
$TEXTSTYLE
  7
MX_NOTE_STANDARD
  9
$CLAYER
  8
LY_1
  9
$CELTYPE
  6
CONTINUOUS
  9
$CECOLOR
 62
   256
  9
$DIMSCALE
 40
1.0
  9
$DIMASZ
 40
2.5
  9
$DIMEXO
 40
0.0
  9
$DIMDLI
 40
3.75
  9
$DIMRND
 40
0.0
  9
$DIMDLE
 40
0.0
  9
$DIMEXE
 40
1.1938
  9
$DIMTP
 40
0.0
  9
$DIMTM
 40
0.0
  9
$DIMTXT
 40
3.3
  9
$DIMCEN
 40
2.5
  9
$DIMTSZ
 40
0.0
  9
$DIMTOL
 70
     0
  9
$DIMLIM
 70
     0
  9
$DIMTIH
 70
     0
  9
$DIMTOH
 70
     0
  9
$DIMSE1
 70
     0
  9
$DIMSE2
 70
     0
  9
$DIMTAD
 70
     1
  9
$DIMZIN
 70
     8
  9
$DIMBLK
  1

  9
$DIMASO
 70
     1
  9
$DIMSHO
 70
     1
  9
$DIMPOST
  1

  9
$DIMAPOST
  1

  9
$DIMALT
 70
     0
  9
$DIMALTD
 70
     4
  9
$DIMALTF
 40
0.03937
  9
$DIMLFAC
 40
1.0
  9
$DIMTOFL
 70
     1
  9
$DIMTVP
 40
0.0
  9
$DIMTIX
 70
     0
  9
$DIMSOXD
 70
     0
  9
$DIMSAH
 70
     1
  9
$DIMBLK1
  1
_OPEN30
  9
$DIMBLK2
  1
_OPEN30
  9
$DIMSTYLE
  2
MXDIMSTYLE
  9
$DIMCLRD
 70
     0
  9
$DIMCLRE
 70
     0
  9
$DIMCLRT
 70
     0
  9
$DIMTFAC
 40
1.0
  9
$DIMGAP
 40
1.0
  9
$LUNITS
 70
     2
  9
$LUPREC
 70
     4
  9
$AXISMODE
 70
     0
  9
$AXISUNIT
 10
0.0
 20
0.0
  9
$SKETCHINC
 40
0.1
  9
$FILLETRAD
 40
0.0
  9
$AUNITS
 70
     0
  9
$AUPREC
 70
     0
  9
$MENU
  1
acad
  9
$ELEVATION
 40
0.0
  9
$PELEVATION
 40
0.0
  9
$THICKNESS
 40
0.0
  9
$LIMCHECK
 70
     0
  9
$BLIPMODE
 70
     1
  9
$CHAMFERA
 40
0.0
  9
$CHAMFERB
 40
0.0
  9
$SKPOLY
 70
     0
  9
$TDCREATE
 40
2454342.390057870
  9
$TDUPDATE
 40
2454342.390057870
  9
$TDINDWG
 40
0.0000000000
  9
$TDUSRTIMER
 40
0.0000000000
  9
$USRTIMER
 70
     1
  9
$ANGBASE
 50
0.0
  9
$ANGDIR
 70
     0
  9
$PDMODE
 70
     0
  9
$PDSIZE
 40
0.0
  9
$PLINEWID
 40
0.0
  9
$COORDS
 70
     1
  9
$SPLFRAME
 70
     0
  9
$SPLINETYPE
 70
     6
  9
$SPLINESEGS
 70
     8
  9
$ATTDIA
 70
     0
  9
$ATTREQ
 70
     1
  9
$HANDLING
 70
     1
  9
$HANDSEED
  5
24E
  9
$SURFTAB1
 70
     6
  9
$SURFTAB2
 70
     6
  9
$SURFTYPE
 70
     6
  9
$SURFU
 70
     6
  9
$SURFV
 70
     6
  9
$UCSNAME
  2

  9
$UCSORG
 10
0.0
 20
0.0
 30
0.0
  9
$UCSXDIR
 10
1.0
 20
0.0
 30
0.0
  9
$UCSYDIR
 10
0.0
 20
1.0
 30
0.0
  9
$PUCSNAME
  2

  9
$PUCSORG
 10
0.0
 20
0.0
 30
0.0
  9
$PUCSXDIR
 10
1.0
 20
0.0
 30
0.0
  9
$PUCSYDIR
 10
0.0
 20
1.0
 30
0.0
  9
$USERI1
 70
     0
  9
$USERI2
 70
     0
  9
$USERI3
 70
     0
  9
$USERI4
 70
     0
  9
$USERI5
 70
     0
  9
$USERR1
 40
0.0
  9
$USERR2
 40
0.0
  9
$USERR3
 40
0.0
  9
$USERR4
 40
0.0
  9
$USERR5
 40
0.0
  9
$WORLDVIEW
 70
     1
  9
$SHADEDGE
 70
     3
  9
$SHADEDIF
 70
    70
  9
$TILEMODE
 70
     1
  9
$MAXACTVP
 70
    16
  9
$PINSBASE
 10
0.0
 20
0.0
 30
0.0
  9
$PLIMCHECK
 70
     0
  9
$PEXTMIN
 10
1.000000E+20
 20
1.000000E+20
 30
1.000000E+20
  9
$PEXTMAX
 10
-1.000000E+20
 20
-1.000000E+20
 30
-1.000000E+20
  9
$PLIMMIN
 10
0.0
 20
0.0
  9
$PLIMMAX
 10
12.0
 20
9.0
  9
$UNITMODE
 70
     0
  9
$VISRETAIN
 70
     0
  9
$PLINEGEN
 70
     1
  9
$PSLTSCALE
 70
     0
  9
$TREEDEPTH
 70
  3020
  0
ENDSEC
  0
SECTION
  2
TABLES
  0
TABLE
  2
VPORT
 70
     1
  0
VPORT
  2
*ACTIVE
 70
     0
 10
0.0
 20
0.0
 11
1.0
 21
1.0
 12
39.279631
 22
54.871627
 13
0.0
 23
0.0
 14
1.0
 24
1.0
 15
0.0
 25
0.0
 16
0.0
 26
0.0
 36
1.0
 17
0.0
 27
0.0
 37
0.0
 40
250.250373
 41
1.732051
 42
50.0
 43
0.0
 44
0.0
 50
0.0
 51
0.0
 71
     0
 72
   100
 73
     1
 74
     1
 75
     0
 76
     0
 77
     0
 78
     0
  0
ENDTAB
  0
TABLE
  2
LTYPE
 70
     3
  0
LTYPE
  2
CONTINUOUS
 70
    64
  3
Solid line
 72
    65
 73
     0
 40
0.0
  0
LTYPE
  2
PHANTOM
 70
    64
  3
Phantom ______  __  __  ______  __  __  ______
 72
    65
 73
     6
 40
63.5
 49
31.75
 49
-6.35
 49
6.35
 49
-6.35
 49
6.35
 49
-6.35
  0
LTYPE
  2
CENTER
 70
    64
  3
Center ____ _ ____ _ ____ _ ____ _ ____ _ ____
 72
    65
 73
     4
 40
50.8
 49
31.75
 49
-6.35
 49
6.35
 49
-6.35
  0
ENDTAB
  0
TABLE
  2
LAYER
 70
     3
  0
LAYER
  2
0
 70
     0
 62
     7
  6
CONTINUOUS
  0
LAYER
  2
LY_1
 70
     0
 62
     7
  6
CONTINUOUS
  0
LAYER
  2
DEFPOINTS
 70
     0
 62
     7
  6
CONTINUOUS
  0
ENDTAB
  0
TABLE
  2
STYLE
 70
     3
  0
STYLE
  2
MX_NOTE_STANDARD
 70
     0
 40
0.0
 41
1.0
 50
0.0
 71
     0
 42
3.3
  3
txt.shx
  4
extfont.shx
  0
STYLE
  2
MX_DIMTXSTY_2
 70
     0
 40
0.0
 41
0.85
 50
0.0
 71
     0
 42
3.3
  3
txt.shx
  4
extfont.shx
  0
STYLE
  2
MX_DIMTXSTY_3
 70
     0
 40
0.0
 41
0.8
 50
0.0
 71
     0
 42
3.3
  3
txt.shx
  4
extfont.shx
  0
ENDTAB
  0
TABLE
  2
VIEW
 70
     0
  0
ENDTAB
  0
TABLE
  2
UCS
 70
     0
  0
ENDTAB
  0
TABLE
  2
APPID
 70
     1
  0
APPID
  2
ACAD
 70
     0
  0
ENDTAB
  0
TABLE
  2
DIMSTYLE
 70
     1
  0
DIMSTYLE
  2
MXDIMSTYLE
 70
     0
  3

  4

  5

  6
_OPEN30
  7
_OPEN30
 40
1.0
 41
2.5
 42
0.0
 43
3.75
 44
1.1938
 45
0.0
 46
0.0
 47
0.0
 48
0.0
 71
     0
 72
     0
 73
     0
 74
     0
 75
     0
 76
     0
 77
     1
 78
     8
140
3.3
141
2.5
142
0.0
143
0.03937
144
1.0
145
0.0
146
1.0
147
1.0
170
     0
171
     4
172
     1
173
     1
174
     0
175
     0
176
     0
177
     0
178
     0
  0
ENDTAB
  0
ENDSEC
  0
SECTION
  2
BLOCKS
  0
BLOCK
  8
0
  6
BYBLOCK
 62
     0
  5
20
  2
_OPEN30
 70
     2
 10
0.0
 20
0.0
 30
0.0
  3
_OPEN30
  0
LINE
  8
0
  6
BYBLOCK
 62
     0
  5
21
 10
-1.0
 20
0.267949
 30
0.0
 11
0.0
 21
0.0
 31
0.0
  0
LINE
  8
0
  6
BYBLOCK
 62
     0
  5
22
 10
0.0
 20
0.0
 30
0.0
 11
-1.0
 21
-0.267949
 31
0.0
  0
LINE
  8
0
  6
BYBLOCK
 62
     0
  5
23
 10
0.0
 20
0.0
 30
0.0
 11
-1.0
 21
0.0
 31
0.0
  0
ENDBLK
  8
0
  6
BYBLOCK
 62
     0
  5
24
  0
BLOCK
  8
0
  6
BYBLOCK
 62
     0
  5
26
  2
*D1
 70
     1
 10
0.0
 20
0.0
 30
0.0
  3
*D1
  0
LINE
  8
0
  6
CONTINUOUS
 62
     7
  5
27
 10
36.5
 20
90.0
 30
0.0
 11
36.5
 21
0.0
 31
0.0
  0
LINE
  8
0
  6
CONTINUOUS
 62
     7
  5
28
 10
20.241135
 20
90.0
 30
0.0
 11
37.693787
 21
90.0
 31
0.0
  0
LINE
  8
0
  6
CONTINUOUS
 62
     7
  5
29
 10
28.5
 20
0.0
 30
0.0
 11
37.693787
 21
0.0
 31
0.0
  0
INSERT
  8
0
  6
CONTINUOUS
 62
     7
  5
30
  2
_OPEN
 10
36.5
 20
90.0
 30
0.0
 41
2.19
 42
2.19
 50
90.0
 43
2.19
  0
INSERT
  8
0
  6
CONTINUOUS
 62
     7
  5
31
  2
_OPEN
 10
36.5
 20
0.0
 30
0.0
 41
2.19
 42
2.19
 50
270.0
 43
2.19
  0
TEXT
  8
0
  6
CONTINUOUS
 62
     7
  5
33
 10
35.5
 20
42.773346
 30
0.0
 40
3.3
  1
87
 50
90.0
 41
0.98743
  7
MX_DIMTXSTY_2
 11
33.85
 21
42.773346
 31
0.0
 73
     2
  0
POINT
  8
DEFPOINTS
  6
CONTINUOUS
 62
     0
  5
34
 10
20.241135
 20
90.0
 30
0.0
  0
POINT
  8
DEFPOINTS
  6
CONTINUOUS
 62
     0
  5
35
 10
28.5
 20
0.0
 30
0.0
  0
POINT
  8
DEFPOINTS
  6
CONTINUOUS
 62
     0
  5
36
 10
36.5
 20
0.0
 30
0.0
  0
ENDBLK
  8
0
  6
BYBLOCK
 62
     0
  5
37
  0
BLOCK
  8
0
  6
BYBLOCK
 62
     0
  5
2B
  2
_OPEN
 70
     2
 10
0.0
 20
0.0
 30
0.0
  3
_OPEN
  0
LINE
  8
0
  6
BYBLOCK
 62
     0
  5
2C
 10
-1.0
 20
0.166667
 30
0.0
 11
0.0
 21
0.0
 31
0.0
  0
LINE
  8
0
  6
BYBLOCK
 62
     0
  5
2D
 10
0.0
 20
0.0
 30
0.0
 11
-1.0
 21
-0.166667
 31
0.0
  0
LINE
  8
0
  6
BYBLOCK
 62
     0
  5
2E
 10
0.0
 20
0.0
 30
0.0
 11
-1.0
 21
0.0
 31
0.0
  0
ENDBLK
  8
0
  6
BYBLOCK
 62
     0
  5
2F
  0
BLOCK
  8
0
  6
BYBLOCK
 62
     0
  5
3A
  2
*D3
 70
     1
 10
0.0
 20
0.0
 30
0.0
  3
*D3
  0
LINE
  8
0
  6
CONTINUOUS
 62
     7
  5
3B
 10
23.5
 20
-31.899994
 30
0.0
 11
-23.5
 21
-31.899994
 31
0.0
  0
LINE
  8
0
  6
CONTINUOUS
 62
     7
  5
3C
 10
23.5
 20
-19.050003
 30
0.0
 11
23.5
 21
-33.093781
 31
0.0
  0
LINE
  8
0
  6
CONTINUOUS
 62
     7
  5
3D
 10
-23.5
 20
-19.050003
 30
0.0
 11
-23.5
 21
-33.093781
 31
0.0
  0
INSERT
  8
0
  6
CONTINUOUS
 62
     7
  5
3E
  2
_OPEN
 10
23.5
 20
-31.899994
 30
0.0
 41
2.19
 42
2.19
 43
2.19
  0
INSERT
  8
0
  6
CONTINUOUS
 62
     7
  5
3F
  2
_OPEN
 10
-23.5
 20
-31.899994
 30
0.0
 41
2.19
 42
2.19
 50
180.0
 43
2.19
  0
TEXT
  8
0
  6
CONTINUOUS
 62
     7
  5
40
 10
-2.226654
 20
-30.899994
 30
0.0
 40
3.3
  1
47
 41
0.98743
  7
MX_DIMTXSTY_2
 11
-2.226654
 21
-29.249994
 31
0.0
 73
     2
  0
POINT
  8
DEFPOINTS
  6
CONTINUOUS
 62
     0
  5
41
 10
23.5
 20
-19.050003
 30
0.0
  0
POINT
  8
DEFPOINTS
  6
CONTINUOUS
 62
     0
  5
42
 10
-23.5
 20
-19.050003
 30
0.0
  0
POINT
  8
DEFPOINTS
  6
CONTINUOUS
 62
     0
  5
43
 10
-23.5
 20
-31.899994
 30
0.0
  0
ENDBLK
  8
0
  6
BYBLOCK
 62
     0
  5
44
  0
BLOCK
  8
0
  6
BYBLOCK
 62
     0
  5
47
  2
*D4
 70
     1
 10
0.0
 20
0.0
 30
0.0
  3
*D4
  0
LINE
  8
0
  6
CONTINUOUS
 62
     7
  5
48
 10
-27.5
 20
103.0
 30
0.0
 11
27.5
 21
103.0
 31
0.0
  0
LINE
  8
0
  6
CONTINUOUS
 62
     7
  5
49
 10
-27.5
 20
79.800003
 30
0.0
 11
-27.5
 21
104.193787
 31
0.0
  0
LINE
  8
0
  6
CONTINUOUS
 62
     7
  5
4A
 10
27.5
 20
79.800003
 30
0.0
 11
27.5
 21
104.193787
 31
0.0
  0
INSERT
  8
0
  6
CONTINUOUS
 62
     7
  5
4B
  2
_OPEN
 10
-27.5
 20
103.0
 30
0.0
 41
2.19
 42
2.19
 50
180.0
 43
2.19
  0
INSERT
  8
0
  6
CONTINUOUS
 62
     7
  5
4C
  2
_OPEN
 10
27.5
 20
103.0
 30
0.0
 41
2.19
 42
2.19
 43
2.19
  0
TEXT
  8
0
  6
CONTINUOUS
 62
     7
  5
4E
 10
-3.60381
 20
104.0
 30
0.0
 40
3.3
  1
%%c55
 41
1.001456
  7
MX_DIMTXSTY_3
 11
-3.60381
 21
105.65
 31
0.0
 73
     2
  0
POINT
  8
DEFPOINTS
  6
CONTINUOUS
 62
     0
  5
4F
 10
-27.5
 20
79.800003
 30
0.0
  0
POINT
  8
DEFPOINTS
  6
CONTINUOUS
 62
     0
  5
50
 10
27.5
 20
79.800003
 30
0.0
  0
POINT
  8
DEFPOINTS
  6
CONTINUOUS
 62
     0
  5
51
 10
27.5
 20
103.0
 30
0.0
  0
ENDBLK
  8
0
  6
BYBLOCK
 62
     0
  5
52
  0
ENDSEC
  0
SECTION
  2
ENTITIES
  0
DIMENSION
  8
LY_1
  6
CONTINUOUS
 62
     7
  5
38
  2
*D1
 10
36.5
 20
0.0
 30
0.0
 11
36.5
 21
45.0
 31
0.0
 70
   128
  1
87
 13
20.241135
 23
90.0
 33
0.0
 14
28.5
 24
0.0
 34
0.0
 50
90.0
  3
MXDIMSTYLE
1001
ACAD
1000
DSTYLE
1002
{
1070
     6
1000
_OPEN
1070
     7
1000
_OPEN
1070
    41
1040
2.19
1070
    44
1040
1.193787
1070
    78
1070
     0
1070
   271
1070
     0
1070
   340
1005
32
1002
}
  0
DIMENSION
  8
LY_1
  6
CONTINUOUS
 62
     7
  5
45
  2
*D3
 10
-23.5
 20
-31.899994
 30
0.0
 11
0.0
 21
-31.899994
 31
0.0
 70
   128
  1
<>
 13
23.5
 23
-19.050003
 33
0.0
 14
-23.5
 24
-19.050003
 34
0.0
  3
MXDIMSTYLE
1001
ACAD
1000
DSTYLE
1002
{
1070
     6
1000
_OPEN
1070
     7
1000
_OPEN
1070
    41
1040
2.19
1070
    44
1040
1.193787
1070
   271
1070
     0
1070
   284
1070
     8
1070
   340
1005
32
1002
}
  0
DIMENSION
  8
LY_1
  6
CONTINUOUS
 62
     7
  5
53
  2
*D4
 10
27.5
 20
103.0
 30
0.0
 11
0.0
 21
103.0
 31
0.0
 70
   128
  1
%%c<>
 13
-27.5
 23
79.800003
 33
0.0
 14
27.5
 24
79.800003
 34
0.0
  3
MXDIMSTYLE
1001
ACAD
1000
DSTYLE
1002
{
1070
     6
1000
_OPEN
1070
     7
1000
_OPEN
1070
    41
1040
2.19
1070
    44
1040
1.193787
1070
   271
1070
     0
1070
   284
1070
     8
1070
   340
1005
4D
1002
}
  0
TEXT
  8
LY_1
  6
CONTINUOUS
 62
     7
  5
54
 10
-29.567551
 20
-51.983584
 30
0.0
 40
4.167181
  1
      GATE VALVE  3/4
 41
0.972252
  7
MX_NOTE_STANDARD
 11
-29.567551
 21
-49.899994
 31
0.0
 73
     2
  0
TEXT
  8
LY_1
  6
CONTINUOUS
 62
     7
  5
55
 10
-29.609061
 20
-67.983584
 30
0.0
 40
4.167181
  1
KITZ
 41
0.912486
  7
MX_NOTE_STANDARD
 11
-29.609061
 21
-65.899994
 31
0.0
 73
     2
  0
TEXT
  8
LY_1
  6
CONTINUOUS
 62
     7
  5
56
 10
-29.567778
 20
-59.983584
 30
0.0
 40
4.167181
  1
FIG   FH3/4
 41
0.971926
  7
MX_NOTE_STANDARD
 11
-29.567778
 21
-57.899994
 31
0.0
 73
     2
  0
TEXT
  8
LY_1
  6
CONTINUOUS
 62
     7
  5
57
 10
-29.609061
 20
-43.983584
 30
0.0
 40
4.167181
  1
NAME  CLASS 125 FORGED BRASS
 41
0.912486
  7
MX_NOTE_STANDARD
 11
-29.609061
 21
-41.899994
 31
0.0
 73
     2
  0
POLYLINE
  8
LY_1
  6
CONTINUOUS
 62
     7
  5
58
 66
     1
 10
0.0
 20
0.0
 30
0.0
  0
VERTEX
  8
LY_1
  6
CONTINUOUS
 62
     7
  5
203
 10
-0.89324
 20
3.754492
 30
0.0
  0
VERTEX
  8
LY_1
  6
CONTINUOUS
 62
     7
  5
204
 10
-0.89514
 20
3.756648
 30
0.0
  0
VERTEX
  8
LY_1
  6
CONTINUOUS
 62
     7
  5
205
 10
-0.897312
 20
3.758518
 30
0.0
  0
VERTEX
  8
LY_1
  6
CONTINUOUS
 62
     7
  5
206
 10
-0.899714
 20
3.760065
 30
0.0
  0
VERTEX
  8
LY_1
  6
CONTINUOUS
 62
     7
  5
207
 10
-0.902302
 20
3.761261
 30
0.0
  0
VERTEX
  8
LY_1
  6
CONTINUOUS
 62
     7
  5
208
 10
-0.905026
 20
3.762083
 30
0.0
  0
VERTEX
  8
LY_1
  6
CONTINUOUS
 62
     7
  5
209
 10
-0.907834
 20
3.762515
 30
0.0
  0
VERTEX
  8
LY_1
  6
CONTINUOUS
 62
     7
  5
20A
 10
-0.910674
 20
3.76255
 30
0.0
  0
VERTEX
  8
LY_1
  6
CONTINUOUS
 62
     7
  5
20B
 10
-0.913491
 20
3.762186
 30
0.0
  0
VERTEX
  8
LY_1
  6
CONTINUOUS
 62
     7
  5
20C
 10
-0.916233
 20
3.761431
 30
0.0
  0
VERTEX
  8
LY_1
  6
CONTINUOUS
 62
     7
  5
20D
 10
-0.918848
 20
3.760299
 30
0.0
  0
VERTEX
  8
LY_1
  6
CONTINUOUS
 62
     7
  5
20E
 10
-0.921286
 20
3.758811
 30
0.0
  0
VERTEX
  8
LY_1
  6
CONTINUOUS
 62
     7
  5
20F
 10
-0.923501
 20
3.756995
 30
0.0
  0
VERTEX
  8
LY_1
  6
CONTINUOUS
 62
     7
  5
210
 10
-0.925451
 20
3.754886
 30
0.0
  0
VERTEX
  8
LY_1
  6
CONTINUOUS
 62
     7
  5
211
 10
-0.9271
 20
3.752523
 30
0.0
  0
VERTEX
  8
LY_1
  6
CONTINUOUS
 62
     7
  5
212
 10
-0.928416
 20
3.749952
 30
0.0
  0
VERTEX
  8
LY_1
  6
CONTINUOUS
 62
     7
  5
213
 10
-0.929374
 20
3.74722
 30
0.0
  0
VERTEX
  8
LY_1
  6
CONTINUOUS
 62
     7
  5
214
 10
-0.929956
 20
3.74438
 30
0.0
  0
VERTEX
  8
LY_1
  6
CONTINUOUS
 62
     7
  5
215
 10
-0.930151
 20
3.741486
 30
0.0
  0
VERTEX
  8
LY_1
  6
CONTINUOUS
 62
     7
  5
216
 10
-0.930151
 20
3.741486
 30
0.0
  0
SEQEND
  8
LY_1
  6
CONTINUOUS
 62
     7
  5
217
  0
POLYLINE
  8
LY_1
  6
CONTINUOUS
 62
     7
  5
59
 66
     1
 10
0.0
 20
0.0
 30
0.0
  0
VERTEX
  8
LY_1
  6
CONTINUOUS
 62
     7
  5
218
 10
1.565786
 20
2.434274
 30
0.0
  0
VERTEX
  8
LY_1
  6
CONTINUOUS
 62
     7
  5
219
 10
1.567817
 20
2.43199
 30
0.0
  0
VERTEX
  8
LY_1
  6
CONTINUOUS
 62
     7
  5
21A
 10
1.570152
 20
2.430033
 30
0.0
  0
VERTEX
  8
LY_1
  6
CONTINUOUS
 62
     7
  5
21B
 10
1.572742
 20
2.428445
 30
0.0
  0
VERTEX
  8
LY_1
  6
CONTINUOUS
 62
     7
  5
21C
 10
1.57553
 20
2.42726
 30
0.0
  0
VERTEX
  8
LY_1
  6
CONTINUOUS
 62
     7
  5
21D
 10
1.578458
 20
2.426503
 30
0.0
  0
VERTEX
  8
LY_1
  6
CONTINUOUS
 62
     7
  5
21E
 10
1.581463
 20
2.426191
 30
0.0
  0
VERTEX
  8
LY_1
  6
CONTINUOUS
 62
     7
  5
21F
 10
1.58448
 20
2.426329
 30
0.0
  0
VERTEX
  8
LY_1
  6
CONTINUOUS
 62
     7
  5
220
 10
1.587445
 20
2.426916
 30
0.0
  0
VERTEX
  8
LY_1
  6
CONTINUOUS
 62
     7
  5
221
 10
1.590295
 20
2.427938
 30
0.0
  0
VERTEX
  8
LY_1
  6
CONTINUOUS
 62
     7
  5
222
 10
1.592968
 20
2.429374
 30
0.0
  0
VERTEX
  8
LY_1
  6
CONTINUOUS
 62
     7
  5
223
 10
1.595408
 20
2.431193
 30
0.0
  0
VERTEX
  8
LY_1
  6
CONTINUOUS
 62
     7
  5
224
 10
1.597561
 20
2.433356
 30
0.0
  0
VERTEX
  8
LY_1
  6
CONTINUOUS
 62
     7
  5
225
 10
1.599383
 20
2.435817
 30
0.0
  0
VERTEX
  8
LY_1
  6
CONTINUOUS
 62
     7
  5
226
 10
1.600835
 20
2.438523
 30
0.0
  0
VERTEX
  8
LY_1
  6
CONTINUOUS
 62
     7
  5
227
 10
1.601884
 20
2.441417
 30
0.0
  0
VERTEX
  8
LY_1
  6
CONTINUOUS
 62
     7
  5
228
 10
1.602509
 20
2.444435
 30
0.0
  0
VERTEX
  8
LY_1
  6
CONTINUOUS
 62
     7
  5
229
 10
1.602651
 20
2.445855
 30
0.0
  0
VERTEX
  8
LY_1
  6
CONTINUOUS
 62
     7
  5
22A
 10
1.602698
 20
2.447281
 30
0.0
  0
SEQEND
  8
LY_1
  6
CONTINUOUS
 62
     7
  5
22B
  0
POLYLINE
  8
LY_1
  6
CONTINUOUS
 62
     7
  5
5A
 66
     1
 10
0.0
 20
0.0
 30
0.0
  0
VERTEX
  8
LY_1
  6
CONTINUOUS
 62
     7
  5
22C
 10
0.01689
 20
18.313639
 30
0.0
  0
VERTEX
  8
LY_1
  6
CONTINUOUS
 62
     7
  5
22D
 10
0.015112
 20
18.315879
 30
0.0
  0
VERTEX
  8
LY_1
  6
CONTINUOUS
 62
     7
  5
22E
 10
0.013051
 20
18.31785
 30
0.0
  0
VERTEX
  8
LY_1
  6
CONTINUOUS
 62
     7
  5
22F
 10
0.010746
 20
18.319516
 30
0.0
  0
VERTEX
  8
LY_1
  6
CONTINUOUS
 62
     7
  5
230
 10
0.00824
 20
18.320845
 30
0.0
  0
VERTEX
  8
LY_1
  6
CONTINUOUS
 62
     7
  5
231
 10
0.005581
 20
18.321813
 30
0.0
  0
VERTEX
  8
LY_1
  6
CONTINUOUS
 62
     7
  5
232
 10
0.002817
 20
18.3224
 30
0.0
  0
VERTEX
  8
LY_1
  6
CONTINUOUS
 62
     7
  5
233
 10
0.0
 20
18.322598
 30
0.0
  0
VERTEX
  8
LY_1
  6
CONTINUOUS
 62
     7
  5
234
 10
-0.002817
 20
18.3224
 30
0.0
  0
VERTEX
  8
LY_1
  6
CONTINUOUS
 62
     7
  5
235
 10
-0.005581
 20
18.321813
 30
0.0
  0
VERTEX
  8
LY_1
  6
CONTINUOUS
 62
     7
  5
236
 10
-0.00824
 20
18.320845
 30
0.0
  0
VERTEX
  8
LY_1
  6
CONTINUOUS
 62
     7
  5
237
 10
-0.010746
 20
18.319516
 30
0.0
  0
VERTEX
  8
LY_1
  6
CONTINUOUS
 62
     7
  5
238
 10
-0.013051
 20
18.31785
 30
0.0
  0
VERTEX
  8
LY_1
  6
CONTINUOUS
 62
     7
  5
239
 10
-0.015112
 20
18.315879
 30
0.0
  0
VERTEX
  8
LY_1
  6
CONTINUOUS
 62
     7
  5
23A
 10
-0.01689
 20
18.313639
 30
0.0
  0
SEQEND
  8
LY_1
  6
CONTINUOUS
 62
     7
  5
23B
  0
POLYLINE
  8
LY_1
  6
CONTINUOUS
 62
     7
  5
5B
 66
     1
 10
0.0
 20
0.0
 30
0.0
  0
VERTEX
  8
LY_1
  6
CONTINUOUS
 62
     7
  5
23C
 10
-3.432405
 20
154.246558
 30
0.0
  0
VERTEX
  8
LY_1
  6
CONTINUOUS
 62
     7
  5
23D
 10
-3.433373
 20
154.245662
 30
0.0
  0
VERTEX
  8
LY_1
  6
CONTINUOUS
 62
     7
  5
23E
 10
-3.434226
 20
154.24462
 30
0.0
  0
VERTEX
  8
LY_1
  6
CONTINUOUS
 62
     7
  5
23F
 10
-3.434949
 20
154.243451
 30
0.0
  0
VERTEX
  8
LY_1
  6
CONTINUOUS
 62
     7
  5
240
 10
-3.435528
 20
154.242177
 30
0.0
  0
VERTEX
  8
LY_1
  6
CONTINUOUS
 62
     7
  5
241
 10
-3.435951
 20
154.240822
 30
0.0
  0
VERTEX
  8
LY_1
  6
CONTINUOUS
 62
     7
  5
242
 10
-3.436211
 20
154.239413
 30
0.0
  0
VERTEX
  8
LY_1
  6
CONTINUOUS
 62
     7
  5
243
 10
-3.436303
 20
154.237975
 30
0.0
  0
VERTEX
  8
LY_1
  6
CONTINUOUS
 62
     7
  5
244
 10
-3.436226
 20
154.236536
 30
0.0
  0
VERTEX
  8
LY_1
  6
CONTINUOUS
 62
     7
  5
245
 10
-3.435979
 20
154.235123
 30
0.0
  0
VERTEX
  8
LY_1
  6
CONTINUOUS
 62
     7
  5
246
 10
-3.435569
 20
154.233763
 30
0.0
  0
VERTEX
  8
LY_1
  6
CONTINUOUS
 62
     7
  5
247
 10
-3.435003
 20
154.232482
 30
0.0
  0
VERTEX
  8
LY_1
  6
CONTINUOUS
 62
     7
  5
248
 10
-3.434292
 20
154.231303
 30
0.0
  0
VERTEX
  8
LY_1
  6
CONTINUOUS
 62
     7
  5
249
 10
-3.433448
 20
154.230249
 30
0.0
  0
VERTEX
  8
LY_1
  6
CONTINUOUS
 62
     7
  5
24A
 10
-3.432489
 20
154.229341
 30
0.0
  0
VERTEX
  8
LY_1
  6
CONTINUOUS
 62
     7
  5
24B
 10
-3.432489
 20
154.229341
 30
0.0
  0
SEQEND
  8
LY_1
  6
CONTINUOUS
 62
     7
  5
24C
  0
ARC
  8
LY_1
  6
CONTINUOUS
 62
     7
  5
5C
 10
1.501099
 20
1.565964
 30
0.0
 40
0.565945
 50
217.524112
 51
359.999982
  0
ARC
  8
LY_1
  6
CONTINUOUS
 62
     7
  5
5D
 10
-1.498581
 20
1.56842
 30
0.0
 40
0.568431
 50
180.000036
 51
359.999982
  0
ARC
  8
LY_1
  6
CONTINUOUS
 62
     7
  5
5E
 10
-1.501022
 20
5.498123
 30
0.0
 40
0.566043
 50
37.524113
 51
180.000019
  0
ARC
  8
LY_1
  6
CONTINUOUS
 62
     7
  5
5F
 10
1.486298
 20
5.274445
 30
0.0
 40
0.580752
 50
359.999982
 51
270.000001
  0
ARC
  8
LY_1
  6
CONTINUOUS
 62
     7
  5
60
 10
1.498474
 20
7.246811
 30
0.0
 40
0.568407
 50
180.000036
 51
359.999982
  0
ARC
  8
LY_1
  6
CONTINUOUS
 62
     7
  5
61
 10
-1.486267
 20
9.104599
 30
0.0
 40
0.580768
 50
90.000037
 51
270.000001
  0
ARC
  8
LY_1
  6
CONTINUOUS
 62
     7
  5
62
 10
1.486145
 20
11.140152
 30
0.0
 40
0.580719
 50
359.999982
 51
270.000001
  0
ARC
  8
LY_1
  6
CONTINUOUS
 62
     7
  5
63
 10
-1.486267
 20
13.132858
 30
0.0
 40
0.580761
 50
90.000037
 51
270.000001
  0
ARC
  8
LY_1
  6
CONTINUOUS
 62
     7
  5
64
 10
1.486298
 20
13.132858
 30
0.0
 40
0.580761
 50
270.000018
 51
90.000037
  0
ARC
  8
LY_1
  6
CONTINUOUS
 62
     7
  5
65
 10
1.37825
 20
15.091217
 30
0.0
 40
0.68883
 50
0.778951
 51
34.259064
  0
ARC
  8
LY_1
  6
CONTINUOUS
 62
     7
  5
66
 10
1.498795
 20
15.109116
 30
0.0
 40
0.568291
 50
123.574515
 51
359.143204
  0
ARC
  8
LY_1
  6
CONTINUOUS
 62
     7
  5
67
 10
-1.499939
 20
15.119598
 30
0.0
 40
0.572335
 50
145.740937
 51
325.740956
  0
ARC
  8
LY_1
  6
CONTINUOUS
 62
     7
  5
68
 10
-1.486328
 20
18.919296
 30
0.0
 40
0.580726
 50
89.999982
 51
270.000001
  0
ARC
  8
LY_1
  6
CONTINUOUS
 62
     7
  5
69
 10
1.486343
 20
18.919296
 30
0.0
 40
0.580726
 50
270.000018
 51
90.000037
  0
ARC
  8
LY_1
  6
CONTINUOUS
 62
     7
  5
6A
 10
1.302307
 20
145.428268
 30
0.0
 40
7.571756
 50
318.474707
 51
336.525422
  0
ARC
  8
LY_1
  6
CONTINUOUS
 62
     7
  5
6B
 10
1.263107
 20
145.453278
 30
0.0
 40
6.218242
 50
318.198276
 51
336.801307
  0
ARC
  8
LY_1
  6
CONTINUOUS
 62
     7
  5
6C
 10
-1.302307
 20
145.428268
 30
0.0
 40
7.571756
 50
203.474577
 51
221.525291
  0
ARC
  8
LY_1
  6
CONTINUOUS
 62
     7
  5
6D
 10
-1.263123
 20
145.453278
 30
0.0
 40
6.218242
 50
203.198692
 51
221.801723
  0
ARC
  8
LY_1
  6
PHANTOM
 62
     7
  5
6F
 10
0.0
 20
146.25795
 30
0.0
 40
9.1
 50
226.309046
 51
313.690976
  0
ARC
  8
LY_1
  6
PHANTOM
 62
     7
  5
70
 10
0.0
 20
146.25795
 30
0.0
 40
7.699997
 50
227.462092
 51
312.53789
  0
ARC
  8
LY_1
  6
CONTINUOUS
 62
     7
  5
71
 10
8.439362
 20
146.605759
 30
0.0
 40
0.889
 50
227.874799
 51
264.434343
  0
ARC
  8
LY_1
  6
CONTINUOUS
 62
     7
  5
72
 10
8.157639
 20
146.294235
 30
0.0
 40
0.469
 50
176.848023
 51
227.874618
  0
ARC
  8
LY_1
  6
CONTINUOUS
 62
     7
  5
73
 10
8.155029
 20
146.264267
 30
0.0
 40
0.469
 50
122.125367
 51
173.171961
  0
ARC
  8
LY_1
  6
CONTINUOUS
 62
     7
  5
74
 10
8.378357
 20
145.908585
 30
0.0
 40
0.889
 50
85.578118
 51
122.125203
  0
ARC
  8
LY_1
  6
CONTINUOUS
 62
     7
  5
75
 10
8.360641
 20
145.910141
 30
0.0
 40
0.889
 50
47.874821
 51
84.431739
  0
ARC
  8
LY_1
  6
CONTINUOUS
 62
     7
  5
76
 10
8.642349
 20
146.221634
 30
0.0
 40
0.469
 50
356.84801
 51
47.874602
  0
ARC
  8
LY_1
  6
CONTINUOUS
 62
     7
  5
77
 10
8.644974
 20
146.251617
 30
0.0
 40
0.469
 50
302.125403
 51
353.171979
  0
ARC
  8
LY_1
  6
CONTINUOUS
 62
     7
  5
78
 10
8.421631
 20
146.6073
 30
0.0
 40
0.889
 50
265.581487
 51
302.125184
  0
ARC
  8
LY_1
  6
CONTINUOUS
 62
     7
  5
79
 10
8.378357
 20
145.908585
 30
0.0
 40
1.05
 50
85.485391
 51
122.125203
  0
ARC
  8
LY_1
  6
CONTINUOUS
 62
     7
  5
7A
 10
8.642349
 20
146.221634
 30
0.0
 40
0.63
 50
356.37819
 51
47.874602
  0
ARC
  8
LY_1
  6
CONTINUOUS
 62
     7
  5
7B
 10
8.360641
 20
145.910141
 30
0.0
 40
1.05
 50
47.874821
 51
84.51463
  0
ARC
  8
LY_1
  6
CONTINUOUS
 62
     7
  5
7C
 10
8.157639
 20
146.294235
 30
0.0
 40
0.63
 50
176.378215
 51
227.874618
  0
ARC
  8
LY_1
  6
CONTINUOUS
 62
     7
  5
7D
 10
8.439362
 20
146.605759
 30
0.0
 40
1.05
 50
227.874799
 51
264.514447
  0
ARC
  8
LY_1
  6
CONTINUOUS
 62
     7
  5
7E
 10
8.155029
 20
146.264267
 30
0.0
 40
0.63
 50
122.125367
 51
173.641823
  0
ARC
  8
LY_1
  6
CONTINUOUS
 62
     7
  5
7F
 10
8.644974
 20
146.251617
 30
0.0
 40
0.63
 50
302.125403
 51
353.641797
  0
ARC
  8
LY_1
  6
CONTINUOUS
 62
     7
  5
80
 10
8.421631
 20
146.6073
 30
0.0
 40
1.05
 50
265.485645
 51
302.125184
  0
ARC
  8
LY_1
  6
CONTINUOUS
 62
     7
  5
81
 10
2.150757
 20
155.007904
 30
0.0
 40
0.28
 50
89.999982
 51
180.000019
  0
ARC
  8
LY_1
  6
CONTINUOUS
 62
     7
  5
82
 10
2.085144
 20
154.990433
 30
0.0
 40
0.28
 50
274.658043
 51
0.0
  0
ARC
  8
LY_1
  6
CONTINUOUS
 62
     7
  5
83
 10
2.129761
 20
154.969437
 30
0.0
 40
0.259
 50
180.000036
 51
265.157141
  0
ARC
  8
LY_1
  6
CONTINUOUS
 62
     7
  5
84
 10
3.320435
 20
155.04155
 30
0.0
 40
0.0105
 50
312.505723
 51
89.998288
  0
ARC
  8
LY_1
  6
CONTINUOUS
 62
     7
  5
85
 10
3.639435
 20
154.989899
 30
0.0
 40
0.298053
 50
312.504463
 51
89.999982
  0
ARC
  8
LY_1
  6
CONTINUOUS
 62
     7
  5
86
 10
2.77153
 20
153.77594
 30
0.0
 40
0.0105
 50
132.505506
 51
269.998635
  0
ARC
  8
LY_1
  6
CONTINUOUS
 62
     7
  5
87
 10
2.079895
 20
153.486038
 30
0.0
 40
0.298095
 50
132.504468
 51
270.000001
  0
ARC
  8
LY_1
  6
CONTINUOUS
 62
     7
  5
88
 10
3.648743
 20
153.476685
 30
0.0
 40
0.288751
 50
270.000018
 51
89.999982
  0
ARC
  8
LY_1
  6
CONTINUOUS
 62
     7
  5
89
 10
-0.3461
 20
155.007843
 30
0.0
 40
0.28
 50
89.999982
 51
180.000019
  0
ARC
  8
LY_1
  6
CONTINUOUS
 62
     7
  5
8A
 10
-0.411713
 20
154.990356
 30
0.0
 40
0.28
 50
274.658043
 51
0.0
  0
ARC
  8
LY_1
  6
CONTINUOUS
 62
     7
  5
8B
 10
-0.367111
 20
154.96936
 30
0.0
 40
0.259
 50
180.000036
 51
265.157141
  0
ARC
  8
LY_1
  6
CONTINUOUS
 62
     7
  5
8C
 10
0.487579
 20
153.43515
 30
0.0
 40
0.247217
 50
180.000036
 51
359.999983
  0
ARC
  8
LY_1
  6
CONTINUOUS
 62
     7
  5
8D
 10
1.231613
 20
154.9991
 30
0.0
 40
0.288733
 50
270.000018
 51
89.999982
  0
ARC
  8
LY_1
  6
CONTINUOUS
 62
     7
  5
8E
 10
-1.227188
 20
155.040756
 30
0.0
 40
0.2472
 50
0.0
 51
180.000019
  0
ARC
  8
LY_1
  6
CONTINUOUS
 62
     7
  5
8F
 10
-1.227188
 20
153.43515
 30
0.0
 40
0.2472
 50
179.999964
 51
359.999983
  0
ARC
  8
LY_1
  6
CONTINUOUS
 62
     7
  5
90
 10
-2.082031
 20
155.073532
 30
0.0
 40
0.21
 50
69.540669
 51
129.103799
  0
ARC
  8
LY_1
  6
CONTINUOUS
 62
     7
  5
91
 10
-2.07579
 20
154.955582
 30
0.0
 40
0.245
 50
211.487864
 51
266.528697
  0
ARC
  8
LY_1
  6
CONTINUOUS
 62
     7
  5
92
 10
-2.106491
 20
154.990585
 30
0.0
 40
0.28
 50
273.248893
 51
0.0
  0
ARC
  8
LY_1
  6
CONTINUOUS
 62
     7
  5
93
 10
-2.106491
 20
155.00795
 30
0.0
 40
0.28
 50
0.0
 51
69.540724
  0
ARC
  8
LY_1
  6
CONTINUOUS
 62
     7
  5
94
 10
-2.07695
 20
153.479324
 30
0.0
 40
0.272962
 50
230.896201
 51
50.89622
  0
ARC
  8
LY_1
  6
CONTINUOUS
 62
     7
  5
95
 10
-3.690308
 20
155.040741
 30
0.0
 40
0.2472
 50
0.0
 51
180.000019
  0
ARC
  8
LY_1
  6
CONTINUOUS
 62
     7
  5
96
 10
-3.690308
 20
153.435135
 30
0.0
 40
0.2472
 50
179.999964
 51
359.999983
  0
CIRCLE
  8
LY_1
  6
CONTINUOUS
 62
     7
  5
97
 10
0.0
 20
146.25795
 30
0.0
 40
6.3
  0
CIRCLE
  8
LY_1
  6
CONTINUOUS
 62
     7
  5
98
 10
0.0
 20
146.25795
 30
0.0
 40
10.5
  0
ARC
  8
LY_1
  6
CONTINUOUS
 62
     7
  5
99
 10
-8.921173
 20
147.085312
 30
0.0
 40
0.105
 50
329.803437
 51
149.803424
  0
ARC
  8
LY_1
  6
CONTINUOUS
 62
     7
  5
9A
 10
-7.767303
 20
145.544205
 30
0.0
 40
0.105
 50
154.285886
 51
334.374971
  0
ARC
  8
LY_1
  6
CONTINUOUS
 62
     7
  5
9B
 10
-7.9841
 20
146.680527
 30
0.0
 40
0.205992
 50
18.468446
 51
169.999966
  0
ARC
  8
LY_1
  6
CONTINUOUS
 62
     7
  5
9C
 10
-8.755081
 20
145.731842
 30
0.0
 40
0.178551
 50
202.732326
 51
349.999978
  0
ARC
  8
LY_1
  6
CONTINUOUS
 62
     7
  5
9D
 10
-8.755081
 20
145.731842
 30
0.0
 40
0.388551
 50
202.732326
 51
349.999978
  0
ARC
  8
LY_1
  6
CONTINUOUS
 62
     7
  5
9E
 10
-7.9841
 20
146.680527
 30
0.0
 40
0.415992
 50
18.468446
 51
169.999966
  0
ARC
  8
LY_1
  6
CONTINUOUS
 62
     7
  5
9F
 10
-9.249405
 20
146.25795
 30
0.0
 40
1.54
 50
334.285898
 51
18.46848
  0
ARC
  8
LY_1
  6
CONTINUOUS
 62
     7
  5
A0
 10
-7.499405
 20
146.25795
 30
0.0
 40
1.54
 50
149.803424
 51
202.732309
  0
ARC
  8
LY_1
  6
CONTINUOUS
 62
     7
  5
A1
 10
-7.499405
 20
146.25795
 30
0.0
 40
1.75
 50
149.803424
 51
202.732309
  0
ARC
  8
LY_1
  6
CONTINUOUS
 62
     7
  5
A2
 10
-9.249405
 20
146.25795
 30
0.0
 40
1.75
 50
334.285898
 51
18.46848
  0
ARC
  8
LY_1
  6
CONTINUOUS
 62
     7
  5
A3
 10
-13.7
 20
22.199997
 30
0.0
 40
1.8
 50
359.999981
 51
90.000037
  0
ARC
  8
LY_1
  6
CONTINUOUS
 62
     7
  5
A4
 10
13.7
 20
22.199997
 30
0.0
 40
1.8
 50
89.999982
 51
180.000019
  0
ARC
  8
LY_1
  6
CONTINUOUS
 62
     7
  5
A5
 10
0.0
 20
146.25795
 30
0.0
 40
18.5
 50
256.175278
 51
283.824649
  0
ARC
  8
LY_1
  6
CONTINUOUS
 62
     7
  5
A6
 10
0.0
 20
146.25795
 30
0.0
 40
18.5
 50
196.17529
 51
223.824661
  0
ARC
  8
LY_1
  6
CONTINUOUS
 62
     7
  5
A7
 10
0.0
 20
146.25795
 30
0.0
 40
18.5
 50
136.175285
 51
163.824655
  0
ARC
  8
LY_1
  6
CONTINUOUS
 62
     7
  5
A8
 10
0.0
 20
146.25795
 30
0.0
 40
18.5
 50
76.175297
 51
103.824667
  0
ARC
  8
LY_1
  6
CONTINUOUS
 62
     7
  5
A9
 10
0.0
 20
146.25795
 30
0.0
 40
18.5
 50
16.175281
 51
43.824676
  0
ARC
  8
LY_1
  6
CONTINUOUS
 62
     7
  5
AA
 10
0.0
 20
146.25795
 30
0.0
 40
18.5
 50
316.17528
 51
343.824674
  0
ARC
  8
LY_1
  6
CONTINUOUS
 62
     7
  5
AB
 10
-18.0
 20
20.600006
 30
0.0
 40
2.0
 50
270.000018
 51
359.999981
  0
ARC
  8
LY_1
  6
CONTINUOUS
 62
     7
  5
AC
 10
13.9
 20
17.679565
 30
0.0
 40
2.0
 50
180.000019
 51
270.000001
  0
ARC
  8
LY_1
  6
CONTINUOUS
 62
     7
  5
AD
 10
14.182817
 20
17.679565
 30
0.0
 40
2.0
 50
270.000018
 51
345.0
  0
ARC
  8
LY_1
  6
CONTINUOUS
 62
     7
  5
AE
 10
18.0
 20
20.600006
 30
0.0
 40
2.0
 50
180.000019
 51
270.000001
  0
ARC
  8
LY_1
  6
CONTINUOUS
 62
     7
  5
AF
 10
67.814865
 20
22.113281
 30
0.0
 40
2.0
 50
0.50017
 51
49.495522
  0
ARC
  8
LY_1
  6
CONTINUOUS
 62
     7
  5
B0
 10
70.412903
 20
25.154694
 30
0.0
 40
2.0
 50
180.0002
 51
229.495357
  0
ARC
  8
LY_1
  6
CONTINUOUS
 62
     7
  5
B1
 10
82.912903
 20
22.0
 30
0.0
 40
2.0
 50
359.999981
 51
90.000037
  0
ARC
  8
LY_1
  6
CONTINUOUS
 62
     7
  5
B2
 10
89.912903
 20
22.0
 30
0.0
 40
2.0
 50
89.999982
 51
180.000019
  0
ARC
  8
LY_1
  6
CONTINUOUS
 62
     7
  5
B3
 10
105.010941
 20
22.113281
 30
0.0
 40
2.0
 50
130.504479
 51
179.49983
  0
ARC
  8
LY_1
  6
CONTINUOUS
 62
     7
  5
B4
 10
68.412903
 20
50.141434
 30
0.0
 40
10.0
 50
314.427028
 51
0.000019
  0
ARC
  8
LY_1
  6
CONTINUOUS
 62
     7
  5
B5
 10
104.412903
 20
50.141434
 30
0.0
 40
10.0
 50
179.999981
 51
225.572971
  0
ARC
  8
LY_1
  6
CONTINUOUS
 62
     7
  5
B6
 10
102.412903
 20
25.154694
 30
0.0
 40
2.0
 50
310.504641
 51
359.999785
  0
CIRCLE
  8
LY_1
  6
CONTINUOUS
 62
     7
  5
B7
 10
86.412903
 20
0.0
 30
0.0
 40
12.05
  0
CIRCLE
  8
LY_1
  6
CONTINUOUS
 62
     7
  5
B8
 10
86.412903
 20
0.0
 30
0.0
 40
13.2
  0
ARC
  8
LY_1
  6
CONTINUOUS
 62
     7
  5
B9
 10
79.912903
 20
83.199997
 30
0.0
 40
1.0
 50
270.000018
 51
359.999981
  0
ARC
  8
LY_1
  6
CONTINUOUS
 62
     7
  5
BA
 10
70.882797
 20
83.899994
 30
0.0
 40
2.0
 50
90.000037
 51
180.000019
  0
ARC
  8
LY_1
  6
CONTINUOUS
 62
     7
  5
BB
 10
69.882797
 20
83.199997
 30
0.0
 40
1.0
 50
180.000019
 51
270.000001
  0
ARC
  8
LY_1
  6
CONTINUOUS
 62
     7
  5
BC
 10
69.025467
 20
84.5
 30
0.0
 40
5.5
 50
38.183418
 51
125.44921
  0
ARC
  8
LY_1
  6
CONTINUOUS
 62
     7
  5
BD
 10
70.595581
 20
82.303467
 30
0.0
 40
8.2
 50
125.484946
 51
165.303036
  0
ARC
  8
LY_1
  6
CONTINUOUS
 62
     7
  5
BE
 10
99.043594
 20
74.882492
 30
0.0
 40
37.600006
 50
165.362869
 51
172.485062
  0
ARC
  8
LY_1
  6
CONTINUOUS
 62
     7
  5
BF
 10
92.912903
 20
83.199997
 30
0.0
 40
1.0
 50
180.000019
 51
270.000001
  0
ARC
  8
LY_1
  6
CONTINUOUS
 62
     7
  5
C0
 10
86.412903
 20
84.5
 30
0.0
 40
5.5
 50
0.0
 51
180.000019
  0
ARC
  8
LY_1
  6
CONTINUOUS
 62
     7
  5
C1
 10
18.383804
 20
83.899994
 30
0.0
 40
2.0
 50
0.0
 51
89.999982
  0
ARC
  8
LY_1
  6
CONTINUOUS
 62
     7
  5
C2
 10
19.383804
 20
83.199997
 30
0.0
 40
1.0
 50
270.000018
 51
0.0
  0
ARC
  8
LY_1
  6
CONTINUOUS
 62
     7
  5
C3
 10
9.079929
 20
82.303467
 30
0.0
 40
8.2
 50
14.696982
 51
54.515049
  0
ARC
  8
LY_1
  6
CONTINUOUS
 62
     7
  5
C4
 10
20.241135
 20
84.5
 30
0.0
 40
5.5
 50
54.550781
 51
141.816584
  0
ARC
  8
LY_1
  6
CONTINUOUS
 62
     7
  5
C5
 10
18.671021
 20
82.303467
 30
0.0
 40
8.2
 50
14.696982
 51
54.515049
  0
ARC
  8
LY_1
  6
CONTINUOUS
 62
     7
  5
C6
 10
-9.776989
 20
74.882492
 30
0.0
 40
37.600006
 50
7.514946
 51
14.637106
  0
ARC
  8
LY_1
  6
CONTINUOUS
 62
     7
  5
C7
 10
-8.792679
 20
83.899994
 30
0.0
 40
2.0
 50
90.000037
 51
180.000019
  0
ARC
  8
LY_1
  6
CONTINUOUS
 62
     7
  5
C8
 10
-9.792679
 20
83.199997
 30
0.0
 40
1.0
 50
180.000019
 51
270.000001
  0
ARC
  8
LY_1
  6
CONTINUOUS
 62
     7
  5
C9
 10
-18.383759
 20
83.899994
 30
0.0
 40
2.0
 50
90.000037
 51
180.000019
  0
ARC
  8
LY_1
  6
CONTINUOUS
 62
     7
  5
CA
 10
-19.383759
 20
83.199997
 30
0.0
 40
1.0
 50
180.000019
 51
270.000001
  0
ARC
  8
LY_1
  6
CONTINUOUS
 62
     7
  5
CB
 10
-10.649995
 20
84.5
 30
0.0
 40
5.5
 50
38.183418
 51
125.44921
  0
ARC
  8
LY_1
  6
CONTINUOUS
 62
     7
  5
CC
 10
-9.079881
 20
82.303467
 30
0.0
 40
8.2
 50
125.484946
 51
165.303036
  0
ARC
  8
LY_1
  6
CONTINUOUS
 62
     7
  5
CD
 10
19.368134
 20
74.882492
 30
0.0
 40
37.600006
 50
165.362869
 51
172.485062
  0
ARC
  8
LY_1
  6
CONTINUOUS
 62
     7
  5
CE
 10
-20.241089
 20
84.5
 30
0.0
 40
5.5
 50
38.183418
 51
125.44921
  0
ARC
  8
LY_1
  6
CONTINUOUS
 62
     7
  5
CF
 10
-18.670975
 20
82.303467
 30
0.0
 40
8.2
 50
125.484946
 51
165.303036
  0
ARC
  8
LY_1
  6
CONTINUOUS
 62
     7
  5
D0
 10
9.777045
 20
74.882492
 30
0.0
 40
37.600006
 50
165.362869
 51
172.485062
  0
ARC
  8
LY_1
  6
CONTINUOUS
 62
     7
  5
D1
 10
8.792679
 20
83.899994
 30
0.0
 40
2.0
 50
0.0
 51
89.999982
  0
ARC
  8
LY_1
  6
CONTINUOUS
 62
     7
  5
D2
 10
9.792679
 20
83.199997
 30
0.0
 40
1.0
 50
270.000018
 51
0.0
  0
ARC
  8
LY_1
  6
CONTINUOUS
 62
     7
  5
D3
 10
101.943008
 20
83.899994
 30
0.0
 40
2.0
 50
0.0
 51
89.999982
  0
ARC
  8
LY_1
  6
CONTINUOUS
 62
     7
  5
D4
 10
102.943008
 20
83.199997
 30
0.0
 40
1.0
 50
270.000018
 51
0.0
  0
CIRCLE
  8
LY_1
  6
CONTINUOUS
 62
     7
  5
D5
 10
0.0
 20
146.25795
 30
0.0
 40
3.0
  0
CIRCLE
  8
LY_1
  6
CONTINUOUS
 62
     7
  5
D6
 10
0.0
 20
146.25795
 30
0.0
 40
2.3
  0
ARC
  8
LY_1
  6
CONTINUOUS
 62
     7
  5
D7
 10
0.0
 20
146.25795
 30
0.0
 40
14.25
 50
136.302108
 51
223.697875
  0
ARC
  8
LY_1
  6
CONTINUOUS
 62
     7
  5
D8
 10
0.0
 20
146.25795
 30
0.0
 40
14.25
 50
256.302046
 51
343.697906
  0
ARC
  8
LY_1
  6
CONTINUOUS
 62
     7
  5
D9
 10
14.734045
 20
133.637833
 30
0.0
 40
1.4
 50
139.418969
 51
209.999903
  0
ARC
  8
LY_1
  6
CONTINUOUS
 62
     7
  5
DA
 10
18.296387
 20
139.807953
 30
0.0
 40
1.4
 50
89.999982
 51
160.581026
  0
ARC
  8
LY_1
  6
CONTINUOUS
 62
     7
  5
DB
 10
0.0
 20
146.25795
 30
0.0
 40
18.0
 50
319.419018
 51
340.580966
  0
ARC
  8
LY_1
  6
CONTINUOUS
 62
     7
  5
DC
 10
0.0
 20
146.25795
 30
0.0
 40
21.0
 50
313.914651
 51
346.085334
  0
ARC
  8
LY_1
  6
CONTINUOUS
 62
     7
  5
DD
 10
-3.562317
 20
127.187836
 30
0.0
 40
1.4
 50
79.418981
 51
149.999915
  0
ARC
  8
LY_1
  6
CONTINUOUS
 62
     7
  5
DE
 10
3.562328
 20
127.18782
 30
0.0
 40
1.4
 50
29.999967
 51
100.581038
  0
ARC
  8
LY_1
  6
CONTINUOUS
 62
     7
  5
DF
 10
0.0
 20
146.25795
 30
0.0
 40
18.0
 50
259.419017
 51
280.580965
  0
ARC
  8
LY_1
  6
CONTINUOUS
 62
     7
  5
E0
 10
0.0
 20
146.25795
 30
0.0
 40
21.0
 50
253.914649
 51
286.085332
  0
ARC
  8
LY_1
  6
CONTINUOUS
 62
     7
  5
E1
 10
-18.296356
 20
139.807953
 30
0.0
 40
1.4
 50
19.418965
 51
89.999927
  0
ARC
  8
LY_1
  6
CONTINUOUS
 62
     7
  5
E2
 10
-14.734055
 20
133.637817
 30
0.0
 40
1.4
 50
329.999965
 51
40.581023
  0
ARC
  8
LY_1
  6
CONTINUOUS
 62
     7
  5
E3
 10
0.0
 20
146.25795
 30
0.0
 40
18.0
 50
199.419029
 51
220.580977
  0
ARC
  8
LY_1
  6
CONTINUOUS
 62
     7
  5
E4
 10
0.0
 20
146.25795
 30
0.0
 40
21.0
 50
193.914661
 51
226.085344
  0
ARC
  8
LY_1
  6
CONTINUOUS
 62
     7
  5
E5
 10
-14.734041
 20
158.878067
 30
0.0
 40
1.4
 50
319.418964
 51
29.999912
  0
ARC
  8
LY_1
  6
CONTINUOUS
 62
     7
  5
E6
 10
-18.296387
 20
152.707947
 30
0.0
 40
1.4
 50
269.999963
 51
340.581021
  0
ARC
  8
LY_1
  6
CONTINUOUS
 62
     7
  5
E7
 10
0.0
 20
146.25795
 30
0.0
 40
18.0
 50
139.419023
 51
160.580971
  0
ARC
  8
LY_1
  6
CONTINUOUS
 62
     7
  5
E8
 10
0.0
 20
146.25795
 30
0.0
 40
21.0
 50
133.914656
 51
166.085339
  0
ARC
  8
LY_1
  6
CONTINUOUS
 62
     7
  5
E9
 10
3.562325
 20
165.328064
 30
0.0
 40
1.4
 50
259.418962
 51
329.99991
  0
ARC
  8
LY_1
  6
CONTINUOUS
 62
     7
  5
EA
 10
-3.562334
 20
165.328079
 30
0.0
 40
1.4
 50
209.999975
 51
280.581019
  0
ARC
  8
LY_1
  6
CONTINUOUS
 62
     7
  5
EB
 10
0.0
 20
146.25795
 30
0.0
 40
18.0
 50
79.419035
 51
100.580983
  0
ARC
  8
LY_1
  6
CONTINUOUS
 62
     7
  5
EC
 10
0.0
 20
146.25795
 30
0.0
 40
21.0
 50
73.914668
 51
106.085351
  0
ARC
  8
LY_1
  6
CONTINUOUS
 62
     7
  5
ED
 10
18.296371
 20
152.707947
 30
0.0
 40
1.4
 50
199.418974
 51
269.999909
  0
ARC
  8
LY_1
  6
CONTINUOUS
 62
     7
  5
EE
 10
14.734043
 20
158.878082
 30
0.0
 40
1.4
 50
149.99997
 51
220.581014
  0
ARC
  8
LY_1
  6
CONTINUOUS
 62
     7
  5
EF
 10
0.0
 20
146.25795
 30
0.0
 40
14.25
 50
16.302091
 51
103.697954
  0
ARC
  8
LY_1
  6
CONTINUOUS
 62
     7
  5
F0
 10
0.0
 20
146.25795
 30
0.0
 40
18.0
 50
19.41902
 51
40.581005
  0
ARC
  8
LY_1
  6
CONTINUOUS
 62
     7
  5
F1
 10
0.0
 20
146.25795
 30
0.0
 40
21.0
 50
13.914656
 51
46.085366
  0
ARC
  8
LY_1
  6
CONTINUOUS
 62
     7
  5
F2
 10
63.763733
 20
183.07196
 30
0.0
 40
50.0
 50
199.076317
 51
220.923743
  0
ARC
  8
LY_1
  6
CONTINUOUS
 62
     7
  5
F3
 10
21.300003
 20
146.25795
 30
0.0
 40
6.2
 50
319.030773
 51
40.923748
  0
ARC
  8
LY_1
  6
CONTINUOUS
 62
     7
  5
F4
 10
0.000002
 20
219.885971
 30
0.0
 40
50.0
 50
259.076305
 51
280.923731
  0
ARC
  8
LY_1
  6
CONTINUOUS
 62
     7
  5
F5
 10
10.650003
 20
164.7043
 30
0.0
 40
6.2
 50
18.996126
 51
100.923749
  0
ARC
  8
LY_1
  6
CONTINUOUS
 62
     7
  5
F6
 10
-63.763733
 20
183.07196
 30
0.0
 40
50.0
 50
319.076321
 51
340.923746
  0
ARC
  8
LY_1
  6
CONTINUOUS
 62
     7
  5
F7
 10
-10.650009
 20
164.7043
 30
0.0
 40
6.2
 50
79.01753
 51
160.923737
  0
ARC
  8
LY_1
  6
CONTINUOUS
 62
     7
  5
F8
 10
-63.763733
 20
109.443939
 30
0.0
 40
50.0
 50
19.076322
 51
40.923748
  0
ARC
  8
LY_1
  6
CONTINUOUS
 62
     7
  5
F9
 10
-21.300018
 20
146.25795
 30
0.0
 40
6.2
 50
138.962548
 51
220.923725
  0
ARC
  8
LY_1
  6
CONTINUOUS
 62
     7
  5
FA
 10
-0.000002
 20
72.629929
 30
0.0
 40
50.0
 50
79.076324
 51
100.923749
  0
ARC
  8
LY_1
  6
CONTINUOUS
 62
     7
  5
FB
 10
-10.650007
 20
127.8116
 30
0.0
 40
6.2
 50
198.977197
 51
280.923731
  0
ARC
  8
LY_1
  6
CONTINUOUS
 62
     7
  5
FC
 10
63.763733
 20
109.443939
 30
0.0
 40
50.0
 50
139.076312
 51
160.923737
  0
ARC
  8
LY_1
  6
CONTINUOUS
 62
     7
  5
FD
 10
10.649995
 20
84.5
 30
0.0
 40
5.5
 50
54.550781
 51
141.816584
  0
ARC
  8
LY_1
  6
CONTINUOUS
 62
     7
  5
FE
 10
-19.368134
 20
74.882492
 30
0.0
 40
37.600006
 50
7.514946
 51
14.637106
  0
ARC
  8
LY_1
  6
CONTINUOUS
 62
     7
  5
FF
 10
10.650002
 20
127.8116
 30
0.0
 40
6.2
 50
259.00691
 51
340.923712
  0
ARC
  8
LY_1
  6
CONTINUOUS
 62
     7
  5
100
 10
103.800339
 20
84.5
 30
0.0
 40
5.5
 50
54.550781
 51
141.816584
  0
ARC
  8
LY_1
  6
CONTINUOUS
 62
     7
  5
101
 10
102.230225
 20
82.303467
 30
0.0
 40
8.2
 50
14.696982
 51
54.515049
  0
ARC
  8
LY_1
  6
CONTINUOUS
 62
     7
  5
102
 10
73.782211
 20
74.882492
 30
0.0
 40
37.600006
 50
7.514946
 51
14.637106
  0
ARC
  8
LY_1
  6
CONTINUOUS
 62
     7
  5
103
 10
-18.0
 20
51.216446
 30
0.0
 40
10.0
 50
304.750234
 51
0.000019
  0
ARC
  8
LY_1
  6
CONTINUOUS
 62
     7
  5
104
 10
18.0
 20
51.216446
 30
0.0
 40
10.0
 50
179.999981
 51
235.249764
  0
ARC
  8
LY_1
  6
CONTINUOUS
 62
     7
  5
105
 10
-13.9
 20
16.624084
 30
0.0
 40
2.0
 50
195.000006
 51
0.000019
  0
ARC
  8
LY_1
  6
CONTINUOUS
 62
     7
  5
106
 10
-13.9
 20
19.323456
 30
0.0
 40
2.0
 50
359.999817
 51
59.999933
  0
ARC
  8
LY_1
  6
CONTINUOUS
 62
     7
  5
107
 10
-16.0
 20
25.154694
 30
0.0
 40
2.0
 50
180.0002
 51
240.000079
  0
ARC
  8
LY_1
  6
CONTINUOUS
 62
     7
  5
108
 10
13.9
 20
19.323456
 30
0.0
 40
2.0
 50
120.000085
 51
180.000183
  0
ARC
  8
LY_1
  6
CONTINUOUS
 62
     7
  5
109
 10
16.0
 20
25.154694
 30
0.0
 40
2.0
 50
299.999903
 51
359.999785
  0
ARC
  8
LY_1
  6
CONTINUOUS
 62
     7
  5
10A
 10
-10.503766
 20
-18.81044
 30
0.0
 40
3.0
 50
57.218936
 51
104.440368
  0
ARC
  8
LY_1
  6
CONTINUOUS
 62
     7
  5
10B
 10
-12.0
 20
-13.0
 30
0.0
 40
3.0
 50
269.999963
 51
284.440349
  0
ARC
  8
LY_1
  6
CONTINUOUS
 62
     7
  5
10C
 10
-14.148101
 20
-18.0
 30
0.0
 40
2.0
 50
90.000037
 51
164.999994
  0
ARC
  8
LY_1
  6
CONTINUOUS
 62
     7
  5
10D
 10
10.503766
 20
-18.81044
 30
0.0
 40
3.0
 50
75.559651
 51
122.781065
  0
ARC
  8
LY_1
  6
CONTINUOUS
 62
     7
  5
10E
 10
0.0
 20
-2.5
 30
0.0
 40
16.399994
 50
237.200685
 51
302.781139
  0
ARC
  8
LY_1
  6
CONTINUOUS
 62
     7
  5
10F
 10
12.0
 20
-13.0
 30
0.0
 40
3.0
 50
255.559632
 51
270.000018
  0
ARC
  8
LY_1
  6
CONTINUOUS
 62
     7
  5
110
 10
14.148101
 20
-18.0
 30
0.0
 40
2.0
 50
14.999997
 51
89.999982
  0
LINE
  8
LY_1
  6
CONTINUOUS
 62
     7
  5
111
 10
1.602676
 20
4.69368
 30
0.0
 11
1.486298
 21
4.69368
 31
0.0
  0
LINE
  8
LY_1
  6
CONTINUOUS
 62
     7
  5
112
 10
1.602509
 20
10.559402
 30
0.0
 11
1.486145
 21
10.559402
 31
0.0
  0
LINE
  8
LY_1
  6
CONTINUOUS
 62
     7
  5
113
 10
1.602509
 20
10.559402
 30
0.0
 11
1.602509
 21
9.685333
 31
0.0
  0
LINE
  8
LY_1
  6
CONTINUOUS
 62
     7
  5
114
 10
0.930054
 20
8.523788
 30
0.0
 11
0.930054
 21
7.246811
 31
0.0
  0
LINE
  8
LY_1
  6
CONTINUOUS
 62
     7
  5
115
 10
0.930054
 20
8.523788
 30
0.0
 11
-1.486267
 21
8.523788
 31
0.0
  0
LINE
  8
LY_1
  6
CONTINUOUS
 62
     7
  5
116
 10
1.602509
 20
9.685333
 30
0.0
 11
-1.486267
 21
9.685333
 31
0.0
  0
LINE
  8
LY_1
  6
CONTINUOUS
 62
     7
  5
117
 10
2.066833
 20
11.140152
 30
0.0
 11
2.066833
 21
7.246811
 31
0.0
  0
LINE
  8
LY_1
  6
CONTINUOUS
 62
     7
  5
118
 10
1.602676
 20
4.69368
 30
0.0
 11
1.602676
 21
2.447296
 31
0.0
  0
LINE
  8
LY_1
  6
CONTINUOUS
 62
     7
  5
119
 10
-2.067017
 20
5.498123
 30
0.0
 11
-2.067017
 21
1.56842
 31
0.0
  0
LINE
  8
LY_1
  6
CONTINUOUS
 62
     7
  5
11A
 10
-0.930161
 20
1.56842
 30
0.0
 11
-0.930161
 21
3.74147
 31
0.0
  0
LINE
  8
LY_1
  6
CONTINUOUS
 62
     7
  5
11B
 10
1.052253
 20
1.221234
 30
0.0
 11
-0.893299
 21
3.75452
 31
0.0
  0
LINE
  8
LY_1
  6
CONTINUOUS
 62
     7
  5
11C
 10
1.56575
 20
2.434238
 30
0.0
 11
-1.052069
 21
5.842877
 31
0.0
  0
LINE
  8
LY_1
  6
CONTINUOUS
 62
     7
  5
11D
 10
2.067047
 20
5.274445
 30
0.0
 11
2.067047
 21
1.565964
 31
0.0
  0
LINE
  8
LY_1
  6
CONTINUOUS
 62
     7
  5
11E
 10
-1.486267
 20
13.713638
 30
0.0
 11
1.486298
 21
13.713638
 31
0.0
  0
LINE
  8
LY_1
  6
CONTINUOUS
 62
     7
  5
11F
 10
1.486298
 20
12.552094
 30
0.0
 11
-1.486267
 21
12.552094
 31
0.0
  0
LINE
  8
LY_1
  6
CONTINUOUS
 62
     7
  5
120
 10
0.346225
 20
16.813333
 30
0.0
 11
1.184486
 21
15.582598
 31
0.0
  0
LINE
  8
LY_1
  6
CONTINUOUS
 62
     7
  5
121
 10
0.3462
 20
16.813359
 30
0.0
 11
-1.026917
 21
14.797351
 31
0.0
  0
LINE
  8
LY_1
  6
CONTINUOUS
 62
     7
  5
122
 10
0.01688
 20
18.313559
 30
0.0
 11
1.947521
 21
15.478995
 31
0.0
  0
LINE
  8
LY_1
  6
CONTINUOUS
 62
     7
  5
123
 10
-0.017005
 20
18.313548
 30
0.0
 11
-1.973012
 21
15.441742
 31
0.0
  0
LINE
  8
LY_1
  6
CONTINUOUS
 62
     7
  5
124
 10
1.486343
 20
18.338577
 30
0.0
 11
-1.486328
 21
18.338577
 31
0.0
  0
LINE
  8
LY_1
  6
CONTINUOUS
 62
     7
  5
125
 10
1.486343
 20
19.500015
 30
0.0
 11
-1.486328
 21
19.500015
 31
0.0
  0
LINE
  8
LY_1
  6
CONTINUOUS
 62
     7
  5
126
 10
5.898527
 20
141.308468
 30
0.0
 11
6.970993
 21
140.408557
 31
0.0
  0
LINE
  8
LY_1
  6
CONTINUOUS
 62
     7
  5
127
 10
6.344156
 20
143.299614
 30
0.0
 11
6.978568
 21
143.003781
 31
0.0
  0
LINE
  8
LY_1
  6
CONTINUOUS
 62
     7
  5
128
 10
8.881823
 20
142.116287
 30
0.0
 11
8.247398
 21
142.412127
 31
0.0
  0
LINE
  8
LY_1
  6
CONTINUOUS
 62
     7
  5
129
 10
8.272386
 20
144.799289
 30
0.0
 11
6.344154
 21
143.299617
 31
0.0
  0
LINE
  8
LY_1
  6
CONTINUOUS
 62
     7
  5
12A
 10
8.272384
 20
144.79929
 30
0.0
 11
8.881806
 21
142.11629
 31
0.0
  0
LINE
  8
LY_1
  6
CONTINUOUS
 62
     7
  5
12B
 10
-5.898538
 20
141.308458
 30
0.0
 11
-6.971005
 21
140.408547
 31
0.0
  0
LINE
  8
LY_1
  6
CONTINUOUS
 62
     7
  5
12C
 10
-6.344163
 20
143.299628
 30
0.0
 11
-6.978575
 21
143.003795
 31
0.0
  0
LINE
  8
LY_1
  6
CONTINUOUS
 62
     7
  5
12D
 10
-8.88181
 20
142.116293
 30
0.0
 11
-8.247398
 21
142.412127
 31
0.0
  0
LINE
  8
LY_1
  6
CONTINUOUS
 62
     7
  5
12E
 10
-8.272398
 20
144.799299
 30
0.0
 11
-6.344166
 21
143.299626
 31
0.0
  0
LINE
  8
LY_1
  6
CONTINUOUS
 62
     7
  5
12F
 10
-8.272399
 20
144.799294
 30
0.0
 11
-8.881821
 21
142.116293
 31
0.0
  0
LINE
  8
LY_1
  6
CONTINUOUS
 62
     7
  5
130
 10
1.870743
 20
155.007904
 30
0.0
 11
1.870743
 21
154.969437
 31
0.0
  0
LINE
  8
LY_1
  6
CONTINUOUS
 62
     7
  5
131
 10
2.365143
 20
155.052017
 30
0.0
 11
2.365143
 21
154.990433
 31
0.0
  0
LINE
  8
LY_1
  6
CONTINUOUS
 62
     7
  5
132
 10
-0.131714
 20
155.051956
 30
0.0
 11
-0.131714
 21
154.990356
 31
0.0
  0
LINE
  8
LY_1
  6
CONTINUOUS
 62
     7
  5
133
 10
-0.626099
 20
155.007843
 30
0.0
 11
-0.626099
 21
154.96936
 31
0.0
  0
LINE
  8
LY_1
  6
CONTINUOUS
 62
     7
  5
134
 10
-0.979996
 20
155.040756
 30
0.0
 11
-0.979996
 21
153.43515
 31
0.0
  0
LINE
  8
LY_1
  6
CONTINUOUS
 62
     7
  5
135
 10
-1.47438
 20
155.040756
 30
0.0
 11
-1.47438
 21
153.43515
 31
0.0
  0
LINE
  8
LY_1
  6
CONTINUOUS
 62
     7
  5
136
 10
-1.826492
 20
155.00795
 30
0.0
 11
-1.826492
 21
154.990585
 31
0.0
  0
LINE
  8
LY_1
  6
CONTINUOUS
 62
     7
  5
137
 10
-0.131714
 20
155.051956
 30
0.0
 11
0.240372
 21
155.051956
 31
0.0
  0
LINE
  8
LY_1
  6
CONTINUOUS
 62
     7
  5
138
 10
0.734802
 20
154.710373
 30
0.0
 11
1.231613
 21
154.710373
 31
0.0
  0
LINE
  8
LY_1
  6
CONTINUOUS
 62
     7
  5
139
 10
0.734802
 20
154.710373
 30
0.0
 11
0.734802
 21
153.43515
 31
0.0
  0
LINE
  8
LY_1
  6
CONTINUOUS
 62
     7
  5
13A
 10
0.240372
 20
155.051956
 30
0.0
 11
0.240372
 21
153.43515
 31
0.0
  0
LINE
  8
LY_1
  6
CONTINUOUS
 62
     7
  5
13B
 10
-0.3461
 20
155.287827
 30
0.0
 11
1.231613
 21
155.287827
 31
0.0
  0
LINE
  8
LY_1
  6
CONTINUOUS
 62
     7
  5
13C
 10
2.365143
 20
155.052048
 30
0.0
 11
3.320435
 21
155.052048
 31
0.0
  0
LINE
  8
LY_1
  6
CONTINUOUS
 62
     7
  5
13D
 10
2.079895
 20
153.187943
 30
0.0
 11
3.648743
 21
153.187943
 31
0.0
  0
LINE
  8
LY_1
  6
CONTINUOUS
 62
     7
  5
13E
 10
3.648743
 20
153.765442
 30
0.0
 11
2.77153
 21
153.765442
 31
0.0
  0
LINE
  8
LY_1
  6
CONTINUOUS
 62
     7
  5
13F
 10
3.840814
 20
154.770144
 30
0.0
 11
2.76445
 21
153.783684
 31
0.0
  0
LINE
  8
LY_1
  6
CONTINUOUS
 62
     7
  5
140
 10
3.32753
 20
155.033794
 30
0.0
 11
1.876423
 21
153.703891
 31
0.0
  0
LINE
  8
LY_1
  6
CONTINUOUS
 62
     7
  5
141
 10
2.150757
 20
155.287933
 30
0.0
 11
3.639435
 21
155.287933
 31
0.0
  0
LINE
  8
LY_1
  6
CONTINUOUS
 62
     7
  5
142
 10
-2.793854
 20
154.413783
 30
0.0
 11
-2.284707
 21
154.827611
 31
0.0
  0
LINE
  8
LY_1
  6
CONTINUOUS
 62
     7
  5
143
 10
-2.79387
 20
154.413791
 30
0.0
 11
-1.904785
 21
153.691153
 31
0.0
  0
LINE
  8
LY_1
  6
CONTINUOUS
 62
     7
  5
144
 10
-3.432454
 20
154.246512
 30
0.0
 11
-2.214464
 21
155.236479
 31
0.0
  0
LINE
  8
LY_1
  6
CONTINUOUS
 62
     7
  5
145
 10
-3.43246
 20
154.229316
 30
0.0
 11
-2.249117
 21
153.26751
 31
0.0
  0
LINE
  8
LY_1
  6
CONTINUOUS
 62
     7
  5
146
 10
-3.443115
 20
155.040741
 30
0.0
 11
-3.443115
 21
153.435135
 31
0.0
  0
LINE
  8
LY_1
  6
CONTINUOUS
 62
     7
  5
147
 10
-3.937515
 20
155.040741
 30
0.0
 11
-3.937515
 21
153.435135
 31
0.0
  0
LINE
  8
LY_1
  6
CONTINUOUS
 62
     7
  5
148
 10
-8.393774
 20
146.752754
 30
0.0
 11
-8.579258
 21
145.70082
 31
0.0
  0
LINE
  8
LY_1
  6
CONTINUOUS
 62
     7
  5
149
 10
-8.186958
 20
146.716286
 30
0.0
 11
-8.372442
 21
145.664353
 31
0.0
  0
LINE
  8
LY_1
  6
CONTINUOUS
 62
     7
  5
14A
 10
-11.9
 20
22.199997
 30
0.0
 11
-11.9
 21
10.444641
 31
0.0
  0
LINE
  8
LY_1
  6
CONTINUOUS
 62
     7
  5
14B
 10
-8.66026
 20
139.257941
 30
0.0
 11
-12.701718
 21
146.257952
 31
0.0
  0
LINE
  8
LY_1
  6
CONTINUOUS
 62
     7
  5
14C
 10
-15.880152
 20
155.74852
 30
0.0
 11
-15.880152
 21
159.999161
 31
0.0
  0
LINE
  8
LY_1
  6
CONTINUOUS
 62
     7
  5
14D
 10
-8.660264
 20
153.257944
 30
0.0
 11
-12.701714
 21
146.257946
 31
0.0
  0
LINE
  8
LY_1
  6
CONTINUOUS
 62
     7
  5
14E
 10
-15.880152
 20
136.76738
 30
0.0
 11
-15.880152
 21
132.516739
 31
0.0
  0
LINE
  8
LY_1
  6
CONTINUOUS
 62
     7
  5
14F
 10
6.350865
 20
135.257952
 30
0.0
 11
10.392315
 21
142.257949
 31
0.0
  0
LINE
  8
LY_1
  6
CONTINUOUS
 62
     7
  5
150
 10
15.880152
 20
155.74852
 30
0.0
 11
15.880152
 21
159.999161
 31
0.0
  0
LINE
  8
LY_1
  6
CONTINUOUS
 62
     7
  5
151
 10
-1.732059
 20
135.25795
 30
0.0
 11
6.350862
 21
135.25795
 31
0.0
  0
LINE
  8
LY_1
  6
CONTINUOUS
 62
     7
  5
152
 10
6.350862
 20
157.257946
 30
0.0
 11
10.392312
 21
150.257948
 31
0.0
  0
LINE
  8
LY_1
  6
CONTINUOUS
 62
     7
  5
153
 10
15.880152
 20
136.76738
 30
0.0
 11
15.880152
 21
132.516739
 31
0.0
  0
LINE
  8
LY_1
  6
CONTINUOUS
 62
     7
  5
154
 10
-1.732059
 20
157.25795
 30
0.0
 11
6.350862
 21
157.25795
 31
0.0
  0
LINE
  8
LY_1
  6
CONTINUOUS
 62
     7
  5
155
 10
86.412903
 20
43.0
 30
0.0
 11
86.412903
 21
37.0
 31
0.0
  0
LINE
  8
LY_1
  6
CONTINUOUS
 62
     7
  5
156
 10
86.412903
 20
67.0
 30
0.0
 11
86.412903
 21
56.5
 31
0.0
  0
LINE
  8
LY_1
  6
CONTINUOUS
 62
     7
  5
157
 10
67.912903
 20
35.677536
 30
0.0
 11
104.912903
 21
35.677536
 31
0.0
  0
LINE
  8
LY_1
  6
CONTINUOUS
 62
     7
  5
158
 10
-18.5
 20
35.906769
 30
0.0
 11
18.5
 21
35.906769
 31
0.0
  0
LINE
  8
LY_1
  6
CONTINUOUS
 62
     7
  5
159
 10
-16.0
 20
22.845306
 30
0.0
 11
-16.0
 21
20.600006
 31
0.0
  0
LINE
  8
LY_1
  6
CONTINUOUS
 62
     7
  5
15A
 10
13.9
 20
15.679561
 30
0.0
 11
14.182817
 21
15.679561
 31
0.0
  0
LINE
  8
LY_1
  6
CONTINUOUS
 62
     7
  5
15B
 10
16.0
 20
22.845306
 30
0.0
 11
16.0
 21
20.600006
 31
0.0
  0
LINE
  8
LY_1
  6
CONTINUOUS
 62
     7
  5
15C
 10
-17.857254
 20
129.25795
 30
0.0
 11
-23.5
 21
129.25795
 31
0.0
  0
LINE
  8
LY_1
  6
CONTINUOUS
 62
     7
  5
15D
 10
-23.5
 20
129.25795
 30
0.0
 11
-23.5
 21
139.089035
 31
0.0
  0
LINE
  8
LY_1
  6
CONTINUOUS
 62
     7
  5
15E
 10
17.857254
 20
129.25795
 30
0.0
 11
23.5
 21
129.25795
 31
0.0
  0
LINE
  8
LY_1
  6
CONTINUOUS
 62
     7
  5
15F
 10
23.5
 20
129.25795
 30
0.0
 11
23.5
 21
139.089035
 31
0.0
  0
LINE
  8
LY_1
  6
CONTINUOUS
 62
     7
  5
160
 10
-17.857254
 20
163.25795
 30
0.0
 11
-23.5
 21
163.25795
 31
0.0
  0
LINE
  8
LY_1
  6
CONTINUOUS
 62
     7
  5
161
 10
-23.5
 20
163.25795
 30
0.0
 11
-23.5
 21
153.426865
 31
0.0
  0
LINE
  8
LY_1
  6
CONTINUOUS
 62
     7
  5
162
 10
17.857254
 20
163.25795
 30
0.0
 11
23.5
 21
163.25795
 31
0.0
  0
LINE
  8
LY_1
  6
CONTINUOUS
 62
     7
  5
163
 10
23.5
 20
163.25795
 30
0.0
 11
23.5
 21
153.426865
 31
0.0
  0
LINE
  8
LY_1
  6
CONTINUOUS
 62
     7
  5
164
 10
-16.5
 20
9.814955
 30
0.0
 11
-23.5
 21
9.814955
 31
0.0
  0
LINE
  8
LY_1
  6
CONTINUOUS
 62
     7
  5
165
 10
16.5
 20
9.814955
 30
0.0
 11
23.5
 21
9.814955
 31
0.0
  0
LINE
  8
LY_1
  6
CONTINUOUS
 62
     7
  5
166
 10
-16.5
 20
-9.814955
 30
0.0
 11
-23.5
 21
-9.814955
 31
0.0
  0
LINE
  8
LY_1
  6
CONTINUOUS
 62
     7
  5
167
 10
16.5
 20
-9.814955
 30
0.0
 11
23.5
 21
-9.814955
 31
0.0
  0
LINE
  8
LY_1
  6
CONTINUOUS
 62
     7
  5
168
 10
69.814797
 20
22.130744
 30
0.0
 11
69.919722
 21
10.107564
 31
0.0
  0
LINE
  8
LY_1
  6
CONTINUOUS
 62
     7
  5
169
 10
68.412903
 20
31.0
 30
0.0
 11
68.412903
 21
25.154694
 31
0.0
  0
LINE
  8
LY_1
  6
CONTINUOUS
 62
     7
  5
16A
 10
84.912903
 20
22.0
 30
0.0
 11
84.912903
 21
18.600006
 31
0.0
  0
LINE
  8
LY_1
  6
CONTINUOUS
 62
     7
  5
16B
 10
84.629059
 20
18.600006
 30
0.0
 11
88.196747
 21
18.600006
 31
0.0
  0
LINE
  8
LY_1
  6
CONTINUOUS
 62
     7
  5
16C
 10
87.912903
 20
22.0
 30
0.0
 11
87.912903
 21
18.600006
 31
0.0
  0
LINE
  8
LY_1
  6
CONTINUOUS
 62
     7
  5
16D
 10
103.011011
 20
22.130737
 30
0.0
 11
102.906086
 21
10.107564
 31
0.0
  0
LINE
  8
LY_1
  6
CONTINUOUS
 62
     7
  5
16E
 10
75.412909
 20
36.999987
 30
0.0
 11
67.912901
 21
35.677533
 31
0.0
  0
LINE
  8
LY_1
  6
CONTINUOUS
 62
     7
  5
16F
 10
75.412903
 20
43.0
 30
0.0
 11
75.412903
 21
37.0
 31
0.0
  0
LINE
  8
LY_1
  6
CONTINUOUS
 62
     7
  5
170
 10
78.412903
 20
56.5
 30
0.0
 11
78.412903
 21
50.141434
 31
0.0
  0
LINE
  8
LY_1
  6
CONTINUOUS
 62
     7
  5
171
 10
67.912903
 20
35.677536
 30
0.0
 11
67.912903
 21
31.0
 31
0.0
  0
LINE
  8
LY_1
  6
CONTINUOUS
 62
     7
  5
172
 10
97.412896
 20
36.999994
 30
0.0
 11
104.912904
 21
35.67754
 31
0.0
  0
LINE
  8
LY_1
  6
CONTINUOUS
 62
     7
  5
173
 10
97.412903
 20
43.0
 30
0.0
 11
97.412903
 21
37.0
 31
0.0
  0
LINE
  8
LY_1
  6
CONTINUOUS
 62
     7
  5
174
 10
79.062897
 20
56.5
 30
0.0
 11
79.062897
 21
51.5
 31
0.0
  0
LINE
  8
LY_1
  6
CONTINUOUS
 62
     7
  5
175
 10
93.762909
 20
56.5
 30
0.0
 11
93.762909
 21
51.5
 31
0.0
  0
LINE
  8
LY_1
  6
CONTINUOUS
 62
     7
  5
176
 10
94.412903
 20
56.5
 30
0.0
 11
94.412903
 21
50.141434
 31
0.0
  0
LINE
  8
LY_1
  6
CONTINUOUS
 62
     7
  5
177
 10
78.412903
 20
51.5
 30
0.0
 11
94.412903
 21
51.5
 31
0.0
  0
LINE
  8
LY_1
  6
CONTINUOUS
 62
     7
  5
178
 10
75.412903
 20
43.0
 30
0.0
 11
97.412903
 21
43.0
 31
0.0
  0
LINE
  8
LY_1
  6
CONTINUOUS
 62
     7
  5
179
 10
75.412903
 20
37.0
 30
0.0
 11
97.412903
 21
37.0
 31
0.0
  0
LINE
  8
LY_1
  6
CONTINUOUS
 62
     7
  5
17A
 10
69.455475
 20
24.0
 30
0.0
 11
103.370331
 21
24.0
 31
0.0
  0
LINE
  8
LY_1
  6
CONTINUOUS
 62
     7
  5
17B
 10
104.412903
 20
31.0
 30
0.0
 11
104.412903
 21
25.154694
 31
0.0
  0
LINE
  8
LY_1
  6
CONTINUOUS
 62
     7
  5
17C
 10
104.912903
 20
35.677536
 30
0.0
 11
104.912903
 21
31.0
 31
0.0
  0
LINE
  8
LY_1
  6
CONTINUOUS
 62
     7
  5
17D
 10
67.912903
 20
31.0
 30
0.0
 11
104.912903
 21
31.0
 31
0.0
  0
LINE
  8
LY_1
  6
CONTINUOUS
 62
     7
  5
17E
 10
67.912903
 20
33.5
 30
0.0
 11
104.912903
 21
33.5
 31
0.0
  0
LINE
  8
LY_1
  6
CONTINUOUS
 62
     7
  5
17F
 10
69.412901
 20
9.814954
 30
0.0
 11
84.629052
 21
18.600004
 31
0.0
  0
LINE
  8
LY_1
  6
CONTINUOUS
 62
     7
  5
180
 10
86.412901
 20
-19.629909
 30
0.0
 11
103.412904
 21
-9.814952
 31
0.0
  0
LINE
  8
LY_1
  6
CONTINUOUS
 62
     7
  5
181
 10
88.196739
 20
18.600009
 30
0.0
 11
103.412904
 21
9.814952
 31
0.0
  0
LINE
  8
LY_1
  6
CONTINUOUS
 62
     7
  5
182
 10
69.412901
 20
-9.814954
 30
0.0
 11
86.412904
 21
-19.629911
 31
0.0
  0
LINE
  8
LY_1
  6
CONTINUOUS
 62
     7
  5
183
 10
103.412903
 20
9.814955
 30
0.0
 11
103.412903
 21
-9.814955
 31
0.0
  0
LINE
  8
LY_1
  6
CONTINUOUS
 62
     7
  5
184
 10
69.412903
 20
9.814955
 30
0.0
 11
69.412903
 21
-9.814955
 31
0.0
  0
LINE
  8
LY_1
  6
CENTER
 62
     7
  5
186
 10
61.78299
 20
0.0
 30
0.0
 11
111.042816
 21
0.0
 31
0.0
  0
LINE
  8
LY_1
  6
CONTINUOUS
 62
     7
  5
187
 10
-6.350853
 20
43.0
 30
0.0
 11
-6.350853
 21
37.0
 31
0.0
  0
LINE
  8
LY_1
  6
CONTINUOUS
 62
     7
  5
188
 10
6.350853
 20
43.0
 30
0.0
 11
6.350853
 21
37.0
 31
0.0
  0
LINE
  8
LY_1
  6
CENTER
 62
     7
  5
189
 10
86.412903
 20
95.0
 30
0.0
 11
86.412903
 21
-24.629913
 31
0.0
  0
LINE
  8
LY_1
  6
CONTINUOUS
 62
     7
  5
18A
 10
-7.35
 20
56.5
 30
0.0
 11
-7.35
 21
51.5
 31
0.0
  0
LINE
  8
LY_1
  6
CONTINUOUS
 62
     7
  5
18B
 10
7.35
 20
56.5
 30
0.0
 11
7.35
 21
51.5
 31
0.0
  0
LINE
  8
LY_1
  6
CONTINUOUS
 62
     7
  5
18C
 10
79.219002
 20
77.699995
 30
0.0
 11
79.41291
 21
74.00001
 31
0.0
  0
LINE
  8
LY_1
  6
CONTINUOUS
 62
     7
  5
18D
 10
93.606803
 20
77.699974
 30
0.0
 11
93.412895
 21
73.999989
 31
0.0
  0
LINE
  8
LY_1
  6
CONTINUOUS
 62
     7
  5
18E
 10
79.412903
 20
74.0
 30
0.0
 11
93.412903
 21
74.0
 31
0.0
  0
LINE
  8
LY_1
  6
CONTINUOUS
 62
     7
  5
18F
 10
80.912903
 20
84.5
 30
0.0
 11
80.912903
 21
83.199997
 31
0.0
  0
LINE
  8
LY_1
  6
CONTINUOUS
 62
     7
  5
190
 10
82.089706
 20
87.899994
 30
0.0
 11
73.348663
 21
87.899994
 31
0.0
  0
LINE
  8
LY_1
  6
CONTINUOUS
 62
     7
  5
191
 10
81.09407
 20
85.899994
 30
0.0
 11
70.882797
 21
85.899994
 31
0.0
  0
LINE
  8
LY_1
  6
CONTINUOUS
 62
     7
  5
192
 10
68.882797
 20
83.899994
 30
0.0
 11
68.882797
 21
83.199997
 31
0.0
  0
LINE
  8
LY_1
  6
CONTINUOUS
 62
     7
  5
193
 10
80.907883
 20
83.099991
 30
0.0
 11
68.882797
 21
83.099991
 31
0.0
  0
LINE
  8
LY_1
  6
CONTINUOUS
 62
     7
  5
194
 10
79.912903
 20
82.199997
 30
0.0
 11
69.882797
 21
82.199997
 31
0.0
  0
LINE
  8
LY_1
  6
CONTINUOUS
 62
     7
  5
195
 10
61.766552
 20
79.800028
 30
0.0
 11
61.95028
 21
77.700002
 31
0.0
  0
LINE
  8
LY_1
  6
CONTINUOUS
 62
     7
  5
196
 10
91.912903
 20
84.5
 30
0.0
 11
91.912903
 21
83.199997
 31
0.0
  0
LINE
  8
LY_1
  6
CONTINUOUS
 62
     7
  5
197
 10
15.07317
 20
87.899994
 30
0.0
 11
15.917942
 21
87.899994
 31
0.0
  0
LINE
  8
LY_1
  6
CONTINUOUS
 62
     7
  5
198
 10
16.449112
 20
85.899994
 30
0.0
 11
18.383804
 21
85.899994
 31
0.0
  0
LINE
  8
LY_1
  6
CONTINUOUS
 62
     7
  5
199
 10
20.383804
 20
83.899994
 30
0.0
 11
20.383804
 21
83.199997
 31
0.0
  0
LINE
  8
LY_1
  6
CONTINUOUS
 62
     7
  5
19A
 10
17.322968
 20
83.099991
 30
0.0
 11
20.383804
 21
83.099991
 31
0.0
  0
LINE
  8
LY_1
  6
CONTINUOUS
 62
     7
  5
19B
 10
17.513
 20
82.199997
 30
0.0
 11
19.383804
 21
82.199997
 31
0.0
  0
LINE
  8
LY_1
  6
CONTINUOUS
 62
     7
  5
19C
 10
27.500046
 20
79.800021
 30
0.0
 11
27.316319
 21
77.70001
 31
0.0
  0
LINE
  8
LY_1
  6
CONTINUOUS
 62
     7
  5
19D
 10
-27.316223
 20
77.699997
 30
0.0
 11
27.316315
 21
77.699997
 31
0.0
  0
LINE
  8
LY_1
  6
CONTINUOUS
 62
     7
  5
19E
 10
61.766541
 20
79.800003
 30
0.0
 11
111.05925
 21
79.800003
 31
0.0
  0
LINE
  8
LY_1
  6
CENTER
 62
     7
  5
19F
 10
-32.5
 20
146.25795
 30
0.0
 11
32.5
 21
146.25795
 31
0.0
  0
LINE
  8
LY_1
  6
CONTINUOUS
 62
     7
  5
1A0
 10
82.412902
 20
67.000001
 30
0.0
 11
82.412902
 21
74.000001
 31
0.0
  0
LINE
  8
LY_1
  6
CONTINUOUS
 62
     7
  5
1A1
 10
90.412902
 20
67.000001
 30
0.0
 11
90.412902
 21
74.000001
 31
0.0
  0
LINE
  8
LY_1
  6
CONTINUOUS
 62
     7
  5
1A2
 10
95.412903
 20
67.0
 30
0.0
 11
95.412903
 21
56.5
 31
0.0
  0
LINE
  8
LY_1
  6
CONTINUOUS
 62
     7
  5
1A3
 10
77.412903
 20
67.0
 30
0.0
 11
77.412903
 21
56.5
 31
0.0
  0
LINE
  8
LY_1
  6
CONTINUOUS
 62
     7
  5
1A4
 10
77.412903
 20
56.5
 30
0.0
 11
95.412903
 21
56.5
 31
0.0
  0
LINE
  8
LY_1
  6
CONTINUOUS
 62
     7
  5
1A5
 10
77.412903
 20
67.0
 30
0.0
 11
95.412903
 21
67.0
 31
0.0
  0
LINE
  8
LY_1
  6
CONTINUOUS
 62
     7
  5
1A6
 10
-7.193908
 20
77.699984
 30
0.0
 11
-7.0
 21
73.999999
 31
0.0
  0
LINE
  8
LY_1
  6
CONTINUOUS
 62
     7
  5
1A7
 10
-6.326797
 20
87.899994
 30
0.0
 11
6.342678
 21
87.899994
 31
0.0
  0
LINE
  8
LY_1
  6
CONTINUOUS
 62
     7
  5
1A8
 10
-10.792679
 20
83.899994
 30
0.0
 11
-10.792679
 21
83.199997
 31
0.0
  0
LINE
  8
LY_1
  6
CONTINUOUS
 62
     7
  5
1A9
 10
-16.449066
 20
85.899994
 30
0.0
 11
-18.383759
 21
85.899994
 31
0.0
  0
LINE
  8
LY_1
  6
CONTINUOUS
 62
     7
  5
1AA
 10
-20.383759
 20
83.899994
 30
0.0
 11
-20.383759
 21
83.199997
 31
0.0
  0
LINE
  8
LY_1
  6
CONTINUOUS
 62
     7
  5
1AB
 10
-17.512955
 20
82.199997
 30
0.0
 11
-19.383759
 21
82.199997
 31
0.0
  0
LINE
  8
LY_1
  6
CONTINUOUS
 62
     7
  5
1AC
 10
-17.908903
 20
79.800006
 30
0.0
 11
-17.725176
 21
77.699996
 31
0.0
  0
LINE
  8
LY_1
  6
CONTINUOUS
 62
     7
  5
1AD
 10
-27.499999
 20
79.800009
 30
0.0
 11
-27.316272
 21
77.699999
 31
0.0
  0
LINE
  8
LY_1
  6
CONTINUOUS
 62
     7
  5
1AE
 10
-8.792679
 20
85.899994
 30
0.0
 11
8.792679
 21
85.899994
 31
0.0
  0
LINE
  8
LY_1
  6
CONTINUOUS
 62
     7
  5
1AF
 10
10.792679
 20
83.899994
 30
0.0
 11
10.792679
 21
83.199997
 31
0.0
  0
LINE
  8
LY_1
  6
CONTINUOUS
 62
     7
  5
1B0
 10
-10.792679
 20
83.099991
 30
0.0
 11
10.792679
 21
83.099991
 31
0.0
  0
LINE
  8
LY_1
  6
CONTINUOUS
 62
     7
  5
1B1
 10
-9.792679
 20
82.199997
 30
0.0
 11
9.792679
 21
82.199997
 31
0.0
  0
LINE
  8
LY_1
  6
CONTINUOUS
 62
     7
  5
1B2
 10
90.736099
 20
87.899994
 30
0.0
 11
99.477142
 21
87.899994
 31
0.0
  0
LINE
  8
LY_1
  6
CONTINUOUS
 62
     7
  5
1B3
 10
91.731735
 20
85.899994
 30
0.0
 11
101.943008
 21
85.899994
 31
0.0
  0
LINE
  8
LY_1
  6
CONTINUOUS
 62
     7
  5
1B4
 10
103.943008
 20
83.899994
 30
0.0
 11
103.943008
 21
83.199997
 31
0.0
  0
LINE
  8
LY_1
  6
CONTINUOUS
 62
     7
  5
1B5
 10
-15.917891
 20
87.899994
 30
0.0
 11
-15.073117
 21
87.899994
 31
0.0
  0
LINE
  8
LY_1
  6
CONTINUOUS
 62
     7
  5
1B6
 10
91.917923
 20
83.099991
 30
0.0
 11
103.943008
 21
83.099991
 31
0.0
  0
LINE
  8
LY_1
  6
CONTINUOUS
 62
     7
  5
1B7
 10
92.912903
 20
82.199997
 30
0.0
 11
102.943008
 21
82.199997
 31
0.0
  0
LINE
  8
LY_1
  6
CONTINUOUS
 62
     7
  5
1B8
 10
-5.499906
 20
146.258039
 30
0.0
 11
-2.749893
 21
141.49489
 31
0.0
  0
LINE
  8
LY_1
  6
CONTINUOUS
 62
     7
  5
1B9
 10
5.499919
 20
146.258032
 30
0.0
 11
2.749906
 21
141.494882
 31
0.0
  0
LINE
  8
LY_1
  6
CONTINUOUS
 62
     7
  5
1BA
 10
-2.750003
 20
141.494812
 30
0.0
 11
2.749994
 21
141.494812
 31
0.0
  0
LINE
  8
LY_1
  6
CONTINUOUS
 62
     7
  5
1BB
 10
-5.500093
 20
146.258016
 30
0.0
 11
-2.75008
 21
151.021165
 31
0.0
  0
LINE
  8
LY_1
  6
CONTINUOUS
 62
     7
  5
1BC
 10
5.500106
 20
146.258023
 30
0.0
 11
2.750093
 21
151.021173
 31
0.0
  0
LINE
  8
LY_1
  6
CONTINUOUS
 62
     7
  5
1BD
 10
-2.750003
 20
151.021088
 30
0.0
 11
2.749994
 21
151.021088
 31
0.0
  0
LINE
  8
LY_1
  6
CONTINUOUS
 62
     7
  5
1BE
 10
-10.302641
 20
156.102629
 30
0.0
 11
-8.318228
 21
152.665524
 31
0.0
  0
LINE
  8
LY_1
  6
CONTINUOUS
 62
     7
  5
1BF
 10
-3.374446
 20
160.102642
 30
0.0
 11
-1.390025
 21
156.665524
 31
0.0
  0
LINE
  8
LY_1
  6
CONTINUOUS
 62
     7
  5
1C0
 10
-10.302653
 20
136.413242
 30
0.0
 11
-8.318232
 21
139.85036
 31
0.0
  0
LINE
  8
LY_1
  6
CONTINUOUS
 62
     7
  5
1C1
 10
-3.37445
 20
132.413242
 30
0.0
 11
-1.390029
 21
135.85036
 31
0.0
  0
LINE
  8
LY_1
  6
CONTINUOUS
 62
     7
  5
1C2
 10
9.708244
 20
150.25795
 30
0.0
 11
13.677079
 21
150.25795
 31
0.0
  0
LINE
  8
LY_1
  6
CONTINUOUS
 62
     7
  5
1C3
 10
9.708244
 20
142.25795
 30
0.0
 11
13.677079
 21
142.25795
 31
0.0
  0
LINE
  8
LY_1
  6
CONTINUOUS
 62
     7
  5
1C4
 10
13.52165
 20
132.937813
 30
0.0
 11
14.565344
 21
131.130083
 31
0.0
  0
LINE
  8
LY_1
  6
CONTINUOUS
 62
     7
  5
1C5
 10
18.296386
 20
141.207962
 30
0.0
 11
20.383757
 21
141.207962
 31
0.0
  0
LINE
  8
LY_1
  6
CONTINUOUS
 62
     7
  5
1C6
 10
-4.774749
 20
127.887787
 30
0.0
 11
-5.818442
 21
126.080057
 31
0.0
  0
LINE
  8
LY_1
  6
CONTINUOUS
 62
     7
  5
1C7
 10
4.774788
 20
127.88781
 30
0.0
 11
5.818474
 21
126.080093
 31
0.0
  0
LINE
  8
LY_1
  6
CONTINUOUS
 62
     7
  5
1C8
 10
-18.296388
 20
141.207931
 30
0.0
 11
-20.383775
 21
141.207931
 31
0.0
  0
LINE
  8
LY_1
  6
CONTINUOUS
 62
     7
  5
1C9
 10
-13.52161
 20
132.93779
 30
0.0
 11
-14.565296
 21
131.130073
 31
0.0
  0
LINE
  8
LY_1
  6
CONTINUOUS
 62
     7
  5
1CA
 10
-13.521625
 20
159.578066
 30
0.0
 11
-14.565318
 21
161.385796
 31
0.0
  0
LINE
  8
LY_1
  6
CONTINUOUS
 62
     7
  5
1CB
 10
-18.296388
 20
151.307937
 30
0.0
 11
-20.38376
 21
151.307937
 31
0.0
  0
LINE
  8
LY_1
  6
CONTINUOUS
 62
     7
  5
1CC
 10
4.77475
 20
164.628076
 30
0.0
 11
5.818444
 21
166.435807
 31
0.0
  0
LINE
  8
LY_1
  6
CONTINUOUS
 62
     7
  5
1CD
 10
-4.774763
 20
164.628069
 30
0.0
 11
-5.818449
 21
166.435786
 31
0.0
  0
LINE
  8
LY_1
  6
CONTINUOUS
 62
     7
  5
1CE
 10
18.296371
 20
151.307953
 30
0.0
 11
20.383759
 21
151.307953
 31
0.0
  0
LINE
  8
LY_1
  6
CONTINUOUS
 62
     7
  5
1CF
 10
13.521612
 20
159.578073
 30
0.0
 11
14.565298
 21
161.38579
 31
0.0
  0
LINE
  8
LY_1
  6
CONTINUOUS
 62
     7
  5
1D0
 10
17.908903
 20
79.800006
 30
0.0
 11
17.725176
 21
77.699996
 31
0.0
  0
LINE
  8
LY_1
  6
CONTINUOUS
 62
     7
  5
1D1
 10
111.059257
 20
79.800008
 30
0.0
 11
110.87553
 21
77.699998
 31
0.0
  0
LINE
  8
LY_1
  6
CONTINUOUS
 62
     7
  5
1D2
 10
-27.5
 20
79.800003
 30
0.0
 11
27.5
 21
79.800003
 31
0.0
  0
LINE
  8
LY_1
  6
CONTINUOUS
 62
     7
  5
1D3
 10
7.193908
 20
77.699984
 30
0.0
 11
7.0
 21
73.999999
 31
0.0
  0
LINE
  8
LY_1
  6
CONTINUOUS
 62
     7
  5
1D4
 10
61.950272
 20
77.699997
 30
0.0
 11
110.875519
 21
77.699997
 31
0.0
  0
LINE
  8
LY_1
  6
CONTINUOUS
 62
     7
  5
1D5
 10
-7.0
 20
74.0
 30
0.0
 11
7.0
 21
74.0
 31
0.0
  0
LINE
  8
LY_1
  6
CONTINUOUS
 62
     7
  5
1D6
 10
-4.900006
 20
67.0
 30
0.0
 11
-4.900006
 21
56.5
 31
0.0
  0
LINE
  8
LY_1
  6
CONTINUOUS
 62
     7
  5
1D7
 10
4.900005
 20
67.0
 30
0.0
 11
4.900005
 21
56.5
 31
0.0
  0
LINE
  8
LY_1
  6
CONTINUOUS
 62
     7
  5
1D8
 10
-4.0
 20
67.0
 30
0.0
 11
-4.0
 21
74.0
 31
0.0
  0
LINE
  8
LY_1
  6
CONTINUOUS
 62
     7
  5
1D9
 10
4.0
 20
67.0
 30
0.0
 11
4.0
 21
74.0
 31
0.0
  0
LINE
  8
LY_1
  6
CONTINUOUS
 62
     7
  5
1DA
 10
-9.799993
 20
67.0
 30
0.0
 11
-9.799993
 21
56.5
 31
0.0
  0
LINE
  8
LY_1
  6
CONTINUOUS
 62
     7
  5
1DB
 10
9.800008
 20
67.0
 30
0.0
 11
9.800008
 21
56.5
 31
0.0
  0
LINE
  8
LY_1
  6
CONTINUOUS
 62
     7
  5
1DC
 10
-9.799993
 20
56.5
 30
0.0
 11
9.800008
 21
56.5
 31
0.0
  0
LINE
  8
LY_1
  6
CONTINUOUS
 62
     7
  5
1DD
 10
-9.799993
 20
67.0
 30
0.0
 11
9.800008
 21
67.0
 31
0.0
  0
LINE
  8
LY_1
  6
CENTER
 62
     7
  5
1DE
 10
0.0
 20
178.75795
 30
0.0
 11
0.0
 21
113.75795
 31
0.0
  0
LINE
  8
LY_1
  6
CONTINUOUS
 62
     7
  5
1DF
 10
-12.299999
 20
37.000001
 30
0.0
 11
-18.499999
 21
35.906773
 31
0.0
  0
LINE
  8
LY_1
  6
CONTINUOUS
 62
     7
  5
1E0
 10
-8.0
 20
56.5
 30
0.0
 11
-8.0
 21
51.216446
 31
0.0
  0
LINE
  8
LY_1
  6
CONTINUOUS
 62
     7
  5
1E1
 10
-12.3
 20
43.0
 30
0.0
 11
-12.3
 21
37.0
 31
0.0
  0
LINE
  8
LY_1
  6
CONTINUOUS
 62
     7
  5
1E2
 10
12.3
 20
37.000001
 30
0.0
 11
18.499999
 21
35.906773
 31
0.0
  0
LINE
  8
LY_1
  6
CONTINUOUS
 62
     7
  5
1E3
 10
8.0
 20
56.5
 30
0.0
 11
8.0
 21
51.216446
 31
0.0
  0
LINE
  8
LY_1
  6
CONTINUOUS
 62
     7
  5
1E4
 10
12.3
 20
43.0
 30
0.0
 11
12.3
 21
37.0
 31
0.0
  0
LINE
  8
LY_1
  6
CONTINUOUS
 62
     7
  5
1E5
 10
-8.0
 20
51.5
 30
0.0
 11
8.0
 21
51.5
 31
0.0
  0
LINE
  8
LY_1
  6
CONTINUOUS
 62
     7
  5
1E6
 10
-12.3
 20
43.0
 30
0.0
 11
12.3
 21
43.0
 31
0.0
  0
LINE
  8
LY_1
  6
CONTINUOUS
 62
     7
  5
1E7
 10
-12.3
 20
37.0
 30
0.0
 11
12.3
 21
37.0
 31
0.0
  0
LINE
  8
LY_1
  6
CONTINUOUS
 62
     7
  5
1E8
 10
-16.5
 20
18.600005
 30
0.0
 11
-15.831851
 21
16.106441
 31
0.0
  0
LINE
  8
LY_1
  6
CONTINUOUS
 62
     7
  5
1E9
 10
-12.899994
 20
21.05551
 30
0.0
 11
-16.999991
 21
23.422644
 31
0.0
  0
LINE
  8
LY_1
  6
CONTINUOUS
 62
     7
  5
1EA
 10
-18.0
 20
31.0
 30
0.0
 11
-18.0
 21
25.154694
 31
0.0
  0
LINE
  8
LY_1
  6
CONTINUOUS
 62
     7
  5
1EB
 10
-18.5
 20
35.906769
 30
0.0
 11
-18.5
 21
31.0
 31
0.0
  0
LINE
  8
LY_1
  6
CONTINUOUS
 62
     7
  5
1EC
 10
-16.5
 20
18.600006
 30
0.0
 11
-23.5
 21
18.600006
 31
0.0
  0
LINE
  8
LY_1
  6
CONTINUOUS
 62
     7
  5
1ED
 10
-16.5
 20
18.600006
 30
0.0
 11
-16.5
 21
-19.050003
 31
0.0
  0
LINE
  8
LY_1
  6
CONTINUOUS
 62
     7
  5
1EE
 10
-23.5
 20
18.600006
 30
0.0
 11
-23.5
 21
-19.050003
 31
0.0
  0
LINE
  8
LY_1
  6
CONTINUOUS
 62
     7
  5
1EF
 10
16.5
 20
18.600005
 30
0.0
 11
16.114666
 21
17.16192
 31
0.0
  0
LINE
  8
LY_1
  6
CONTINUOUS
 62
     7
  5
1F0
 10
11.9
 20
22.199997
 30
0.0
 11
11.9
 21
10.444641
 31
0.0
  0
LINE
  8
LY_1
  6
CONTINUOUS
 62
     7
  5
1F1
 10
12.899994
 20
21.05551
 30
0.0
 11
16.999991
 21
23.422644
 31
0.0
  0
LINE
  8
LY_1
  6
CONTINUOUS
 62
     7
  5
1F2
 10
-16.957428
 20
24.0
 30
0.0
 11
16.957428
 21
24.0
 31
0.0
  0
LINE
  8
LY_1
  6
CONTINUOUS
 62
     7
  5
1F3
 10
18.0
 20
31.0
 30
0.0
 11
18.0
 21
25.154694
 31
0.0
  0
LINE
  8
LY_1
  6
CONTINUOUS
 62
     7
  5
1F4
 10
18.5
 20
35.906769
 30
0.0
 11
18.5
 21
31.0
 31
0.0
  0
LINE
  8
LY_1
  6
CONTINUOUS
 62
     7
  5
1F5
 10
-18.5
 20
31.0
 30
0.0
 11
18.5
 21
31.0
 31
0.0
  0
LINE
  8
LY_1
  6
CONTINUOUS
 62
     7
  5
1F6
 10
-18.5
 20
33.5
 30
0.0
 11
18.5
 21
33.5
 31
0.0
  0
LINE
  8
LY_1
  6
CONTINUOUS
 62
     7
  5
1F7
 10
16.5
 20
18.600006
 30
0.0
 11
23.5
 21
18.600006
 31
0.0
  0
LINE
  8
LY_1
  6
CONTINUOUS
 62
     7
  5
1F8
 10
-12.0
 20
-16.0
 30
0.0
 11
-14.148101
 21
-16.0
 31
0.0
  0
LINE
  8
LY_1
  6
CONTINUOUS
 62
     7
  5
1F9
 10
-16.079952
 20
-17.482361
 30
0.0
 11
-16.499999
 21
-19.050001
 31
0.0
  0
LINE
  8
LY_1
  6
CONTINUOUS
 62
     7
  5
1FA
 10
-16.5
 20
-19.050003
 30
0.0
 11
-23.5
 21
-19.050003
 31
0.0
  0
LINE
  8
LY_1
  6
CONTINUOUS
 62
     7
  5
1FB
 10
12.0
 20
-16.0
 30
0.0
 11
14.148101
 21
-16.0
 31
0.0
  0
LINE
  8
LY_1
  6
CONTINUOUS
 62
     7
  5
1FC
 10
16.079952
 20
-17.482361
 30
0.0
 11
16.499999
 21
-19.050001
 31
0.0
  0
LINE
  8
LY_1
  6
CONTINUOUS
 62
     7
  5
1FD
 10
16.5
 20
-19.050003
 30
0.0
 11
23.5
 21
-19.050003
 31
0.0
  0
LINE
  8
LY_1
  6
CONTINUOUS
 62
     7
  5
1FE
 10
16.5
 20
18.600006
 30
0.0
 11
16.5
 21
-19.050003
 31
0.0
  0
LINE
  8
LY_1
  6
CONTINUOUS
 62
     7
  5
1FF
 10
23.5
 20
18.600006
 30
0.0
 11
23.5
 21
-19.050003
 31
0.0
  0
LINE
  8
LY_1
  6
CENTER
 62
     7
  5
200
 10
-28.5
 20
0.0
 30
0.0
 11
28.5
 21
0.0
 31
0.0
  0
LINE
  8
LY_1
  6
CENTER
 62
     7
  5
201
 10
0.0
 20
95.0
 30
0.0
 11
0.0
 21
-23.899994
 31
0.0
  0
ENDSEC
  0
EOF
