  0
SECTION
  2
HEADER
  9
$ACADVER
  1
AC1009
  9
$DWGCODEPAGE
  3
dos932
  9
$INSBASE
 10
0.0
 20
0.0
 30
0.0
  9
$EXTMIN
 10
-50.0
 20
-83.548707
 30
0.0
  9
$EXTMAX
 10
155.32802
 20
283.939087
 30
0.0
  9
$LIMMIN
 10
-50.0
 20
-83.548707
  9
$LIMMAX
 10
155.32802
 20
283.939087
  9
$ORTHOMODE
 70
     0
  9
$REGENMODE
 70
     1
  9
$FILLMODE
 70
     1
  9
$QTEXTMODE
 70
     0
  9
$MIRRTEXT
 70
     1
  9
$DRAGMODE
 70
     2
  9
$LTSCALE
 40
1.0
  9
$OSMODE
 70
     0
  9
$ATTMODE
 70
     1
  9
$TEXTSIZE
 40
3.3
  9
$TRACEWID
 40
0.05
  9
$TEXTSTYLE
  7
MX_NOTE_STANDARD
  9
$CLAYER
  8
LY_1
  9
$CELTYPE
  6
CONTINUOUS
  9
$CECOLOR
 62
   256
  9
$DIMSCALE
 40
1.0
  9
$DIMASZ
 40
2.5
  9
$DIMEXO
 40
0.0
  9
$DIMDLI
 40
3.75
  9
$DIMRND
 40
0.0
  9
$DIMDLE
 40
0.0
  9
$DIMEXE
 40
1.1938
  9
$DIMTP
 40
0.0
  9
$DIMTM
 40
0.0
  9
$DIMTXT
 40
3.3
  9
$DIMCEN
 40
2.5
  9
$DIMTSZ
 40
0.0
  9
$DIMTOL
 70
     0
  9
$DIMLIM
 70
     0
  9
$DIMTIH
 70
     0
  9
$DIMTOH
 70
     0
  9
$DIMSE1
 70
     0
  9
$DIMSE2
 70
     0
  9
$DIMTAD
 70
     1
  9
$DIMZIN
 70
     8
  9
$DIMBLK
  1

  9
$DIMASO
 70
     1
  9
$DIMSHO
 70
     1
  9
$DIMPOST
  1

  9
$DIMAPOST
  1

  9
$DIMALT
 70
     0
  9
$DIMALTD
 70
     4
  9
$DIMALTF
 40
0.03937
  9
$DIMLFAC
 40
1.0
  9
$DIMTOFL
 70
     1
  9
$DIMTVP
 40
0.0
  9
$DIMTIX
 70
     0
  9
$DIMSOXD
 70
     0
  9
$DIMSAH
 70
     1
  9
$DIMBLK1
  1
_OPEN30
  9
$DIMBLK2
  1
_OPEN30
  9
$DIMSTYLE
  2
MXDIMSTYLE
  9
$DIMCLRD
 70
     0
  9
$DIMCLRE
 70
     0
  9
$DIMCLRT
 70
     0
  9
$DIMTFAC
 40
1.0
  9
$DIMGAP
 40
1.0
  9
$LUNITS
 70
     2
  9
$LUPREC
 70
     4
  9
$AXISMODE
 70
     0
  9
$AXISUNIT
 10
0.0
 20
0.0
  9
$SKETCHINC
 40
0.1
  9
$FILLETRAD
 40
0.0
  9
$AUNITS
 70
     0
  9
$AUPREC
 70
     0
  9
$MENU
  1
acad
  9
$ELEVATION
 40
0.0
  9
$PELEVATION
 40
0.0
  9
$THICKNESS
 40
0.0
  9
$LIMCHECK
 70
     0
  9
$BLIPMODE
 70
     1
  9
$CHAMFERA
 40
0.0
  9
$CHAMFERB
 40
0.0
  9
$SKPOLY
 70
     0
  9
$TDCREATE
 40
2454901.550185185
  9
$TDUPDATE
 40
2454901.550185185
  9
$TDINDWG
 40
0.0000000000
  9
$TDUSRTIMER
 40
0.0000000000
  9
$USRTIMER
 70
     1
  9
$ANGBASE
 50
0.0
  9
$ANGDIR
 70
     0
  9
$PDMODE
 70
     0
  9
$PDSIZE
 40
0.0
  9
$PLINEWID
 40
0.0
  9
$COORDS
 70
     1
  9
$SPLFRAME
 70
     0
  9
$SPLINETYPE
 70
     6
  9
$SPLINESEGS
 70
     8
  9
$ATTDIA
 70
     0
  9
$ATTREQ
 70
     1
  9
$HANDLING
 70
     1
  9
$HANDSEED
  5
24D
  9
$SURFTAB1
 70
     6
  9
$SURFTAB2
 70
     6
  9
$SURFTYPE
 70
     6
  9
$SURFU
 70
     6
  9
$SURFV
 70
     6
  9
$UCSNAME
  2

  9
$UCSORG
 10
0.0
 20
0.0
 30
0.0
  9
$UCSXDIR
 10
1.0
 20
0.0
 30
0.0
  9
$UCSYDIR
 10
0.0
 20
1.0
 30
0.0
  9
$PUCSNAME
  2

  9
$PUCSORG
 10
0.0
 20
0.0
 30
0.0
  9
$PUCSXDIR
 10
1.0
 20
0.0
 30
0.0
  9
$PUCSYDIR
 10
0.0
 20
1.0
 30
0.0
  9
$USERI1
 70
     0
  9
$USERI2
 70
     0
  9
$USERI3
 70
     0
  9
$USERI4
 70
     0
  9
$USERI5
 70
     0
  9
$USERR1
 40
0.0
  9
$USERR2
 40
0.0
  9
$USERR3
 40
0.0
  9
$USERR4
 40
0.0
  9
$USERR5
 40
0.0
  9
$WORLDVIEW
 70
     1
  9
$SHADEDGE
 70
     3
  9
$SHADEDIF
 70
    70
  9
$TILEMODE
 70
     1
  9
$MAXACTVP
 70
    16
  9
$PINSBASE
 10
0.0
 20
0.0
 30
0.0
  9
$PLIMCHECK
 70
     0
  9
$PEXTMIN
 10
1.000000E+20
 20
1.000000E+20
 30
1.000000E+20
  9
$PEXTMAX
 10
-1.000000E+20
 20
-1.000000E+20
 30
-1.000000E+20
  9
$PLIMMIN
 10
0.0
 20
0.0
  9
$PLIMMAX
 10
12.0
 20
9.0
  9
$UNITMODE
 70
     0
  9
$VISRETAIN
 70
     0
  9
$PLINEGEN
 70
     1
  9
$PSLTSCALE
 70
     0
  9
$TREEDEPTH
 70
  3020
  0
ENDSEC
  0
SECTION
  2
TABLES
  0
TABLE
  2
VPORT
 70
     1
  0
VPORT
  2
*ACTIVE
 70
     0
 10
0.0
 20
0.0
 11
1.0
 21
1.0
 12
52.66401
 22
100.19519
 13
0.0
 23
0.0
 14
1.0
 24
1.0
 15
0.0
 25
0.0
 16
0.0
 26
0.0
 36
1.0
 17
0.0
 27
0.0
 37
0.0
 40
371.162672
 41
1.732051
 42
50.0
 43
0.0
 44
0.0
 50
0.0
 51
0.0
 71
     0
 72
   100
 73
     1
 74
     1
 75
     0
 76
     0
 77
     0
 78
     0
  0
ENDTAB
  0
TABLE
  2
LTYPE
 70
     2
  0
LTYPE
  2
CONTINUOUS
 70
    64
  3
Solid line
 72
    65
 73
     0
 40
0.0
  0
LTYPE
  2
CENTER
 70
    64
  3
Center ____ _ ____ _ ____ _ ____ _ ____ _ ____
 72
    65
 73
     4
 40
50.8
 49
31.75
 49
-6.35
 49
6.35
 49
-6.35
  0
ENDTAB
  0
TABLE
  2
LAYER
 70
     3
  0
LAYER
  2
0
 70
     0
 62
     7
  6
CONTINUOUS
  0
LAYER
  2
LY_1
 70
     0
 62
     7
  6
CONTINUOUS
  0
LAYER
  2
DEFPOINTS
 70
     0
 62
     7
  6
CONTINUOUS
  0
ENDTAB
  0
TABLE
  2
STYLE
 70
     2
  0
STYLE
  2
MX_NOTE_STANDARD
 70
     0
 40
0.0
 41
1.0
 50
0.0
 71
     0
 42
3.3
  3
txt.shx
  4
extfont.shx
  0
STYLE
  2
MX_DIMTXSTY_2
 70
     0
 40
0.0
 41
0.85
 50
0.0
 71
     0
 42
3.3
  3
txt.shx
  4
extfont.shx
  0
ENDTAB
  0
TABLE
  2
VIEW
 70
     0
  0
ENDTAB
  0
TABLE
  2
UCS
 70
     0
  0
ENDTAB
  0
TABLE
  2
APPID
 70
     1
  0
APPID
  2
ACAD
 70
     0
  0
ENDTAB
  0
TABLE
  2
DIMSTYLE
 70
     1
  0
DIMSTYLE
  2
MXDIMSTYLE
 70
     0
  3

  4

  5

  6
_OPEN30
  7
_OPEN30
 40
1.0
 41
2.5
 42
0.0
 43
3.75
 44
1.1938
 45
0.0
 46
0.0
 47
0.0
 48
0.0
 71
     0
 72
     0
 73
     0
 74
     0
 75
     0
 76
     0
 77
     1
 78
     8
140
3.3
141
2.5
142
0.0
143
0.03937
144
1.0
145
0.0
146
1.0
147
1.0
170
     0
171
     4
172
     1
173
     1
174
     0
175
     0
176
     0
177
     0
178
     0
  0
ENDTAB
  0
ENDSEC
  0
SECTION
  2
BLOCKS
  0
BLOCK
  8
0
  6
BYBLOCK
 62
     0
  5
20
  2
_OPEN30
 70
     2
 10
0.0
 20
0.0
 30
0.0
  3
_OPEN30
  0
LINE
  8
0
  6
BYBLOCK
 62
     0
  5
21
 10
-1.0
 20
0.267949
 30
0.0
 11
0.0
 21
0.0
 31
0.0
  0
LINE
  8
0
  6
BYBLOCK
 62
     0
  5
22
 10
0.0
 20
0.0
 30
0.0
 11
-1.0
 21
-0.267949
 31
0.0
  0
LINE
  8
0
  6
BYBLOCK
 62
     0
  5
23
 10
0.0
 20
0.0
 30
0.0
 11
-1.0
 21
0.0
 31
0.0
  0
ENDBLK
  8
0
  6
BYBLOCK
 62
     0
  5
24
  0
BLOCK
  8
0
  6
BYBLOCK
 62
     0
  5
26
  2
*D1
 70
     1
 10
0.0
 20
0.0
 30
0.0
  3
*D1
  0
LINE
  8
0
  6
CONTINUOUS
 62
   110
  5
27
 10
36.0
 20
-48.261387
 30
0.0
 11
-36.0
 21
-48.261387
 31
0.0
  0
LINE
  8
0
  6
CONTINUOUS
 62
   110
  5
28
 10
36.0
 20
-38.099991
 30
0.0
 11
36.0
 21
-49.455187
 31
0.0
  0
LINE
  8
0
  6
CONTINUOUS
 62
   110
  5
29
 10
-36.0
 20
-38.099991
 30
0.0
 11
-36.0
 21
-49.455187
 31
0.0
  0
INSERT
  8
0
  6
CONTINUOUS
 62
   110
  5
30
  2
_OPEN
 10
36.0
 20
-48.261387
 30
0.0
 41
2.19
 42
2.19
 43
2.19
  0
INSERT
  8
0
  6
CONTINUOUS
 62
   110
  5
31
  2
_OPEN
 10
-36.0
 20
-48.261387
 30
0.0
 41
2.19
 42
2.19
 50
180.0
 43
2.19
  0
TEXT
  8
0
  6
CONTINUOUS
 62
   110
  5
33
 10
-2.226654
 20
-47.261387
 30
0.0
 40
3.3
  1
72
 41
0.98743
  7
MX_DIMTXSTY_2
 11
-2.226654
 21
-45.611387
 31
0.0
 73
     2
  0
POINT
  8
DEFPOINTS
  6
CONTINUOUS
 62
     0
  5
34
 10
36.0
 20
-38.099991
 30
0.0
  0
POINT
  8
DEFPOINTS
  6
CONTINUOUS
 62
     0
  5
35
 10
-36.0
 20
-38.099991
 30
0.0
  0
POINT
  8
DEFPOINTS
  6
CONTINUOUS
 62
     0
  5
36
 10
-36.0
 20
-48.261387
 30
0.0
  0
ENDBLK
  8
0
  6
BYBLOCK
 62
     0
  5
37
  0
BLOCK
  8
0
  6
BYBLOCK
 62
     0
  5
2B
  2
_OPEN
 70
     2
 10
0.0
 20
0.0
 30
0.0
  3
_OPEN
  0
LINE
  8
0
  6
BYBLOCK
 62
     0
  5
2C
 10
-1.0
 20
0.166667
 30
0.0
 11
0.0
 21
0.0
 31
0.0
  0
LINE
  8
0
  6
BYBLOCK
 62
     0
  5
2D
 10
0.0
 20
0.0
 30
0.0
 11
-1.0
 21
-0.166667
 31
0.0
  0
LINE
  8
0
  6
BYBLOCK
 62
     0
  5
2E
 10
0.0
 20
0.0
 30
0.0
 11
-1.0
 21
0.0
 31
0.0
  0
ENDBLK
  8
0
  6
BYBLOCK
 62
     0
  5
2F
  0
BLOCK
  8
0
  6
BYBLOCK
 62
     0
  5
3A
  2
*D3
 70
     1
 10
0.0
 20
0.0
 30
0.0
  3
*D3
  0
LINE
  8
0
  6
CONTINUOUS
 62
   110
  5
3B
 10
-45.0
 20
169.417664
 30
0.0
 11
45.0
 21
169.417664
 31
0.0
  0
LINE
  8
0
  6
CONTINUOUS
 62
   110
  5
3C
 10
-45.0
 20
140.5
 30
0.0
 11
-45.0
 21
170.61145
 31
0.0
  0
LINE
  8
0
  6
CONTINUOUS
 62
   110
  5
3D
 10
45.0
 20
140.5
 30
0.0
 11
45.0
 21
170.61145
 31
0.0
  0
INSERT
  8
0
  6
CONTINUOUS
 62
   110
  5
3E
  2
_OPEN
 10
-45.0
 20
169.417664
 30
0.0
 41
2.19
 42
2.19
 50
180.0
 43
2.19
  0
INSERT
  8
0
  6
CONTINUOUS
 62
   110
  5
3F
  2
_OPEN
 10
45.0
 20
169.417664
 30
0.0
 41
2.19
 42
2.19
 43
2.19
  0
TEXT
  8
0
  6
CONTINUOUS
 62
   110
  5
40
 10
-3.607179
 20
170.417664
 30
0.0
 40
3.3
  1
%%c90
 41
0.995329
  7
MX_DIMTXSTY_2
 11
-3.607179
 21
172.067664
 31
0.0
 73
     2
  0
POINT
  8
DEFPOINTS
  6
CONTINUOUS
 62
     0
  5
41
 10
-45.0
 20
140.5
 30
0.0
  0
POINT
  8
DEFPOINTS
  6
CONTINUOUS
 62
     0
  5
42
 10
45.0
 20
140.5
 30
0.0
  0
POINT
  8
DEFPOINTS
  6
CONTINUOUS
 62
     0
  5
43
 10
45.0
 20
169.417664
 30
0.0
  0
ENDBLK
  8
0
  6
BYBLOCK
 62
     0
  5
44
  0
BLOCK
  8
0
  6
BYBLOCK
 62
     0
  5
47
  2
*D4
 70
     1
 10
0.0
 20
0.0
 30
0.0
  3
*D4
  0
LINE
  8
0
  6
CONTINUOUS
 62
   110
  5
48
 10
58.279335
 20
154.0
 30
0.0
 11
58.279335
 21
0.0
 31
0.0
  0
LINE
  8
0
  6
CONTINUOUS
 62
   110
  5
49
 10
36.043381
 20
154.0
 30
0.0
 11
59.473135
 21
154.0
 31
0.0
  0
LINE
  8
0
  6
CONTINUOUS
 62
   110
  5
4A
 10
41.0
 20
0.0
 30
0.0
 11
59.473135
 21
0.0
 31
0.0
  0
INSERT
  8
0
  6
CONTINUOUS
 62
   110
  5
4B
  2
_OPEN
 10
58.279335
 20
154.0
 30
0.0
 41
2.19
 42
2.19
 50
90.0
 43
2.19
  0
INSERT
  8
0
  6
CONTINUOUS
 62
   110
  5
4C
  2
_OPEN
 10
58.279335
 20
0.0
 30
0.0
 41
2.19
 42
2.19
 50
270.0
 43
2.19
  0
TEXT
  8
0
  6
CONTINUOUS
 62
   110
  5
4D
 10
57.279335
 20
73.364716
 30
0.0
 40
3.3
  1
154
 50
90.0
 41
0.94423
  7
MX_NOTE_STANDARD
 11
55.629335
 21
73.364716
 31
0.0
 73
     2
  0
POINT
  8
DEFPOINTS
  6
CONTINUOUS
 62
     0
  5
4E
 10
36.043381
 20
154.0
 30
0.0
  0
POINT
  8
DEFPOINTS
  6
CONTINUOUS
 62
     0
  5
4F
 10
41.0
 20
0.0
 30
0.0
  0
POINT
  8
DEFPOINTS
  6
CONTINUOUS
 62
     0
  5
50
 10
58.279335
 20
0.0
 30
0.0
  0
ENDBLK
  8
0
  6
BYBLOCK
 62
     0
  5
51
  0
ENDSEC
  0
SECTION
  2
ENTITIES
  0
DIMENSION
  8
LY_1
  6
CONTINUOUS
 62
   110
  5
38
  2
*D1
 10
-36.0
 20
-48.261387
 30
0.0
 11
0.0
 21
-48.261387
 31
0.0
 70
   128
  1
<>
 13
36.0
 23
-38.099991
 33
0.0
 14
-36.0
 24
-38.099991
 34
0.0
  3
MXDIMSTYLE
1001
ACAD
1000
DSTYLE
1002
{
1070
     6
1000
_OPEN
1070
     7
1000
_OPEN
1070
    41
1040
2.19
1070
   271
1070
     0
1070
   284
1070
     8
1070
   340
1005
32
1070
   343
1005
2A
1070
   344
1005
2A
1002
}
  0
DIMENSION
  8
LY_1
  6
CONTINUOUS
 62
   110
  5
45
  2
*D3
 10
45.0
 20
169.417664
 30
0.0
 11
0.0
 21
169.417664
 31
0.0
 70
   128
  1
%%c<>
 13
-45.0
 23
140.5
 33
0.0
 14
45.0
 24
140.5
 34
0.0
  3
MXDIMSTYLE
1001
ACAD
1000
DSTYLE
1002
{
1070
     6
1000
_OPEN
1070
     7
1000
_OPEN
1070
    41
1040
2.19
1070
    44
1040
1.193787
1070
   271
1070
     0
1070
   284
1070
     8
1070
   340
1005
32
1070
   343
1005
2A
1070
   344
1005
2A
1002
}
  0
DIMENSION
  8
LY_1
  6
CONTINUOUS
 62
   110
  5
52
  2
*D4
 10
58.279335
 20
0.0
 30
0.0
 11
58.279335
 21
77.0
 31
0.0
 70
   128
  1
<>
 13
36.043381
 23
154.0
 33
0.0
 14
41.0
 24
0.0
 34
0.0
 50
90.0
  3
MXDIMSTYLE
1001
ACAD
1000
DSTYLE
1002
{
1070
     6
1000
_OPEN
1070
     7
1000
_OPEN
1070
    41
1040
2.19
1070
   271
1070
     0
1070
   284
1070
     8
1070
   343
1005
2A
1070
   344
1005
2A
1002
}
  0
TEXT
  8
LY_1
  6
CONTINUOUS
 62
   110
  5
53
 10
-46.309792
 20
-66.715271
 30
0.0
 40
4.167179
  1
      GATE VALVE  2
 41
0.989157
  7
MX_NOTE_STANDARD
  0
TEXT
  8
LY_1
  6
CONTINUOUS
 62
   110
  5
54
 10
-46.363042
 20
-82.715271
 30
0.0
 40
4.167179
  1
KITZ
 41
0.912486
  7
MX_NOTE_STANDARD
  0
TEXT
  8
LY_1
  6
CONTINUOUS
 62
   110
  5
55
 10
-46.296555
 20
-74.715271
 30
0.0
 40
4.167179
  1
FIG   FH2
 41
1.008215
  7
MX_NOTE_STANDARD
  0
TEXT
  8
LY_1
  6
CONTINUOUS
 62
   110
  5
56
 10
-46.363042
 20
-58.715271
 30
0.0
 40
4.167179
  1
NAME  CLASS 125 FORGED BRASS
 41
0.912486
  7
MX_NOTE_STANDARD
  0
ARC
  8
LY_1
  6
CONTINUOUS
 62
     3
  5
57
 10
1.860437
 20
232.753784
 30
0.0
 40
10.816798
 50
318.47469
 51
336.525388
  0
ARC
  8
LY_1
  6
CONTINUOUS
 62
     3
  5
58
 10
1.804438
 20
232.789505
 30
0.0
 40
8.883203
 50
318.198272
 51
336.801375
  0
ARC
  8
LY_1
  6
CONTINUOUS
 62
     3
  5
59
 10
-1.860437
 20
232.753784
 30
0.0
 40
10.816792
 50
203.474536
 51
221.525305
  0
ARC
  8
LY_1
  6
CONTINUOUS
 62
     3
  5
5A
 10
-1.804461
 20
232.789505
 30
0.0
 40
8.883204
 50
203.198705
 51
221.801723
  0
ARC
  8
LY_1
  6
CONTINUOUS
 62
     3
  5
5B
 10
0.0
 20
233.939041
 30
0.0
 40
13.000003
 50
226.309046
 51
313.691003
  0
ARC
  8
LY_1
  6
CONTINUOUS
 62
     3
  5
5C
 10
0.0
 20
233.939041
 30
0.0
 40
10.999997
 50
227.462119
 51
312.537883
  0
ARC
  8
LY_1
  6
CONTINUOUS
 62
     3
  5
5D
 10
12.056231
 20
234.435913
 30
0.0
 40
1.270004
 50
227.874963
 51
264.434254
  0
ARC
  8
LY_1
  6
CONTINUOUS
 62
     3
  5
5E
 10
11.653769
 20
233.990875
 30
0.0
 40
0.67
 50
176.84846
 51
227.873976
  0
ARC
  8
LY_1
  6
CONTINUOUS
 62
     3
  5
5F
 10
11.650042
 20
233.948059
 30
0.0
 40
0.669999
 50
122.125381
 51
173.172425
  0
ARC
  8
LY_1
  6
CONTINUOUS
 62
     3
  5
60
 10
11.96908
 20
233.439957
 30
0.0
 40
1.27
 50
85.578138
 51
122.125285
  0
ARC
  8
LY_1
  6
CONTINUOUS
 62
     3
  5
61
 10
11.943772
 20
233.442169
 30
0.0
 40
1.270004
 50
47.874964
 51
84.431759
  0
ARC
  8
LY_1
  6
CONTINUOUS
 62
     3
  5
62
 10
12.346212
 20
233.887161
 30
0.0
 40
0.670001
 50
356.848453
 51
47.874869
  0
ARC
  8
LY_1
  6
CONTINUOUS
 62
     3
  5
63
 10
12.349961
 20
233.930008
 30
0.0
 40
0.670013
 50
302.124747
 51
353.172424
  0
ARC
  8
LY_1
  6
CONTINUOUS
 62
     3
  5
64
 10
12.030901
 20
234.43811
 30
0.0
 40
1.269995
 50
265.5815
 51
302.125526
  0
ARC
  8
LY_1
  6
CONTINUOUS
 62
     3
  5
65
 10
11.96908
 20
233.439957
 30
0.0
 40
1.5
 50
85.485466
 51
122.125285
  0
ARC
  8
LY_1
  6
CONTINUOUS
 62
     3
  5
66
 10
12.346212
 20
233.887161
 30
0.0
 40
0.9
 50
356.378136
 51
47.874623
  0
ARC
  8
LY_1
  6
CONTINUOUS
 62
     3
  5
67
 10
11.943772
 20
233.442169
 30
0.0
 40
1.499998
 50
47.874719
 51
84.51463
  0
ARC
  8
LY_1
  6
CONTINUOUS
 62
     3
  5
68
 10
11.653769
 20
233.990875
 30
0.0
 40
0.899999
 50
176.378133
 51
227.874618
  0
ARC
  8
LY_1
  6
CONTINUOUS
 62
     3
  5
69
 10
12.056231
 20
234.435913
 30
0.0
 40
1.499987
 50
227.874307
 51
264.514338
  0
ARC
  8
LY_1
  6
CONTINUOUS
 62
     3
  5
6A
 10
11.650042
 20
233.948059
 30
0.0
 40
0.900007
 50
122.125039
 51
173.641714
  0
ARC
  8
LY_1
  6
CONTINUOUS
 62
     3
  5
6B
 10
12.349961
 20
233.930008
 30
0.0
 40
0.899995
 50
302.125601
 51
353.641712
  0
ARC
  8
LY_1
  6
CONTINUOUS
 62
     3
  5
6C
 10
12.030901
 20
234.43811
 30
0.0
 40
1.5
 50
265.485632
 51
302.125239
  0
ARC
  8
LY_1
  6
CONTINUOUS
 62
     3
  5
6D
 10
3.07251
 20
246.43898
 30
0.0
 40
0.399994
 50
90.000003
 51
180.000005
  0
ARC
  8
LY_1
  6
CONTINUOUS
 62
     3
  5
6E
 10
2.978778
 20
246.414032
 30
0.0
 40
0.400018
 50
274.657831
 51
0.0
  0
ARC
  8
LY_1
  6
CONTINUOUS
 62
     3
  5
6F
 10
3.042515
 20
246.384018
 30
0.0
 40
0.37
 50
180.000009
 51
265.156956
  0
ARC
  8
LY_1
  6
CONTINUOUS
 62
     3
  5
70
 10
4.743478
 20
246.487045
 30
0.0
 40
0.015003
 50
312.493442
 51
90.000003
  0
ARC
  8
LY_1
  6
CONTINUOUS
 62
     3
  5
71
 10
5.199192
 20
246.413269
 30
0.0
 40
0.42579
 50
312.504326
 51
90.000003
  0
ARC
  8
LY_1
  6
CONTINUOUS
 62
     3
  5
72
 10
3.959329
 20
244.679047
 30
0.0
 40
0.015004
 50
132.496135
 51
270.000001
  0
ARC
  8
LY_1
  6
CONTINUOUS
 62
     3
  5
73
 10
2.971276
 20
244.264877
 30
0.0
 40
0.425852
 50
132.504249
 51
270.000001
  0
ARC
  8
LY_1
  6
CONTINUOUS
 62
     3
  5
74
 10
5.212487
 20
244.251526
 30
0.0
 40
0.412491
 50
269.999997
 51
90.000003
  0
ARC
  8
LY_1
  6
CONTINUOUS
 62
     3
  5
75
 10
-0.494428
 20
246.438904
 30
0.0
 40
0.399994
 50
90.000003
 51
180.000005
  0
ARC
  8
LY_1
  6
CONTINUOUS
 62
     3
  5
76
 10
-0.588161
 20
246.41391
 30
0.0
 40
0.400003
 50
274.657995
 51
0.0
  0
ARC
  8
LY_1
  6
CONTINUOUS
 62
     3
  5
77
 10
-0.524445
 20
246.383911
 30
0.0
 40
0.37
 50
180.000009
 51
265.157011
  0
ARC
  8
LY_1
  6
CONTINUOUS
 62
     3
  5
78
 10
0.696542
 20
244.1922
 30
0.0
 40
0.353167
 50
180.000009
 51
0.0
  0
ARC
  8
LY_1
  6
CONTINUOUS
 62
     3
  5
79
 10
1.759446
 20
246.426407
 30
0.0
 40
0.412476
 50
269.999997
 51
90.000003
  0
ARC
  8
LY_1
  6
CONTINUOUS
 62
     3
  5
7A
 10
-1.753124
 20
246.485916
 30
0.0
 40
0.353144
 50
0.0
 51
180.000005
  0
ARC
  8
LY_1
  6
CONTINUOUS
 62
     3
  5
7B
 10
-1.753124
 20
244.1922
 30
0.0
 40
0.353144
 50
180.000009
 51
0.0
  0
ARC
  8
LY_1
  6
CONTINUOUS
 62
     3
  5
7C
 10
-2.974331
 20
246.53273
 30
0.0
 40
0.300006
 50
69.54099
 51
129.102064
  0
ARC
  8
LY_1
  6
CONTINUOUS
 62
     3
  5
7D
 10
-2.965416
 20
246.364227
 30
0.0
 40
0.350001
 50
211.488533
 51
266.528861
  0
ARC
  8
LY_1
  6
CONTINUOUS
 62
     3
  5
7E
 10
-3.009272
 20
246.41423
 30
0.0
 40
0.399996
 50
273.249016
 51
0.0
  0
ARC
  8
LY_1
  6
CONTINUOUS
 62
     3
  5
7F
 10
-3.009272
 20
246.439041
 30
0.0
 40
0.400002
 50
0.0
 51
69.540909
  0
ARC
  8
LY_1
  6
CONTINUOUS
 62
     3
  5
80
 10
-2.967071
 20
244.25531
 30
0.0
 40
0.389943
 50
230.896024
 51
50.894612
  0
ARC
  8
LY_1
  6
CONTINUOUS
 62
     3
  5
81
 10
-5.271868
 20
246.485901
 30
0.0
 40
0.353145
 50
0.0
 51
180.000005
  0
ARC
  8
LY_1
  6
CONTINUOUS
 62
     3
  5
82
 10
-5.271868
 20
244.192169
 30
0.0
 40
0.353143
 50
180.000009
 51
0.0
  0
CIRCLE
  8
LY_1
  6
CONTINUOUS
 62
     3
  5
83
 10
0.0
 20
233.939041
 30
0.0
 40
9.000001
  0
CIRCLE
  8
LY_1
  6
CONTINUOUS
 62
     3
  5
84
 10
0.0
 20
233.939041
 30
0.0
 40
15.0
  0
ARC
  8
LY_1
  6
CONTINUOUS
 62
     3
  5
85
 10
-12.744532
 20
235.120987
 30
0.0
 40
0.149998
 50
329.805445
 51
149.800419
  0
ARC
  8
LY_1
  6
CONTINUOUS
 62
     3
  5
86
 10
-11.096148
 20
232.919403
 30
0.0
 40
0.149998
 50
154.287007
 51
334.37743
  0
ARC
  8
LY_1
  6
CONTINUOUS
 62
     3
  5
87
 10
-11.405856
 20
234.54274
 30
0.0
 40
0.294273
 50
18.467537
 51
169.999679
  0
ARC
  8
LY_1
  6
CONTINUOUS
 62
     3
  5
88
 10
-12.507258
 20
233.187454
 30
0.0
 40
0.255075
 50
202.73331
 51
349.999304
  0
ARC
  8
LY_1
  6
CONTINUOUS
 62
     3
  5
89
 10
-12.507258
 20
233.187454
 30
0.0
 40
0.555072
 50
202.732108
 51
349.99973
  0
ARC
  8
LY_1
  6
CONTINUOUS
 62
     3
  5
8A
 10
-11.405856
 20
234.54274
 30
0.0
 40
0.594277
 50
18.469113
 51
170.000007
  0
ARC
  8
LY_1
  6
CONTINUOUS
 62
     3
  5
8B
 10
-13.213434
 20
233.939041
 30
0.0
 40
2.200003
 50
334.285755
 51
18.468668
  0
ARC
  8
LY_1
  6
CONTINUOUS
 62
     3
  5
8C
 10
-10.713433
 20
233.939041
 30
0.0
 40
2.200003
 50
149.803274
 51
202.732432
  0
ARC
  8
LY_1
  6
CONTINUOUS
 62
     3
  5
8D
 10
-10.713433
 20
233.939041
 30
0.0
 40
2.499998
 50
149.803534
 51
202.731967
  0
ARC
  8
LY_1
  6
CONTINUOUS
 62
     3
  5
8E
 10
-13.213434
 20
233.939041
 30
0.0
 40
2.499999
 50
334.285905
 51
18.468589
  0
ARC
  8
LY_1
  6
CONTINUOUS
 62
     3
  5
8F
 10
0.0
 20
233.939041
 30
0.0
 40
35.499977
 50
145.796549
 51
169.203279
  0
ARC
  8
LY_1
  6
CONTINUOUS
 62
     3
  5
90
 10
0.0
 20
233.939041
 30
0.0
 40
35.499561
 50
100.796783
 51
124.203425
  0
ARC
  8
LY_1
  6
CONTINUOUS
 62
     3
  5
91
 10
0.0
 20
233.939041
 30
0.0
 40
35.499989
 50
190.796721
 51
214.203451
  0
ARC
  8
LY_1
  6
CONTINUOUS
 62
     3
  5
92
 10
0.0
 20
233.939041
 30
0.0
 40
35.499981
 50
235.796753
 51
259.20334
  0
ARC
  8
LY_1
  6
CONTINUOUS
 62
     3
  5
93
 10
0.0
 20
233.939041
 30
0.0
 40
35.499985
 50
10.796699
 51
34.203429
  0
ARC
  8
LY_1
  6
CONTINUOUS
 62
     3
  5
94
 10
0.0
 20
233.939041
 30
0.0
 40
35.499939
 50
55.796679
 51
79.203256
  0
ARC
  8
LY_1
  6
CONTINUOUS
 62
     3
  5
95
 10
0.0
 20
233.939041
 30
0.0
 40
35.499996
 50
325.796595
 51
349.203325
  0
ARC
  8
LY_1
  6
CONTINUOUS
 62
     3
  5
96
 10
0.0
 20
233.939041
 30
0.0
 40
35.499981
 50
280.796655
 51
304.203266
  0
ARC
  8
LY_1
  6
CONTINUOUS
 62
     3
  5
97
 10
86.328003
 20
95.698288
 30
0.0
 40
12.999998
 50
289.99998
 51
0.0
  0
ARC
  8
LY_1
  6
CONTINUOUS
 62
     3
  5
98
 10
134.328003
 20
95.698288
 30
0.0
 40
13.0
 50
180.000009
 51
250.000029
  0
ARC
  8
LY_1
  6
CONTINUOUS
 62
     3
  5
99
 10
102.128006
 20
144.699997
 30
0.0
 40
1.0
 50
269.999997
 51
0.0
  0
ARC
  8
LY_1
  6
CONTINUOUS
 62
     3
  5
9A
 10
91.365387
 20
146.599991
 30
0.0
 40
2.0
 50
90.000003
 51
180.000005
  0
ARC
  8
LY_1
  6
CONTINUOUS
 62
     3
  5
9B
 10
90.365387
 20
144.699997
 30
0.0
 40
1.0
 50
180.000009
 51
269.999997
  0
ARC
  8
LY_1
  6
CONTINUOUS
 62
     3
  5
9C
 10
76.032318
 20
146.599991
 30
0.0
 40
2.0
 50
90.000003
 51
180.000005
  0
ARC
  8
LY_1
  6
CONTINUOUS
 62
     3
  5
9D
 10
75.032318
 20
144.699997
 30
0.0
 40
1.0
 50
180.000009
 51
269.999997
  0
ARC
  8
LY_1
  6
CONTINUOUS
 62
     3
  5
9E
 10
84.235779
 20
146.799988
 30
0.0
 40
7.2
 50
38.682189
 51
136.050661
  0
ARC
  8
LY_1
  6
CONTINUOUS
 62
     3
  5
9F
 10
86.824646
 20
144.298416
 30
0.0
 40
10.800014
 50
135.936843
 51
167.575495
  0
ARC
  8
LY_1
  6
CONTINUOUS
 62
     3
  5
A0
 10
124.537277
 20
135.612442
 30
0.0
 40
49.499996
 50
167.132939
 51
174.333475
  0
ARC
  8
LY_1
  6
CONTINUOUS
 62
     3
  5
A1
 10
74.284622
 20
146.799988
 30
0.0
 40
7.200006
 50
46.301586
 51
136.050661
  0
ARC
  8
LY_1
  6
CONTINUOUS
 62
     3
  5
A2
 10
76.873474
 20
144.298416
 30
0.0
 40
10.800003
 50
135.936788
 51
167.575481
  0
ARC
  8
LY_1
  6
CONTINUOUS
 62
     3
  5
A3
 10
114.586136
 20
135.612442
 30
0.0
 40
49.500011
 50
167.132939
 51
174.333475
  0
ARC
  8
LY_1
  6
CONTINUOUS
 62
     3
  5
A4
 10
118.528
 20
144.699997
 30
0.0
 40
1.0
 50
180.000009
 51
269.999997
  0
ARC
  8
LY_1
  6
CONTINUOUS
 62
     3
  5
A5
 10
110.328003
 20
146.799988
 30
0.0
 40
7.199997
 50
0.0
 51
180.000005
  0
ARC
  8
LY_1
  6
CONTINUOUS
 62
     3
  5
A6
 10
129.290634
 20
146.599991
 30
0.0
 40
2.0
 50
0.0
 51
90.000003
  0
ARC
  8
LY_1
  6
CONTINUOUS
 62
     3
  5
A7
 10
130.290634
 20
144.699997
 30
0.0
 40
1.0
 50
269.999997
 51
0.0
  0
ARC
  8
LY_1
  6
CONTINUOUS
 62
     3
  5
A8
 10
144.623688
 20
146.599991
 30
0.0
 40
2.0
 50
0.0
 51
90.000003
  0
ARC
  8
LY_1
  6
CONTINUOUS
 62
     3
  5
A9
 10
145.623688
 20
144.699997
 30
0.0
 40
1.0
 50
269.999997
 51
0.0
  0
ARC
  8
LY_1
  6
CONTINUOUS
 62
     3
  5
AA
 10
136.420227
 20
146.799988
 30
0.0
 40
7.200027
 50
43.949354
 51
141.317734
  0
ARC
  8
LY_1
  6
CONTINUOUS
 62
     3
  5
AB
 10
133.831375
 20
144.298416
 30
0.0
 40
10.800002
 50
12.424428
 51
44.063336
  0
ARC
  8
LY_1
  6
CONTINUOUS
 62
     3
  5
AC
 10
96.118744
 20
135.612442
 30
0.0
 40
49.500004
 50
5.666517
 51
12.867106
  0
ARC
  8
LY_1
  6
CONTINUOUS
 62
     3
  5
AD
 10
146.371399
 20
146.799988
 30
0.0
 40
7.200016
 50
43.94944
 51
133.698494
  0
ARC
  8
LY_1
  6
CONTINUOUS
 62
     3
  5
AE
 10
143.782547
 20
144.298416
 30
0.0
 40
10.799988
 50
12.424445
 51
44.063388
  0
ARC
  8
LY_1
  6
CONTINUOUS
 62
     3
  5
AF
 10
106.069901
 20
135.612442
 30
0.0
 40
49.500004
 50
5.666517
 51
12.867106
  0
ARC
  8
LY_1
  6
CONTINUOUS
 62
     3
  5
B0
 10
-8.2
 20
144.699997
 30
0.0
 40
1.0
 50
269.999997
 51
0.0
  0
ARC
  8
LY_1
  6
CONTINUOUS
 62
     3
  5
B1
 10
-18.962616
 20
146.599991
 30
0.0
 40
2.0
 50
90.000003
 51
180.000005
  0
ARC
  8
LY_1
  6
CONTINUOUS
 62
     3
  5
B2
 10
-19.962616
 20
144.699997
 30
0.0
 40
1.0
 50
180.000005
 51
270.000001
  0
ARC
  8
LY_1
  6
CONTINUOUS
 62
     3
  5
B3
 10
-34.295685
 20
146.599991
 30
0.0
 40
2.0
 50
90.000003
 51
180.000005
  0
ARC
  8
LY_1
  6
CONTINUOUS
 62
     3
  5
B4
 10
-35.295685
 20
144.699997
 30
0.0
 40
1.0
 50
180.000005
 51
270.000001
  0
ARC
  8
LY_1
  6
CONTINUOUS
 62
     3
  5
B5
 10
-26.092209
 20
146.799988
 30
0.0
 40
7.199988
 50
38.682257
 51
136.050743
  0
ARC
  8
LY_1
  6
CONTINUOUS
 62
     3
  5
B6
 10
-23.503357
 20
144.298416
 30
0.0
 40
10.800002
 50
135.936665
 51
167.575413
  0
ARC
  8
LY_1
  6
CONTINUOUS
 62
     3
  5
B7
 10
14.20927
 20
135.612442
 30
0.0
 40
49.499977
 50
167.132926
 51
174.333475
  0
ARC
  8
LY_1
  6
CONTINUOUS
 62
     3
  5
B8
 10
-36.043381
 20
146.799988
 30
0.0
 40
7.200016
 50
46.301504
 51
136.050661
  0
ARC
  8
LY_1
  6
CONTINUOUS
 62
     3
  5
B9
 10
-33.454529
 20
144.298416
 30
0.0
 40
10.799992
 50
135.936611
 51
167.575399
  0
ARC
  8
LY_1
  6
CONTINUOUS
 62
     3
  5
BA
 10
4.258115
 20
135.612442
 30
0.0
 40
49.499977
 50
167.132926
 51
174.333475
  0
ARC
  8
LY_1
  6
CONTINUOUS
 62
     3
  5
BB
 10
8.2
 20
144.699997
 30
0.0
 40
1.0
 50
180.000005
 51
270.000001
  0
ARC
  8
LY_1
  6
CONTINUOUS
 62
     3
  5
BC
 10
0.0
 20
146.799988
 30
0.0
 40
7.2
 50
0.0
 51
180.000005
  0
ARC
  8
LY_1
  6
CONTINUOUS
 62
     3
  5
BD
 10
18.962616
 20
146.599991
 30
0.0
 40
2.0
 50
0.0
 51
90.000003
  0
ARC
  8
LY_1
  6
CONTINUOUS
 62
     3
  5
BE
 10
19.962616
 20
144.699997
 30
0.0
 40
1.0
 50
269.999997
 51
0.0
  0
ARC
  8
LY_1
  6
CONTINUOUS
 62
     3
  5
BF
 10
34.295685
 20
146.599991
 30
0.0
 40
2.0
 50
0.0
 51
90.000003
  0
ARC
  8
LY_1
  6
CONTINUOUS
 62
     3
  5
C0
 10
35.295685
 20
144.699997
 30
0.0
 40
1.0
 50
269.999997
 51
0.0
  0
ARC
  8
LY_1
  6
CONTINUOUS
 62
     3
  5
C1
 10
26.092209
 20
146.799988
 30
0.0
 40
7.200016
 50
43.94944
 51
141.317748
  0
ARC
  8
LY_1
  6
CONTINUOUS
 62
     3
  5
C2
 10
23.503357
 20
144.298416
 30
0.0
 40
10.800002
 50
12.424428
 51
44.063336
  0
ARC
  8
LY_1
  6
CONTINUOUS
 62
     3
  5
C3
 10
-14.20927
 20
135.612442
 30
0.0
 40
49.5
 50
5.666517
 51
12.867107
  0
CIRCLE
  8
LY_1
  6
CONTINUOUS
 62
   110
  5
C4
 10
0.0
 20
233.939041
 30
0.0
 40
3.15
  0
CIRCLE
  8
LY_1
  6
CONTINUOUS
 62
     3
  5
C5
 10
0.0
 20
233.939041
 30
0.0
 40
4.0
  0
ARC
  8
LY_1
  6
CONTINUOUS
 62
     3
  5
C6
 10
0.0
 20
233.939041
 30
0.0
 40
27.89999
 50
280.741624
 51
349.258436
  0
ARC
  8
LY_1
  6
CONTINUOUS
 62
     3
  5
C7
 10
0.0
 20
233.939041
 30
0.0
 40
27.899973
 50
190.741601
 51
259.258432
  0
ARC
  8
LY_1
  6
CONTINUOUS
 62
     3
  5
C8
 10
0.0
 20
233.939041
 30
0.0
 40
27.899986
 50
100.741568
 51
169.25844
  0
ARC
  8
LY_1
  6
CONTINUOUS
 62
     3
  5
C9
 10
0.0
 20
233.939041
 30
0.0
 40
27.899973
 50
10.7416
 51
79.258451
  0
ARC
  8
LY_1
  6
CONTINUOUS
 62
     3
  5
CA
 10
29.268631
 20
216.054886
 30
0.0
 40
1.400006
 50
148.57369
 51
224.999559
  0
ARC
  8
LY_1
  6
CONTINUOUS
 62
     3
  5
CB
 10
33.342041
 20
225.889084
 30
0.0
 40
1.399994
 50
90.000003
 51
166.42708
  0
ARC
  8
LY_1
  6
CONTINUOUS
 62
     3
  5
CC
 10
0.0
 20
233.939041
 30
0.0
 40
32.89999
 50
328.57361
 51
346.426487
  0
ARC
  8
LY_1
  6
CONTINUOUS
 62
     3
  5
CD
 10
0.0
 20
233.939041
 30
0.0
 40
36.899975
 50
325.382419
 51
349.61766
  0
ARC
  8
LY_1
  6
CONTINUOUS
 62
     3
  5
CE
 10
8.050029
 20
200.596985
 30
0.0
 40
1.400004
 50
103.573583
 51
180.000005
  0
ARC
  8
LY_1
  6
CONTINUOUS
 62
     3
  5
CF
 10
17.884186
 20
204.670456
 30
0.0
 40
1.400014
 50
45.000005
 51
121.426639
  0
ARC
  8
LY_1
  6
CONTINUOUS
 62
     3
  5
D0
 10
0.0
 20
233.939041
 30
0.0
 40
32.89999
 50
283.573639
 51
301.426483
  0
ARC
  8
LY_1
  6
CONTINUOUS
 62
     3
  5
D1
 10
0.0
 20
233.939041
 30
0.0
 40
36.899975
 50
280.38239
 51
304.617537
  0
ARC
  8
LY_1
  6
CONTINUOUS
 62
     3
  5
D2
 10
-17.884171
 20
204.67041
 30
0.0
 40
1.400006
 50
58.573694
 51
134.999563
  0
ARC
  8
LY_1
  6
CONTINUOUS
 62
     3
  5
D3
 10
-8.049974
 20
200.596985
 30
0.0
 40
1.4
 50
0.0
 51
76.426682
  0
ARC
  8
LY_1
  6
CONTINUOUS
 62
     3
  5
D4
 10
0.0
 20
233.939041
 30
0.0
 40
32.89999
 50
238.573607
 51
256.426472
  0
ARC
  8
LY_1
  6
CONTINUOUS
 62
     3
  5
D5
 10
0.0
 20
233.939041
 30
0.0
 40
36.899979
 50
235.382365
 51
259.617625
  0
ARC
  8
LY_1
  6
CONTINUOUS
 62
     3
  5
D6
 10
-33.342072
 20
225.889023
 30
0.0
 40
1.400003
 50
13.573386
 51
90.000003
  0
ARC
  8
LY_1
  6
CONTINUOUS
 62
     3
  5
D7
 10
-29.26857
 20
216.05484
 30
0.0
 40
1.400004
 50
315.000439
 51
31.426633
  0
ARC
  8
LY_1
  6
CONTINUOUS
 62
     3
  5
D8
 10
0.0
 20
233.939041
 30
0.0
 40
32.899982
 50
193.573562
 51
211.426433
  0
ARC
  8
LY_1
  6
CONTINUOUS
 62
     3
  5
D9
 10
0.0
 20
233.939041
 30
0.0
 40
36.899982
 50
190.382333
 51
214.617607
  0
ARC
  8
LY_1
  6
CONTINUOUS
 62
     3
  5
DA
 10
-29.268631
 20
251.823227
 30
0.0
 40
1.400019
 50
328.574013
 51
44.99912
  0
ARC
  8
LY_1
  6
CONTINUOUS
 62
     3
  5
DB
 10
-33.342041
 20
241.989029
 30
0.0
 40
1.399994
 50
269.999997
 51
346.426468
  0
ARC
  8
LY_1
  6
CONTINUOUS
 62
     3
  5
DC
 10
0.0
 20
233.939041
 30
0.0
 40
32.899998
 50
148.573594
 51
166.426466
  0
ARC
  8
LY_1
  6
CONTINUOUS
 62
     3
  5
DD
 10
0.0
 20
233.939041
 30
0.0
 40
36.89999
 50
145.38238
 51
169.617639
  0
ARC
  8
LY_1
  6
CONTINUOUS
 62
     3
  5
DE
 10
-8.050029
 20
267.281128
 30
0.0
 40
1.400419
 50
283.569432
 51
0.0
  0
ARC
  8
LY_1
  6
CONTINUOUS
 62
     3
  5
DF
 10
-17.884186
 20
263.207397
 30
0.0
 40
1.399842
 50
224.992937
 51
301.431845
  0
ARC
  8
LY_1
  6
CONTINUOUS
 62
     3
  5
E0
 10
0.0
 20
233.939041
 30
0.0
 40
32.899689
 50
103.573733
 51
121.426447
  0
ARC
  8
LY_1
  6
CONTINUOUS
 62
     3
  5
E1
 10
0.0
 20
233.939041
 30
0.0
 40
36.899624
 50
100.382491
 51
124.617799
  0
ARC
  8
LY_1
  6
CONTINUOUS
 62
     3
  5
E2
 10
17.884125
 20
263.207397
 30
0.0
 40
1.399811
 50
238.568799
 51
315.006627
  0
ARC
  8
LY_1
  6
CONTINUOUS
 62
     3
  5
E3
 10
8.049995
 20
267.281128
 30
0.0
 40
1.4
 50
180.000009
 51
256.43016
  0
ARC
  8
LY_1
  6
CONTINUOUS
 62
     3
  5
E4
 10
0.0
 20
233.939041
 30
0.0
 40
32.900009
 50
58.573599
 51
76.426347
  0
ARC
  8
LY_1
  6
CONTINUOUS
 62
     3
  5
E5
 10
0.0
 20
233.939041
 30
0.0
 40
36.899944
 50
55.38236
 51
79.617555
  0
ARC
  8
LY_1
  6
CONTINUOUS
 62
     3
  5
E6
 10
33.341965
 20
241.989029
 30
0.0
 40
1.399999
 50
193.572769
 51
269.999997
  0
ARC
  8
LY_1
  6
CONTINUOUS
 62
     3
  5
E7
 10
29.268524
 20
251.823166
 30
0.0
 40
1.400014
 50
135.0
 51
211.426088
  0
ARC
  8
LY_1
  6
CONTINUOUS
 62
     3
  5
E8
 10
0.0
 20
233.939041
 30
0.0
 40
32.899982
 50
13.573571
 51
31.426441
  0
ARC
  8
LY_1
  6
CONTINUOUS
 62
     3
  5
E9
 10
0.0
 20
233.939041
 30
0.0
 40
36.899975
 50
10.382385
 51
34.617636
  0
ARC
  8
LY_1
  6
CONTINUOUS
 62
     3
  5
EA
 10
78.787567
 20
201.304016
 30
0.0
 40
44.999996
 50
142.077634
 51
172.922413
  0
ARC
  8
LY_1
  6
CONTINUOUS
 62
     3
  5
EB
 10
26.092209
 20
207.846985
 30
0.0
 40
8.100002
 50
276.899185
 51
352.922175
  0
ARC
  8
LY_1
  6
CONTINUOUS
 62
     3
  5
EC
 10
32.634781
 20
155.151352
 30
0.0
 40
45.000011
 50
97.077595
 51
127.922408
  0
ARC
  8
LY_1
  6
CONTINUOUS
 62
     3
  5
ED
 10
0.000108
 20
197.039169
 30
0.0
 40
8.099996
 50
231.89901
 51
307.922318
  0
ARC
  8
LY_1
  6
CONTINUOUS
 62
     3
  5
EE
 10
-32.635025
 20
155.151474
 30
0.0
 40
44.999989
 50
52.077583
 51
82.92241
  0
ARC
  8
LY_1
  6
CONTINUOUS
 62
     3
  5
EF
 10
-26.092072
 20
207.846817
 30
0.0
 40
8.100001
 50
186.89906
 51
262.922378
  0
ARC
  8
LY_1
  6
CONTINUOUS
 62
     3
  5
F0
 10
-78.787674
 20
201.30426
 30
0.0
 40
44.999992
 50
7.077573
 51
37.922358
  0
ARC
  8
LY_1
  6
CONTINUOUS
 62
     3
  5
F1
 10
-36.899872
 20
233.938934
 30
0.0
 40
8.099993
 50
141.899051
 51
217.922335
  0
ARC
  8
LY_1
  6
CONTINUOUS
 62
     3
  5
F2
 10
-78.787567
 20
266.574097
 30
0.0
 40
45.0
 50
322.077564
 51
352.92235
  0
ARC
  8
LY_1
  6
CONTINUOUS
 62
     3
  5
F3
 10
-26.092209
 20
260.031128
 30
0.0
 40
8.099668
 50
96.899334
 51
172.922317
  0
ARC
  8
LY_1
  6
CONTINUOUS
 62
     3
  5
F4
 10
-32.634842
 20
312.72644
 30
0.0
 40
44.999874
 50
277.077617
 51
307.922362
  0
ARC
  8
LY_1
  6
CONTINUOUS
 62
     3
  5
F5
 10
-0.000054
 20
270.838745
 30
0.0
 40
8.100141
 50
51.899817
 51
127.922094
  0
ARC
  8
LY_1
  6
CONTINUOUS
 62
     3
  5
F6
 10
32.634995
 20
312.72644
 30
0.0
 40
45.000076
 50
232.077619
 51
262.922351
  0
ARC
  8
LY_1
  6
CONTINUOUS
 62
     3
  5
F7
 10
26.092224
 20
260.031372
 30
0.0
 40
8.100001
 50
6.89906
 51
82.921857
  0
ARC
  8
LY_1
  6
CONTINUOUS
 62
     3
  5
F8
 10
78.787628
 20
266.573608
 30
0.0
 40
44.999958
 50
187.077218
 51
217.922093
  0
ARC
  8
LY_1
  6
CONTINUOUS
 62
     3
  5
F9
 10
36.899994
 20
233.939041
 30
0.0
 40
8.099993
 50
321.899043
 51
37.922337
  0
ARC
  8
LY_1
  6
CONTINUOUS
 62
     3
  5
FA
 10
36.043381
 20
146.799988
 30
0.0
 40
7.200016
 50
43.94944
 51
133.69859
  0
ARC
  8
LY_1
  6
CONTINUOUS
 62
     3
  5
FB
 10
33.454529
 20
144.298416
 30
0.0
 40
10.799988
 50
12.424445
 51
44.063388
  0
ARC
  8
LY_1
  6
CONTINUOUS
 62
     3
  5
FC
 10
-4.258115
 20
135.612442
 30
0.0
 40
49.5
 50
5.666517
 51
12.867107
  0
ARC
  8
LY_1
  6
CONTINUOUS
 62
     3
  5
FD
 10
-24.0
 20
96.790192
 30
0.0
 40
12.999998
 50
289.99998
 51
359.999933
  0
ARC
  8
LY_1
  6
CONTINUOUS
 62
     3
  5
FE
 10
24.0
 20
96.790192
 30
0.0
 40
13.0
 50
180.000063
 51
249.999974
  0
ARC
  8
LY_1
  6
CONTINUOUS
 62
     3
  5
FF
 10
2.799332
 20
6.055449
 30
0.0
 40
1.055411
 50
217.524112
 51
359.999948
  0
ARC
  8
LY_1
  6
CONTINUOUS
 62
     3
  5
100
 10
-2.794662
 20
6.060013
 30
0.0
 40
1.060047
 50
180.00005
 51
359.999948
  0
ARC
  8
LY_1
  6
CONTINUOUS
 62
     3
  5
101
 10
-2.799193
 20
13.388382
 30
0.0
 40
1.055593
 50
37.524076
 51
180.000005
  0
ARC
  8
LY_1
  6
CONTINUOUS
 62
     3
  5
102
 10
2.771744
 20
12.971268
 30
0.0
 40
1.083023
 50
0.0
 51
270.000001
  0
ARC
  8
LY_1
  6
CONTINUOUS
 62
     3
  5
103
 10
2.794449
 20
16.64946
 30
0.0
 40
1.060002
 50
180.000005
 51
0.00001
  0
ARC
  8
LY_1
  6
CONTINUOUS
 62
     3
  5
104
 10
-2.771683
 20
20.113968
 30
0.0
 40
1.083069
 50
90.000003
 51
270.000001
  0
ARC
  8
LY_1
  6
CONTINUOUS
 62
     3
  5
105
 10
2.771468
 20
23.910004
 30
0.0
 40
1.082962
 50
0.0
 51
270.000001
  0
ARC
  8
LY_1
  6
CONTINUOUS
 62
     3
  5
106
 10
-2.771683
 20
27.626114
 30
0.0
 40
1.083038
 50
90.000003
 51
270.000001
  0
ARC
  8
LY_1
  6
CONTINUOUS
 62
     3
  5
107
 10
2.771744
 20
27.626114
 30
0.0
 40
1.083054
 50
269.999997
 51
90.000003
  0
ARC
  8
LY_1
  6
CONTINUOUS
 62
     3
  5
108
 10
2.570251
 20
31.278214
 30
0.0
 40
1.284574
 50
0.778615
 51
34.258907
  0
ARC
  8
LY_1
  6
CONTINUOUS
 62
     3
  5
109
 10
2.795058
 20
31.3116
 30
0.0
 40
1.059787
 50
123.57446
 51
359.142849
  0
ARC
  8
LY_1
  6
CONTINUOUS
 62
     3
  5
10A
 10
-2.797194
 20
31.331131
 30
0.0
 40
1.067334
 50
145.740609
 51
325.741065
  0
ARC
  8
LY_1
  6
CONTINUOUS
 62
     3
  5
10B
 10
-2.77179
 20
38.417038
 30
0.0
 40
1.082962
 50
90.000003
 51
270.000001
  0
ARC
  8
LY_1
  6
CONTINUOUS
 62
     3
  5
10C
 10
2.771819
 20
38.417038
 30
0.0
 40
1.082962
 50
269.999997
 51
90.000003
  0
ARC
  8
LY_1
  6
CONTINUOUS
 62
     3
  5
10D
 10
-22.0
 20
52.0
 30
0.0
 40
3.5
 50
0.0
 51
90.000003
  0
ARC
  8
LY_1
  6
CONTINUOUS
 62
     3
  5
10E
 10
22.0
 20
52.0
 30
0.0
 40
3.5
 50
90.000003
 51
180.000005
  0
ARC
  8
LY_1
  6
CONTINUOUS
 62
     3
  5
10F
 10
22.653244
 20
-37.5
 30
0.0
 40
1.999998
 50
20.00036
 51
90.000003
  0
ARC
  8
LY_1
  6
CONTINUOUS
 62
     3
  5
110
 10
-22.653244
 20
-37.5
 30
0.0
 40
2.0
 50
90.000003
 51
159.999381
  0
ARC
  8
LY_1
  6
CONTINUOUS
 62
     3
  5
111
 10
117.828003
 20
50.5
 30
0.0
 40
5.0
 50
90.000003
 51
180.000005
  0
ARC
  8
LY_1
  6
CONTINUOUS
 62
     3
  5
112
 10
102.828003
 20
50.5
 30
0.0
 40
5.0
 50
0.0
 51
90.000003
  0
ARC
  8
LY_1
  6
CONTINUOUS
 62
     3
  5
113
 10
-34.0
 20
50.88118
 30
0.0
 40
3.5
 50
0.0
 51
59.999851
  0
ARC
  8
LY_1
  6
CONTINUOUS
 62
     3
  5
114
 10
-34.0
 20
40.799988
 30
0.0
 40
3.5
 50
269.999997
 51
0.0
  0
ARC
  8
LY_1
  6
CONTINUOUS
 62
     3
  5
115
 10
34.0
 20
50.88118
 30
0.0
 40
3.499994
 50
120.000058
 51
180.000005
  0
ARC
  8
LY_1
  6
CONTINUOUS
 62
     3
  5
116
 10
34.0
 20
40.799988
 30
0.0
 40
3.5
 50
180.000005
 51
270.000001
  0
ARC
  8
LY_1
  6
CONTINUOUS
 62
     3
  5
117
 10
-22.5
 20
41.299988
 30
0.0
 40
4.0
 50
269.999997
 51
0.0
  0
ARC
  8
LY_1
  6
CONTINUOUS
 62
     3
  5
118
 10
-22.5
 20
43.664322
 30
0.0
 40
4.0
 50
0.0
 51
59.999769
  0
ARC
  8
LY_1
  6
CONTINUOUS
 62
     3
  5
119
 10
-33.0
 20
56.654694
 30
0.0
 40
1.999985
 50
180.000432
 51
240.000652
  0
ARC
  8
LY_1
  6
CONTINUOUS
 62
     3
  5
11A
 10
22.5
 20
41.299988
 30
0.0
 40
4.0
 50
180.000005
 51
270.000001
  0
ARC
  8
LY_1
  6
CONTINUOUS
 62
     3
  5
11B
 10
73.857483
 20
51.760254
 30
0.0
 40
4.0
 50
0.500086
 51
54.660679
  0
ARC
  8
LY_1
  6
CONTINUOUS
 62
     3
  5
11C
 10
77.328003
 20
56.654694
 30
0.0
 40
2.0
 50
180.000432
 51
234.660851
  0
ARC
  8
LY_1
  6
CONTINUOUS
 62
     3
  5
11D
 10
146.798538
 20
51.760254
 30
0.0
 40
4.000004
 50
125.339627
 51
179.499707
  0
ARC
  8
LY_1
  6
CONTINUOUS
 62
     3
  5
11E
 10
143.328003
 20
56.654694
 30
0.0
 40
2.000008
 50
305.339492
 51
359.999563
  0
CIRCLE
  8
LY_1
  6
CONTINUOUS
 62
     3
  5
11F
 10
110.328003
 20
0.0
 30
0.0
 40
28.349991
  0
CIRCLE
  8
LY_1
  6
CONTINUOUS
 62
   110
  5
120
 10
110.328003
 20
0.0
 30
0.0
 40
29.799988
  0
ARC
  8
LY_1
  6
CONTINUOUS
 62
     3
  5
121
 10
22.5
 20
43.664322
 30
0.0
 40
3.999982
 50
120.000154
 51
180.000005
  0
ARC
  8
LY_1
  6
CONTINUOUS
 62
     3
  5
122
 10
33.0
 20
56.654694
 30
0.0
 40
1.999997
 50
299.999554
 51
359.999563
  0
ARC
  8
LY_1
  6
CONTINUOUS
 62
     3
  5
123
 10
-13.73863
 20
-38.5
 30
0.0
 40
7.000002
 50
69.373637
 51
90.000003
  0
ARC
  8
LY_1
  6
CONTINUOUS
 62
     3
  5
124
 10
-14.803846
 20
-38.5
 30
0.0
 40
7.0
 50
90.000003
 51
111.786708
  0
ARC
  8
LY_1
  6
CONTINUOUS
 62
     3
  5
125
 10
-20.0
 20
-25.5
 30
0.0
 40
7.0
 50
269.999997
 51
291.786894
  0
ARC
  8
LY_1
  6
CONTINUOUS
 62
     3
  5
126
 10
-21.561356
 20
-34.5
 30
0.0
 40
2.0
 50
90.000003
 51
159.99964
  0
ARC
  8
LY_1
  6
CONTINUOUS
 62
     3
  5
127
 10
13.73863
 20
-38.5
 30
0.0
 40
7.0
 50
90.000003
 51
110.626368
  0
ARC
  8
LY_1
  6
CONTINUOUS
 62
     3
  5
128
 10
14.803846
 20
-38.5
 30
0.0
 40
7.000006
 50
68.21342
 51
90.000003
  0
ARC
  8
LY_1
  6
CONTINUOUS
 62
     3
  5
129
 10
0.0
 20
-2.0
 30
0.0
 40
31.999977
 50
249.371303
 51
290.626424
  0
ARC
  8
LY_1
  6
CONTINUOUS
 62
     3
  5
12A
 10
20.0
 20
-25.5
 30
0.0
 40
7.000003
 50
248.213149
 51
269.999997
  0
ARC
  8
LY_1
  6
CONTINUOUS
 62
     3
  5
12B
 10
21.561356
 20
-34.5
 30
0.0
 40
1.999998
 50
20.00036
 51
90.000003
  0
LINE
  8
LY_1
  6
CONTINUOUS
 62
     3
  5
12C
 10
108.492416
 20
-38.200012
 30
0.0
 11
112.163589
 21
-38.200012
 31
0.0
  0
LINE
  8
LY_1
  6
CONTINUOUS
 62
     3
  5
12D
 10
8.426472
 20
226.868384
 30
0.0
 11
9.958564
 21
225.582789
 31
0.0
  0
LINE
  8
LY_1
  6
CONTINUOUS
 62
     3
  5
12E
 10
9.063062
 20
229.712856
 30
0.0
 11
9.969369
 21
229.290219
 31
0.0
  0
LINE
  8
LY_1
  6
CONTINUOUS
 62
     3
  5
12F
 10
12.688319
 20
228.02242
 30
0.0
 11
11.781998
 21
228.445028
 31
0.0
  0
LINE
  8
LY_1
  6
CONTINUOUS
 62
     3
  5
130
 10
11.817706
 20
231.855256
 30
0.0
 11
9.063085
 21
229.712862
 31
0.0
  0
LINE
  8
LY_1
  6
CONTINUOUS
 62
     3
  5
131
 10
11.817683
 20
231.855252
 30
0.0
 11
12.688289
 21
228.022403
 31
0.0
  0
LINE
  8
LY_1
  6
CONTINUOUS
 62
     3
  5
132
 10
-8.426496
 20
226.868355
 30
0.0
 11
-9.958575
 21
225.582792
 31
0.0
  0
LINE
  8
LY_1
  6
CONTINUOUS
 62
     3
  5
133
 10
-9.063097
 20
229.712868
 30
0.0
 11
-9.969393
 21
229.290259
 31
0.0
  0
LINE
  8
LY_1
  6
CONTINUOUS
 62
     3
  5
134
 10
-12.688296
 20
228.022413
 30
0.0
 11
-11.782008
 21
228.445003
 31
0.0
  0
LINE
  8
LY_1
  6
CONTINUOUS
 62
     3
  5
135
 10
-11.817706
 20
231.855256
 30
0.0
 11
-9.063085
 21
229.712862
 31
0.0
  0
LINE
  8
LY_1
  6
CONTINUOUS
 62
     3
  5
136
 10
-11.817704
 20
231.855248
 30
0.0
 11
-12.688304
 21
228.022414
 31
0.0
  0
LINE
  8
LY_1
  6
CONTINUOUS
 62
     3
  5
137
 10
2.67249
 20
246.43898
 30
0.0
 11
2.67249
 21
246.384018
 31
0.0
  0
LINE
  8
LY_1
  6
CONTINUOUS
 62
     3
  5
138
 10
3.378777
 20
246.501999
 30
0.0
 11
3.378777
 21
246.414032
 31
0.0
  0
LINE
  8
LY_1
  6
CONTINUOUS
 62
     3
  5
139
 10
-0.188163
 20
246.501907
 30
0.0
 11
-0.188163
 21
246.41391
 31
0.0
  0
LINE
  8
LY_1
  6
CONTINUOUS
 62
     3
  5
13A
 10
-0.894427
 20
246.438904
 30
0.0
 11
-0.894427
 21
246.383911
 31
0.0
  0
LINE
  8
LY_1
  6
CONTINUOUS
 62
     3
  5
13B
 10
-1.399995
 20
246.485916
 30
0.0
 11
-1.399995
 21
244.1922
 31
0.0
  0
LINE
  8
LY_1
  6
CONTINUOUS
 62
     3
  5
13C
 10
-2.106256
 20
246.485916
 30
0.0
 11
-2.106256
 21
244.1922
 31
0.0
  0
LINE
  8
LY_1
  6
CONTINUOUS
 62
     3
  5
13D
 10
-2.609276
 20
246.439041
 30
0.0
 11
-2.609276
 21
246.41423
 31
0.0
  0
LINE
  8
LY_1
  6
CONTINUOUS
 62
     3
  5
13E
 10
-0.188163
 20
246.501907
 30
0.0
 11
0.343388
 21
246.501907
 31
0.0
  0
LINE
  8
LY_1
  6
CONTINUOUS
 62
     3
  5
13F
 10
1.049718
 20
246.013931
 30
0.0
 11
1.759446
 21
246.013931
 31
0.0
  0
LINE
  8
LY_1
  6
CONTINUOUS
 62
     3
  5
140
 10
1.049718
 20
246.013931
 30
0.0
 11
1.049718
 21
244.1922
 31
0.0
  0
LINE
  8
LY_1
  6
CONTINUOUS
 62
     3
  5
141
 10
0.343388
 20
246.501907
 30
0.0
 11
0.343388
 21
244.1922
 31
0.0
  0
LINE
  8
LY_1
  6
CONTINUOUS
 62
     3
  5
142
 10
-0.494428
 20
246.838867
 30
0.0
 11
1.759446
 21
246.838867
 31
0.0
  0
LINE
  8
LY_1
  6
CONTINUOUS
 62
     3
  5
143
 10
3.378777
 20
246.50206
 30
0.0
 11
4.743478
 21
246.50206
 31
0.0
  0
LINE
  8
LY_1
  6
CONTINUOUS
 62
     3
  5
144
 10
2.971276
 20
243.839035
 30
0.0
 11
5.212487
 21
243.839035
 31
0.0
  0
LINE
  8
LY_1
  6
CONTINUOUS
 62
     3
  5
145
 10
5.212487
 20
244.664032
 30
0.0
 11
3.959329
 21
244.664032
 31
0.0
  0
LINE
  8
LY_1
  6
CONTINUOUS
 62
     3
  5
146
 10
5.486867
 20
246.099351
 30
0.0
 11
3.949209
 21
244.690126
 31
0.0
  0
LINE
  8
LY_1
  6
CONTINUOUS
 62
     3
  5
147
 10
4.753617
 20
246.476004
 30
0.0
 11
2.6806
 21
244.576138
 31
0.0
  0
LINE
  8
LY_1
  6
CONTINUOUS
 62
     3
  5
148
 10
3.07251
 20
246.839035
 30
0.0
 11
5.199192
 21
246.839035
 31
0.0
  0
LINE
  8
LY_1
  6
CONTINUOUS
 62
     3
  5
149
 10
-3.991213
 20
245.590264
 30
0.0
 11
-3.263869
 21
246.181429
 31
0.0
  0
LINE
  8
LY_1
  6
CONTINUOUS
 62
     3
  5
14A
 10
-3.991242
 20
245.590259
 30
0.0
 11
-2.72112
 21
244.557913
 31
0.0
  0
LINE
  8
LY_1
  6
CONTINUOUS
 62
     3
  5
14B
 10
-4.903497
 20
245.351312
 30
0.0
 11
-3.163515
 21
246.765526
 31
0.0
  0
LINE
  8
LY_1
  6
CONTINUOUS
 62
     3
  5
14C
 10
-4.903509
 20
245.326705
 30
0.0
 11
-3.213024
 21
243.952715
 31
0.0
  0
LINE
  8
LY_1
  6
CONTINUOUS
 62
     3
  5
14D
 10
-4.918736
 20
246.485901
 30
0.0
 11
-4.918736
 21
244.192169
 31
0.0
  0
LINE
  8
LY_1
  6
CONTINUOUS
 62
     3
  5
14E
 10
-5.625023
 20
246.485901
 30
0.0
 11
-5.625023
 21
244.192169
 31
0.0
  0
LINE
  8
LY_1
  6
CONTINUOUS
 62
     3
  5
14F
 10
-11.99111
 20
234.645929
 30
0.0
 11
-12.256086
 21
233.143156
 31
0.0
  0
LINE
  8
LY_1
  6
CONTINUOUS
 62
     3
  5
150
 10
-11.69566
 20
234.593834
 30
0.0
 11
-11.960639
 21
233.091077
 31
0.0
  0
LINE
  8
LY_1
  6
CONTINUOUS
 62
     3
  5
151
 10
-15.45771
 20
210.712578
 30
0.0
 11
-25.81049
 21
228.644162
 31
0.0
  0
LINE
  8
LY_1
  6
CONTINUOUS
 62
     3
  5
152
 10
-5.342765
 20
208.939041
 30
0.0
 11
-12.385864
 21
208.939041
 31
0.0
  0
LINE
  8
LY_1
  6
CONTINUOUS
 62
     3
  5
153
 10
-32.586975
 20
248.022308
 30
0.0
 11
-34.106766
 21
248.022308
 31
0.0
  0
LINE
  8
LY_1
  6
CONTINUOUS
 62
     3
  5
154
 10
-15.315009
 20
265.965456
 30
0.0
 11
-17.603827
 21
266.368777
 31
0.0
  0
LINE
  8
LY_1
  6
CONTINUOUS
 62
     3
  5
155
 10
-15.4577
 20
257.165522
 30
0.0
 11
-25.81048
 21
239.233974
 31
0.0
  0
LINE
  8
LY_1
  6
CONTINUOUS
 62
     3
  5
156
 10
-5.342765
 20
258.939056
 30
0.0
 11
-12.385864
 21
258.939056
 31
0.0
  0
LINE
  8
LY_1
  6
CONTINUOUS
 62
     3
  5
157
 10
-32.586975
 20
219.855774
 30
0.0
 11
-34.106766
 21
219.855774
 31
0.0
  0
LINE
  8
LY_1
  6
CONTINUOUS
 62
     3
  5
158
 10
-15.315004
 20
201.912465
 30
0.0
 11
-17.603821
 21
201.508901
 31
0.0
  0
LINE
  8
LY_1
  6
CONTINUOUS
 62
     3
  5
159
 10
15.45771
 20
210.712578
 30
0.0
 11
25.81049
 21
228.644162
 31
0.0
  0
LINE
  8
LY_1
  6
CONTINUOUS
 62
     3
  5
15A
 10
5.342765
 20
208.939041
 30
0.0
 11
12.385864
 21
208.939041
 31
0.0
  0
LINE
  8
LY_1
  6
CONTINUOUS
 62
     3
  5
15B
 10
32.586975
 20
248.022308
 30
0.0
 11
34.106766
 21
248.022308
 31
0.0
  0
LINE
  8
LY_1
  6
CONTINUOUS
 62
     3
  5
15C
 10
15.314998
 20
265.965463
 30
0.0
 11
17.603816
 21
266.368783
 31
0.0
  0
LINE
  8
LY_1
  6
CONTINUOUS
 62
     3
  5
15D
 10
15.4577
 20
257.165522
 30
0.0
 11
25.81048
 21
239.233974
 31
0.0
  0
LINE
  8
LY_1
  6
CONTINUOUS
 62
     3
  5
15E
 10
5.342765
 20
258.939056
 30
0.0
 11
12.385864
 21
258.939056
 31
0.0
  0
LINE
  8
LY_1
  6
CONTINUOUS
 62
     3
  5
15F
 10
32.586975
 20
219.855774
 30
0.0
 11
34.106766
 21
219.855774
 31
0.0
  0
LINE
  8
LY_1
  6
CONTINUOUS
 62
     3
  5
160
 10
15.315006
 20
201.912503
 30
0.0
 11
17.60382
 21
201.508908
 31
0.0
  0
LINE
  8
LY_1
  6
CONTINUOUS
 62
     3
  5
161
 10
110.328003
 20
81.5
 30
0.0
 11
110.328003
 21
73.0
 31
0.0
  0
LINE
  8
LY_1
  6
CONTINUOUS
 62
     3
  5
162
 10
110.328003
 20
121.5
 30
0.0
 11
110.328003
 21
106.0
 31
0.0
  0
LINE
  8
LY_1
  6
CONTINUOUS
 62
     3
  5
163
 10
74.828003
 20
71.305618
 30
0.0
 11
145.828003
 21
71.305618
 31
0.0
  0
LINE
  8
LY_1
  6
CONTINUOUS
 62
     3
  5
164
 10
-35.5
 20
71.789734
 30
0.0
 11
35.5
 21
71.789734
 31
0.0
  0
LINE
  8
LY_1
  6
CONTINUOUS
 62
     3
  5
165
 10
90.774278
 20
83.482255
 30
0.0
 11
85.328006
 21
81.500002
 31
0.0
  0
LINE
  8
LY_1
  6
CONTINUOUS
 62
     3
  5
166
 10
85.328004
 20
73.000004
 30
0.0
 11
74.828
 21
71.305637
 31
0.0
  0
LINE
  8
LY_1
  6
CONTINUOUS
 62
     3
  5
167
 10
85.328003
 20
81.5
 30
0.0
 11
85.328003
 21
73.0
 31
0.0
  0
LINE
  8
LY_1
  6
CONTINUOUS
 62
     3
  5
168
 10
99.328003
 20
106.0
 30
0.0
 11
99.328003
 21
95.698288
 31
0.0
  0
LINE
  8
LY_1
  6
CONTINUOUS
 62
     3
  5
169
 10
129.881732
 20
83.482285
 30
0.0
 11
135.328001
 21
81.500002
 31
0.0
  0
LINE
  8
LY_1
  6
CONTINUOUS
 62
     3
  5
16A
 10
135.328005
 20
73.000003
 30
0.0
 11
145.828009
 21
71.305636
 31
0.0
  0
LINE
  8
LY_1
  6
CONTINUOUS
 62
     3
  5
16B
 10
135.328003
 20
81.5
 30
0.0
 11
135.328003
 21
73.0
 31
0.0
  0
LINE
  8
LY_1
  6
CONTINUOUS
 62
     3
  5
16C
 10
-27.84668
 20
199.939026
 30
0.0
 11
-36.0
 21
199.939026
 31
0.0
  0
LINE
  8
LY_1
  6
CONTINUOUS
 62
     3
  5
16D
 10
-36.0
 20
199.939026
 30
0.0
 11
-36.0
 21
215.240448
 31
0.0
  0
LINE
  8
LY_1
  6
CONTINUOUS
 62
     3
  5
16E
 10
27.84668
 20
199.939026
 30
0.0
 11
36.0
 21
199.939026
 31
0.0
  0
LINE
  8
LY_1
  6
CONTINUOUS
 62
     3
  5
16F
 10
36.0
 20
199.939026
 30
0.0
 11
36.0
 21
215.240448
 31
0.0
  0
LINE
  8
LY_1
  6
CONTINUOUS
 62
     3
  5
170
 10
-27.84668
 20
267.939087
 30
0.0
 11
-36.0
 21
267.939087
 31
0.0
  0
LINE
  8
LY_1
  6
CONTINUOUS
 62
     3
  5
171
 10
-36.0
 20
267.939087
 30
0.0
 11
-36.0
 21
252.637634
 31
0.0
  0
LINE
  8
LY_1
  6
CONTINUOUS
 62
     3
  5
172
 10
27.84668
 20
267.939087
 30
0.0
 11
36.0
 21
267.939087
 31
0.0
  0
LINE
  8
LY_1
  6
CONTINUOUS
 62
     3
  5
173
 10
36.0
 20
267.939087
 30
0.0
 11
36.0
 21
252.637634
 31
0.0
  0
LINE
  8
LY_1
  6
CONTINUOUS
 62
   110
  5
174
 10
100.178009
 20
106.0
 30
0.0
 11
100.178009
 21
99.5
 31
0.0
  0
LINE
  8
LY_1
  6
CONTINUOUS
 62
   110
  5
175
 10
120.477997
 20
106.0
 30
0.0
 11
120.477997
 21
99.5
 31
0.0
  0
LINE
  8
LY_1
  6
CONTINUOUS
 62
     3
  5
176
 10
121.328003
 20
106.0
 30
0.0
 11
121.328003
 21
95.698288
 31
0.0
  0
LINE
  8
LY_1
  6
CONTINUOUS
 62
     3
  5
177
 10
99.328003
 20
99.5
 30
0.0
 11
121.328003
 21
99.5
 31
0.0
  0
LINE
  8
LY_1
  6
CONTINUOUS
 62
     3
  5
178
 10
85.328003
 20
81.5
 30
0.0
 11
135.328003
 21
81.5
 31
0.0
  0
LINE
  8
LY_1
  6
CONTINUOUS
 62
     3
  5
179
 10
85.328003
 20
73.0
 30
0.0
 11
135.328003
 21
73.0
 31
0.0
  0
LINE
  8
LY_1
  6
CONTINUOUS
 62
     3
  5
17A
 10
74.828003
 20
68.0
 30
0.0
 11
145.828003
 21
68.0
 31
0.0
  0
LINE
  8
LY_1
  6
CONTINUOUS
 62
     3
  5
17B
 10
-14.433757
 20
81.5
 30
0.0
 11
-14.433757
 21
73.0
 31
0.0
  0
LINE
  8
LY_1
  6
CONTINUOUS
 62
     3
  5
17C
 10
14.433757
 20
81.5
 30
0.0
 11
14.433757
 21
73.0
 31
0.0
  0
LINE
  8
LY_1
  6
CENTER
 62
   110
  5
17E
 10
110.328003
 20
159.0
 30
0.0
 11
110.328003
 21
-42.104248
 31
0.0
  0
LINE
  8
LY_1
  6
CONTINUOUS
 62
   110
  5
17F
 10
-10.15
 20
106.0
 30
0.0
 11
-10.15
 21
99.5
 31
0.0
  0
LINE
  8
LY_1
  6
CONTINUOUS
 62
   110
  5
180
 10
10.15
 20
106.0
 30
0.0
 11
10.15
 21
99.5
 31
0.0
  0
LINE
  8
LY_1
  6
CONTINUOUS
 62
     3
  5
181
 10
-7.216887
 20
121.5
 30
0.0
 11
-7.216887
 21
106.0
 31
0.0
  0
LINE
  8
LY_1
  6
CONTINUOUS
 62
     3
  5
182
 10
7.216887
 20
121.5
 30
0.0
 11
7.216887
 21
106.0
 31
0.0
  0
LINE
  8
LY_1
  6
CONTINUOUS
 62
     3
  5
183
 10
122.828003
 20
121.5
 30
0.0
 11
122.828003
 21
106.0
 31
0.0
  0
LINE
  8
LY_1
  6
CONTINUOUS
 62
     3
  5
184
 10
97.828003
 20
121.5
 30
0.0
 11
97.828003
 21
106.0
 31
0.0
  0
LINE
  8
LY_1
  6
CONTINUOUS
 62
     3
  5
185
 10
103.128006
 20
146.799988
 30
0.0
 11
103.128006
 21
144.699997
 31
0.0
  0
LINE
  8
LY_1
  6
CONTINUOUS
 62
     3
  5
186
 10
103.356644
 20
148.599991
 30
0.0
 11
91.365387
 21
148.599991
 31
0.0
  0
LINE
  8
LY_1
  6
CONTINUOUS
 62
     3
  5
187
 10
103.128006
 20
145.0
 30
0.0
 11
89.365387
 21
145.0
 31
0.0
  0
LINE
  8
LY_1
  6
CONTINUOUS
 62
     3
  5
188
 10
102.128006
 20
143.699997
 30
0.0
 11
90.365387
 21
143.699997
 31
0.0
  0
LINE
  8
LY_1
  6
CONTINUOUS
 62
     3
  5
189
 10
89.365387
 20
146.599991
 30
0.0
 11
89.365387
 21
144.699997
 31
0.0
  0
LINE
  8
LY_1
  6
CONTINUOUS
 62
     3
  5
18A
 10
75.279188
 20
140.499933
 30
0.0
 11
75.515424
 21
137.799936
 31
0.0
  0
LINE
  8
LY_1
  6
CONTINUOUS
 62
     3
  5
18B
 10
104.70752
 20
151.299988
 30
0.0
 11
89.856293
 21
151.299988
 31
0.0
  0
LINE
  8
LY_1
  6
CONTINUOUS
 62
     3
  5
18C
 10
76.918259
 20
148.599991
 30
0.0
 11
76.032318
 21
148.599991
 31
0.0
  0
LINE
  8
LY_1
  6
CONTINUOUS
 62
     3
  5
18D
 10
75.935608
 20
145.0
 30
0.0
 11
74.032318
 21
145.0
 31
0.0
  0
LINE
  8
LY_1
  6
CONTINUOUS
 62
     3
  5
18E
 10
75.702454
 20
143.699997
 30
0.0
 11
75.032318
 21
143.699997
 31
0.0
  0
LINE
  8
LY_1
  6
CONTINUOUS
 62
     3
  5
18F
 10
74.032318
 20
146.599991
 30
0.0
 11
74.032318
 21
144.699997
 31
0.0
  0
LINE
  8
LY_1
  6
CONTINUOUS
 62
     3
  5
190
 10
65.328046
 20
140.499917
 30
0.0
 11
65.564253
 21
137.799917
 31
0.0
  0
LINE
  8
LY_1
  6
CONTINUOUS
 62
     3
  5
191
 10
101.301877
 20
130.799983
 30
0.0
 11
89.177518
 21
137.799984
 31
0.0
  0
LINE
  8
LY_1
  6
CONTINUOUS
 62
     3
  5
192
 10
100.934949
 20
137.799885
 30
0.0
 11
101.328
 21
130.299878
 31
0.0
  0
LINE
  8
LY_1
  6
CONTINUOUS
 62
     3
  5
193
 10
117.528
 20
146.799988
 30
0.0
 11
117.528
 21
144.699997
 31
0.0
  0
LINE
  8
LY_1
  6
CONTINUOUS
 62
     3
  5
194
 10
117.299393
 20
148.599991
 30
0.0
 11
129.290634
 21
148.599991
 31
0.0
  0
LINE
  8
LY_1
  6
CONTINUOUS
 62
     3
  5
195
 10
117.528
 20
145.0
 30
0.0
 11
131.290634
 21
145.0
 31
0.0
  0
LINE
  8
LY_1
  6
CONTINUOUS
 62
     3
  5
196
 10
118.528
 20
143.699997
 30
0.0
 11
130.290634
 21
143.699997
 31
0.0
  0
LINE
  8
LY_1
  6
CONTINUOUS
 62
     3
  5
197
 10
131.290634
 20
146.599991
 30
0.0
 11
131.290634
 21
144.699997
 31
0.0
  0
LINE
  8
LY_1
  6
CONTINUOUS
 62
     3
  5
198
 10
145.376882
 20
140.500033
 30
0.0
 11
145.140677
 21
137.800049
 31
0.0
  0
LINE
  8
LY_1
  6
CONTINUOUS
 62
     3
  5
199
 10
115.948517
 20
151.299988
 30
0.0
 11
130.799744
 21
151.299988
 31
0.0
  0
LINE
  8
LY_1
  6
CONTINUOUS
 62
     3
  5
19A
 10
143.737778
 20
148.599991
 30
0.0
 11
144.623688
 21
148.599991
 31
0.0
  0
LINE
  8
LY_1
  6
CONTINUOUS
 62
     3
  5
19B
 10
144.720413
 20
145.0
 30
0.0
 11
146.623688
 21
145.0
 31
0.0
  0
LINE
  8
LY_1
  6
CONTINUOUS
 62
     3
  5
19C
 10
144.953583
 20
143.699997
 30
0.0
 11
145.623688
 21
143.699997
 31
0.0
  0
LINE
  8
LY_1
  6
CONTINUOUS
 62
     3
  5
19D
 10
146.623688
 20
146.599991
 30
0.0
 11
146.623688
 21
144.699997
 31
0.0
  0
LINE
  8
LY_1
  6
CONTINUOUS
 62
     3
  5
19E
 10
155.328013
 20
140.500018
 30
0.0
 11
155.091791
 21
137.800019
 31
0.0
  0
LINE
  8
LY_1
  6
CONTINUOUS
 62
     3
  5
19F
 10
65.328003
 20
140.5
 30
0.0
 11
155.328003
 21
140.5
 31
0.0
  0
LINE
  8
LY_1
  6
CONTINUOUS
 62
     3
  5
1A0
 10
119.354248
 20
130.800049
 30
0.0
 11
131.478587
 21
137.800046
 31
0.0
  0
LINE
  8
LY_1
  6
CONTINUOUS
 62
     3
  5
1A1
 10
119.721034
 20
137.800102
 30
0.0
 11
119.327983
 21
130.30011
 31
0.0
  0
LINE
  8
LY_1
  6
CONTINUOUS
 62
     3
  5
1A2
 10
65.56424
 20
137.799988
 30
0.0
 11
155.091797
 21
137.799988
 31
0.0
  0
LINE
  8
LY_1
  6
CONTINUOUS
 62
     3
  5
1A3
 10
105.078003
 20
130.299988
 30
0.0
 11
105.078003
 21
121.5
 31
0.0
  0
LINE
  8
LY_1
  6
CONTINUOUS
 62
     3
  5
1A4
 10
115.578003
 20
130.299988
 30
0.0
 11
115.578003
 21
121.5
 31
0.0
  0
LINE
  8
LY_1
  6
CONTINUOUS
 62
     3
  5
1A5
 10
97.828003
 20
106.0
 30
0.0
 11
122.828003
 21
106.0
 31
0.0
  0
LINE
  8
LY_1
  6
CONTINUOUS
 62
     3
  5
1A6
 10
97.828003
 20
121.5
 30
0.0
 11
122.828003
 21
121.5
 31
0.0
  0
LINE
  8
LY_1
  6
CONTINUOUS
 62
     3
  5
1A7
 10
101.328003
 20
130.299988
 30
0.0
 11
119.328003
 21
130.299988
 31
0.0
  0
LINE
  8
LY_1
  6
CONTINUOUS
 62
     3
  5
1A8
 10
-7.2
 20
146.799988
 30
0.0
 11
-7.2
 21
144.699997
 31
0.0
  0
LINE
  8
LY_1
  6
CONTINUOUS
 62
     3
  5
1A9
 10
-6.971369
 20
148.599991
 30
0.0
 11
-18.962616
 21
148.599991
 31
0.0
  0
LINE
  8
LY_1
  6
CONTINUOUS
 62
     3
  5
1AA
 10
-7.2
 20
145.0
 30
0.0
 11
-20.962616
 21
145.0
 31
0.0
  0
LINE
  8
LY_1
  6
CONTINUOUS
 62
     3
  5
1AB
 10
-8.2
 20
143.699997
 30
0.0
 11
-19.962616
 21
143.699997
 31
0.0
  0
LINE
  8
LY_1
  6
CONTINUOUS
 62
     3
  5
1AC
 10
-20.962616
 20
146.599991
 30
0.0
 11
-20.962616
 21
144.699997
 31
0.0
  0
LINE
  8
LY_1
  6
CONTINUOUS
 62
     3
  5
1AD
 10
-35.048828
 20
140.499995
 30
0.0
 11
-34.812607
 21
137.799982
 31
0.0
  0
LINE
  8
LY_1
  6
CONTINUOUS
 62
     3
  5
1AE
 10
-5.620498
 20
151.299988
 30
0.0
 11
-20.47171
 21
151.299988
 31
0.0
  0
LINE
  8
LY_1
  6
CONTINUOUS
 62
     3
  5
1AF
 10
-33.40976
 20
148.599991
 30
0.0
 11
-34.295685
 21
148.599991
 31
0.0
  0
LINE
  8
LY_1
  6
CONTINUOUS
 62
     3
  5
1B0
 10
-34.392395
 20
145.0
 30
0.0
 11
-36.295685
 21
145.0
 31
0.0
  0
LINE
  8
LY_1
  6
CONTINUOUS
 62
     3
  5
1B1
 10
-34.625565
 20
143.699997
 30
0.0
 11
-35.295685
 21
143.699997
 31
0.0
  0
LINE
  8
LY_1
  6
CONTINUOUS
 62
     3
  5
1B2
 10
-36.295685
 20
146.599991
 30
0.0
 11
-36.295685
 21
144.699997
 31
0.0
  0
LINE
  8
LY_1
  6
CONTINUOUS
 62
     3
  5
1B3
 10
-44.999984
 20
140.499999
 30
0.0
 11
-44.763777
 21
137.799984
 31
0.0
  0
LINE
  8
LY_1
  6
CONTINUOUS
 62
     3
  5
1B4
 10
-9.026208
 20
130.799998
 30
0.0
 11
-21.150528
 21
137.799983
 31
0.0
  0
LINE
  8
LY_1
  6
CONTINUOUS
 62
     3
  5
1B5
 10
-9.393058
 20
137.79999
 30
0.0
 11
-8.999998
 21
130.299984
 31
0.0
  0
LINE
  8
LY_1
  6
CONTINUOUS
 62
     3
  5
1B6
 10
7.2
 20
146.799988
 30
0.0
 11
7.2
 21
144.699997
 31
0.0
  0
LINE
  8
LY_1
  6
CONTINUOUS
 62
     3
  5
1B7
 10
6.971369
 20
148.599991
 30
0.0
 11
18.962616
 21
148.599991
 31
0.0
  0
LINE
  8
LY_1
  6
CONTINUOUS
 62
     3
  5
1B8
 10
7.2
 20
145.0
 30
0.0
 11
20.962616
 21
145.0
 31
0.0
  0
LINE
  8
LY_1
  6
CONTINUOUS
 62
     3
  5
1B9
 10
8.2
 20
143.699997
 30
0.0
 11
19.962616
 21
143.699997
 31
0.0
  0
LINE
  8
LY_1
  6
CONTINUOUS
 62
     3
  5
1BA
 10
20.962616
 20
146.599991
 30
0.0
 11
20.962616
 21
144.699997
 31
0.0
  0
LINE
  8
LY_1
  6
CONTINUOUS
 62
     3
  5
1BB
 10
35.048828
 20
140.499995
 30
0.0
 11
34.812607
 21
137.799982
 31
0.0
  0
LINE
  8
LY_1
  6
CONTINUOUS
 62
     3
  5
1BC
 10
5.620498
 20
151.299988
 30
0.0
 11
20.47171
 21
151.299988
 31
0.0
  0
LINE
  8
LY_1
  6
CONTINUOUS
 62
     3
  5
1BD
 10
33.40976
 20
148.599991
 30
0.0
 11
34.295685
 21
148.599991
 31
0.0
  0
LINE
  8
LY_1
  6
CONTINUOUS
 62
     3
  5
1BE
 10
34.392395
 20
145.0
 30
0.0
 11
36.295685
 21
145.0
 31
0.0
  0
LINE
  8
LY_1
  6
CONTINUOUS
 62
     3
  5
1BF
 10
34.625565
 20
143.699997
 30
0.0
 11
35.295685
 21
143.699997
 31
0.0
  0
LINE
  8
LY_1
  6
CONTINUOUS
 62
     3
  5
1C0
 10
36.295685
 20
146.599991
 30
0.0
 11
36.295685
 21
144.699997
 31
0.0
  0
LINE
  8
LY_1
  6
CENTER
 62
   110
  5
1C1
 10
0.0
 20
283.939087
 30
0.0
 11
0.0
 21
183.939041
 31
0.0
  0
LINE
  8
LY_1
  6
CONTINUOUS
 62
     3
  5
1C2
 10
-3.752798
 20
227.439101
 30
0.0
 11
-7.50557
 21
233.939087
 31
0.0
  0
LINE
  8
LY_1
  6
CONTINUOUS
 62
     3
  5
1C3
 10
7.50553
 20
233.939093
 30
0.0
 11
3.75276
 21
240.43908
 31
0.0
  0
LINE
  8
LY_1
  6
CONTINUOUS
 62
     3
  5
1C4
 10
-7.50553
 20
233.939093
 30
0.0
 11
-3.75276
 21
240.43908
 31
0.0
  0
LINE
  8
LY_1
  6
CONTINUOUS
 62
     3
  5
1C5
 10
3.752798
 20
227.439101
 30
0.0
 11
7.50557
 21
233.939087
 31
0.0
  0
LINE
  8
LY_1
  6
CONTINUOUS
 62
     3
  5
1C6
 10
-3.752776
 20
240.439041
 30
0.0
 11
3.752776
 21
240.439041
 31
0.0
  0
LINE
  8
LY_1
  6
CONTINUOUS
 62
     3
  5
1C7
 10
-3.752776
 20
227.439041
 30
0.0
 11
3.752776
 21
227.439041
 31
0.0
  0
LINE
  8
LY_1
  6
CONTINUOUS
 62
     3
  5
1C8
 10
-6.009685
 20
220.195636
 30
0.0
 11
-5.199981
 21
206.52801
 31
0.0
  0
LINE
  8
LY_1
  6
CONTINUOUS
 62
     3
  5
1C9
 10
6.009707
 20
220.195648
 30
0.0
 11
5.200004
 21
206.528007
 31
0.0
  0
LINE
  8
LY_1
  6
CONTINUOUS
 62
     3
  5
1CA
 10
-13.743498
 20
239.948838
 30
0.0
 11
-27.411119
 21
239.139146
 31
0.0
  0
LINE
  8
LY_1
  6
CONTINUOUS
 62
     3
  5
1CB
 10
-13.743433
 20
227.929437
 30
0.0
 11
-27.411059
 21
228.739145
 31
0.0
  0
LINE
  8
LY_1
  6
CONTINUOUS
 62
     3
  5
1CC
 10
6.009623
 20
247.682625
 30
0.0
 11
5.199917
 21
261.350296
 31
0.0
  0
LINE
  8
LY_1
  6
CONTINUOUS
 62
     3
  5
1CD
 10
-6.009639
 20
247.682628
 30
0.0
 11
-5.199932
 21
261.350299
 31
0.0
  0
LINE
  8
LY_1
  6
CONTINUOUS
 62
     3
  5
1CE
 10
13.74343
 20
227.929438
 30
0.0
 11
27.411059
 21
228.739161
 31
0.0
  0
LINE
  8
LY_1
  6
CONTINUOUS
 62
     3
  5
1CF
 10
13.743493
 20
239.948836
 30
0.0
 11
27.411119
 21
239.139159
 31
0.0
  0
LINE
  8
LY_1
  6
CONTINUOUS
 62
     3
  5
1D0
 10
33.342072
 20
227.289032
 30
0.0
 11
36.295929
 21
227.289032
 31
0.0
  0
LINE
  8
LY_1
  6
CONTINUOUS
 62
     3
  5
1D1
 10
28.27866
 20
215.06483
 30
0.0
 11
30.367372
 21
212.976135
 31
0.0
  0
LINE
  8
LY_1
  6
CONTINUOUS
 62
     3
  5
1D2
 10
18.874117
 20
205.660342
 30
0.0
 11
20.962836
 21
203.571654
 31
0.0
  0
LINE
  8
LY_1
  6
CONTINUOUS
 62
     3
  5
1D3
 10
6.649998
 20
200.596954
 30
0.0
 11
6.649998
 21
197.643097
 31
0.0
  0
LINE
  8
LY_1
  6
CONTINUOUS
 62
     3
  5
1D4
 10
-6.65001
 20
200.596985
 30
0.0
 11
-6.65001
 21
197.643112
 31
0.0
  0
LINE
  8
LY_1
  6
CONTINUOUS
 62
     3
  5
1D5
 10
-18.874148
 20
205.660329
 30
0.0
 11
-20.962833
 21
203.571629
 31
0.0
  0
LINE
  8
LY_1
  6
CONTINUOUS
 62
     3
  5
1D6
 10
-28.278649
 20
215.064869
 30
0.0
 11
-30.367342
 21
212.976176
 31
0.0
  0
LINE
  8
LY_1
  6
CONTINUOUS
 62
     3
  5
1D7
 10
-33.342072
 20
227.289047
 30
0.0
 11
-36.295929
 21
227.289047
 31
0.0
  0
LINE
  8
LY_1
  6
CONTINUOUS
 62
     3
  5
1D8
 10
-33.342041
 20
240.58905
 30
0.0
 11
-36.295914
 21
240.58905
 31
0.0
  0
LINE
  8
LY_1
  6
CONTINUOUS
 62
     3
  5
1D9
 10
-28.278649
 20
252.813145
 30
0.0
 11
-30.367331
 21
254.901826
 31
0.0
  0
LINE
  8
LY_1
  6
CONTINUOUS
 62
     3
  5
1DA
 10
-18.874121
 20
262.217669
 30
0.0
 11
-20.962838
 21
264.306035
 31
0.0
  0
LINE
  8
LY_1
  6
CONTINUOUS
 62
     3
  5
1DB
 10
-6.649989
 20
267.281128
 30
0.0
 11
-6.649989
 21
270.234741
 31
0.0
  0
LINE
  8
LY_1
  6
CONTINUOUS
 62
     3
  5
1DC
 10
6.650086
 20
267.281128
 30
0.0
 11
6.650086
 21
270.234741
 31
0.0
  0
LINE
  8
LY_1
  6
CONTINUOUS
 62
     3
  5
1DD
 10
18.874053
 20
262.217565
 30
0.0
 11
20.962738
 21
264.305792
 31
0.0
  0
LINE
  8
LY_1
  6
CONTINUOUS
 62
     3
  5
1DE
 10
28.278587
 20
252.813055
 30
0.0
 11
30.367257
 21
254.901771
 31
0.0
  0
LINE
  8
LY_1
  6
CONTINUOUS
 62
     3
  5
1DF
 10
33.341965
 20
240.589035
 30
0.0
 11
36.295807
 21
240.589035
 31
0.0
  0
LINE
  8
LY_1
  6
CENTER
 62
   110
  5
1E0
 10
-50.0
 20
233.939041
 30
0.0
 11
50.0
 21
233.939041
 31
0.0
  0
LINE
  8
LY_1
  6
CONTINUOUS
 62
     3
  5
1E1
 10
44.999984
 20
140.499999
 30
0.0
 11
44.763777
 21
137.799984
 31
0.0
  0
LINE
  8
LY_1
  6
CONTINUOUS
 62
     3
  5
1E2
 10
-45.0
 20
140.5
 30
0.0
 11
45.0
 21
140.5
 31
0.0
  0
LINE
  8
LY_1
  6
CONTINUOUS
 62
     3
  5
1E3
 10
9.026208
 20
130.799998
 30
0.0
 11
21.150528
 21
137.799983
 31
0.0
  0
LINE
  8
LY_1
  6
CONTINUOUS
 62
     3
  5
1E4
 10
9.393058
 20
137.79999
 30
0.0
 11
8.999998
 21
130.299984
 31
0.0
  0
LINE
  8
LY_1
  6
CONTINUOUS
 62
     3
  5
1E5
 10
-44.763779
 20
137.799988
 30
0.0
 11
44.763779
 21
137.799988
 31
0.0
  0
LINE
  8
LY_1
  6
CONTINUOUS
 62
     3
  5
1E6
 10
-5.25
 20
130.299988
 30
0.0
 11
-5.25
 21
121.5
 31
0.0
  0
LINE
  8
LY_1
  6
CONTINUOUS
 62
     3
  5
1E7
 10
5.25
 20
130.299988
 30
0.0
 11
5.25
 21
121.5
 31
0.0
  0
LINE
  8
LY_1
  6
CONTINUOUS
 62
     3
  5
1E8
 10
13.75
 20
121.5
 30
0.0
 11
13.75
 21
106.0
 31
0.0
  0
LINE
  8
LY_1
  6
CONTINUOUS
 62
     3
  5
1E9
 10
-13.75
 20
106.0
 30
0.0
 11
13.75
 21
106.0
 31
0.0
  0
LINE
  8
LY_1
  6
CONTINUOUS
 62
     3
  5
1EA
 10
-13.75
 20
121.5
 30
0.0
 11
-13.75
 21
106.0
 31
0.0
  0
LINE
  8
LY_1
  6
CONTINUOUS
 62
     3
  5
1EB
 10
-13.75
 20
121.5
 30
0.0
 11
13.75
 21
121.5
 31
0.0
  0
LINE
  8
LY_1
  6
CONTINUOUS
 62
     3
  5
1EC
 10
-9.0
 20
130.299988
 30
0.0
 11
9.0
 21
130.299988
 31
0.0
  0
LINE
  8
LY_1
  6
CONTINUOUS
 62
     3
  5
1ED
 10
-19.553711
 20
84.574171
 30
0.0
 11
-28.0
 21
81.499998
 31
0.0
  0
LINE
  8
LY_1
  6
CONTINUOUS
 62
     3
  5
1EE
 10
-27.999999
 20
73.0
 30
0.0
 11
-35.499999
 21
71.789734
 31
0.0
  0
LINE
  8
LY_1
  6
CONTINUOUS
 62
     3
  5
1EF
 10
-28.0
 20
81.5
 30
0.0
 11
-28.0
 21
73.0
 31
0.0
  0
LINE
  8
LY_1
  6
CONTINUOUS
 62
     3
  5
1F0
 10
-11.0
 20
106.0
 30
0.0
 11
-11.0
 21
96.790192
 31
0.0
  0
LINE
  8
LY_1
  6
CONTINUOUS
 62
     3
  5
1F1
 10
19.553711
 20
84.574171
 30
0.0
 11
28.0
 21
81.499998
 31
0.0
  0
LINE
  8
LY_1
  6
CONTINUOUS
 62
     3
  5
1F2
 10
27.999999
 20
73.0
 30
0.0
 11
35.499999
 21
71.789734
 31
0.0
  0
LINE
  8
LY_1
  6
CONTINUOUS
 62
     3
  5
1F3
 10
28.0
 20
81.5
 30
0.0
 11
28.0
 21
73.0
 31
0.0
  0
LINE
  8
LY_1
  6
CONTINUOUS
 62
     3
  5
1F4
 10
11.0
 20
106.0
 30
0.0
 11
11.0
 21
96.790192
 31
0.0
  0
LINE
  8
LY_1
  6
CONTINUOUS
 62
     3
  5
1F5
 10
-11.0
 20
99.5
 30
0.0
 11
11.0
 21
99.5
 31
0.0
  0
LINE
  8
LY_1
  6
CONTINUOUS
 62
     3
  5
1F6
 10
-28.0
 20
81.5
 30
0.0
 11
28.0
 21
81.5
 31
0.0
  0
LINE
  8
LY_1
  6
CONTINUOUS
 62
     3
  5
1F7
 10
-28.0
 20
73.0
 30
0.0
 11
28.0
 21
73.0
 31
0.0
  0
LINE
  8
LY_1
  6
CONTINUOUS
 62
     3
  5
1F8
 10
-35.5
 20
68.0
 30
0.0
 11
35.5
 21
68.0
 31
0.0
  0
LINE
  8
LY_1
  6
CENTER
 62
   110
  5
1F9
 10
0.0
 20
159.0
 30
0.0
 11
0.0
 21
-39.5
 31
0.0
  0
LINE
  8
LY_1
  6
CONTINUOUS
 62
     3
  5
1FA
 10
2.988785
 20
11.888213
 30
0.0
 11
2.771744
 21
11.888213
 31
0.0
  0
LINE
  8
LY_1
  6
CONTINUOUS
 62
     3
  5
1FB
 10
2.988448
 20
22.826981
 30
0.0
 11
2.771468
 21
22.826981
 31
0.0
  0
LINE
  8
LY_1
  6
CONTINUOUS
 62
     3
  5
1FC
 10
2.988448
 20
22.826981
 30
0.0
 11
2.988448
 21
21.196976
 31
0.0
  0
LINE
  8
LY_1
  6
CONTINUOUS
 62
     3
  5
1FD
 10
1.734435
 20
19.030838
 30
0.0
 11
1.734435
 21
16.64946
 31
0.0
  0
LINE
  8
LY_1
  6
CONTINUOUS
 62
     3
  5
1FE
 10
1.734435
 20
19.030838
 30
0.0
 11
-2.771683
 21
19.030838
 31
0.0
  0
LINE
  8
LY_1
  6
CONTINUOUS
 62
     3
  5
1FF
 10
2.988448
 20
21.196976
 30
0.0
 11
-2.771683
 21
21.196976
 31
0.0
  0
LINE
  8
LY_1
  6
CONTINUOUS
 62
     3
  5
200
 10
3.854369
 20
23.910004
 30
0.0
 11
3.854369
 21
16.64946
 31
0.0
  0
LINE
  8
LY_1
  6
CONTINUOUS
 62
     3
  5
201
 10
2.988785
 20
11.888213
 30
0.0
 11
2.988785
 21
7.699019
 31
0.0
  0
LINE
  8
LY_1
  6
CONTINUOUS
 62
     3
  5
202
 10
-3.85472
 20
13.388382
 30
0.0
 11
-3.85472
 21
6.060013
 31
0.0
  0
LINE
  8
LY_1
  6
CONTINUOUS
 62
     3
  5
203
 10
-1.734618
 20
6.060013
 30
0.0
 11
-1.734618
 21
10.112456
 31
0.0
  0
LINE
  8
LY_1
  6
CONTINUOUS
 62
     3
  5
204
 10
1.962316
 20
5.412583
 30
0.0
 11
-1.665876
 21
10.136823
 31
0.0
  0
LINE
  8
LY_1
  6
CONTINUOUS
 62
     3
  5
205
 10
2.919917
 20
7.674671
 30
0.0
 11
-1.961949
 21
14.031309
 31
0.0
  0
LINE
  8
LY_1
  6
CONTINUOUS
 62
     3
  5
206
 10
3.854752
 20
12.971268
 30
0.0
 11
3.854752
 21
6.055449
 31
0.0
  0
LINE
  8
LY_1
  6
CONTINUOUS
 62
     3
  5
207
 10
-2.771683
 20
28.709198
 30
0.0
 11
2.771744
 21
28.709198
 31
0.0
  0
LINE
  8
LY_1
  6
CONTINUOUS
 62
     3
  5
208
 10
2.771744
 20
26.543091
 30
0.0
 11
-2.771683
 21
26.543091
 31
0.0
  0
LINE
  8
LY_1
  6
CONTINUOUS
 62
     3
  5
209
 10
0.645653
 20
34.489731
 30
0.0
 11
2.208903
 21
32.194564
 31
0.0
  0
LINE
  8
LY_1
  6
CONTINUOUS
 62
     3
  5
20A
 10
0.645633
 20
34.489747
 30
0.0
 11
-1.915045
 21
30.730179
 31
0.0
  0
LINE
  8
LY_1
  6
CONTINUOUS
 62
     3
  5
20B
 10
0.031478
 20
37.287446
 30
0.0
 11
3.631872
 21
32.001344
 31
0.0
  0
LINE
  8
LY_1
  6
CONTINUOUS
 62
     3
  5
20C
 10
-0.031699
 20
37.287384
 30
0.0
 11
-3.67938
 21
31.931884
 31
0.0
  0
LINE
  8
LY_1
  6
CONTINUOUS
 62
     3
  5
20D
 10
2.771819
 20
37.334091
 30
0.0
 11
-2.77179
 21
37.334091
 31
0.0
  0
LINE
  8
LY_1
  6
CONTINUOUS
 62
     3
  5
20E
 10
2.771819
 20
39.500031
 30
0.0
 11
-2.77179
 21
39.500031
 31
0.0
  0
LINE
  8
LY_1
  6
CONTINUOUS
 62
     3
  5
20F
 10
-18.5
 20
52.0
 30
0.0
 11
-18.5
 21
20.596436
 31
0.0
  0
LINE
  8
LY_1
  6
CONTINUOUS
 62
     3
  5
210
 10
-22.653244
 20
-35.5
 30
0.0
 11
22.653244
 21
-35.5
 31
0.0
  0
LINE
  8
LY_1
  6
CONTINUOUS
 62
     3
  5
211
 10
112.828003
 20
50.5
 30
0.0
 11
112.828003
 21
37.299988
 31
0.0
  0
LINE
  8
LY_1
  6
CONTINUOUS
 62
     3
  5
212
 10
107.828003
 20
50.5
 30
0.0
 11
107.828003
 21
37.299988
 31
0.0
  0
LINE
  8
LY_1
  6
CONTINUOUS
 62
     3
  5
213
 10
-30.5
 20
50.88118
 30
0.0
 11
-30.5
 21
40.799988
 31
0.0
  0
LINE
  8
LY_1
  6
CONTINUOUS
 62
     3
  5
214
 10
30.5
 20
50.88118
 30
0.0
 11
30.5
 21
40.799988
 31
0.0
  0
LINE
  8
LY_1
  6
CONTINUOUS
 62
     3
  5
215
 10
-27.84668
 20
199.936066
 30
0.0
 11
-36.0
 21
199.936066
 31
0.0
  0
LINE
  8
LY_1
  6
CONTINUOUS
 62
     3
  5
216
 10
-36.0
 20
199.936066
 30
0.0
 11
-36.0
 21
215.237488
 31
0.0
  0
LINE
  8
LY_1
  6
CONTINUOUS
 62
     3
  5
217
 10
27.84668
 20
199.936066
 30
0.0
 11
36.0
 21
199.936066
 31
0.0
  0
LINE
  8
LY_1
  6
CONTINUOUS
 62
     3
  5
218
 10
36.0
 20
199.936066
 30
0.0
 11
36.0
 21
215.237488
 31
0.0
  0
LINE
  8
LY_1
  6
CONTINUOUS
 62
     3
  5
219
 10
-27.84668
 20
267.935791
 30
0.0
 11
-36.0
 21
267.935791
 31
0.0
  0
LINE
  8
LY_1
  6
CONTINUOUS
 62
     3
  5
21A
 10
-36.0
 20
267.935791
 30
0.0
 11
-36.0
 21
252.634598
 31
0.0
  0
LINE
  8
LY_1
  6
CONTINUOUS
 62
     3
  5
21B
 10
27.84668
 20
267.935791
 30
0.0
 11
36.0
 21
267.935791
 31
0.0
  0
LINE
  8
LY_1
  6
CONTINUOUS
 62
     3
  5
21C
 10
36.0
 20
267.935791
 30
0.0
 11
36.0
 21
252.634598
 31
0.0
  0
LINE
  8
LY_1
  6
CONTINUOUS
 62
     3
  5
21D
 10
-25.0
 20
19.629883
 30
0.0
 11
-36.0
 21
19.629883
 31
0.0
  0
LINE
  8
LY_1
  6
CONTINUOUS
 62
     3
  5
21E
 10
25.0
 20
19.629883
 30
0.0
 11
36.0
 21
19.629883
 31
0.0
  0
LINE
  8
LY_1
  6
CONTINUOUS
 62
     3
  5
21F
 10
-25.0
 20
-19.629883
 30
0.0
 11
-36.0
 21
-19.629883
 31
0.0
  0
LINE
  8
LY_1
  6
CONTINUOUS
 62
     3
  5
220
 10
25.0
 20
-19.629883
 30
0.0
 11
36.0
 21
-19.629883
 31
0.0
  0
LINE
  8
LY_1
  6
CENTER
 62
   110
  5
221
 10
71.131447
 20
0.0
 30
0.0
 11
151.281174
 21
0.0
 31
0.0
  0
LINE
  8
LY_1
  6
CONTINUOUS
 62
     3
  5
222
 10
-20.499999
 20
47.128417
 30
0.0
 11
-34.000001
 21
54.922638
 31
0.0
  0
LINE
  8
LY_1
  6
CONTINUOUS
 62
     3
  5
223
 10
-35.0
 20
64.0
 30
0.0
 11
-35.0
 21
56.654694
 31
0.0
  0
LINE
  8
LY_1
  6
CONTINUOUS
 62
     3
  5
224
 10
-22.5
 20
37.299988
 30
0.0
 11
-36.0
 21
37.299988
 31
0.0
  0
LINE
  8
LY_1
  6
CONTINUOUS
 62
     3
  5
225
 10
-25.0
 20
37.299988
 30
0.0
 11
-25.0
 21
-38.099991
 31
0.0
  0
LINE
  8
LY_1
  6
CONTINUOUS
 62
     3
  5
226
 10
-36.0
 20
37.299988
 30
0.0
 11
-36.0
 21
-38.099991
 31
0.0
  0
LINE
  8
LY_1
  6
CONTINUOUS
 62
     3
  5
227
 10
75.328003
 20
64.0
 30
0.0
 11
75.328003
 21
56.654694
 31
0.0
  0
LINE
  8
LY_1
  6
CONTINUOUS
 62
     3
  5
228
 10
77.857284
 20
51.795211
 30
0.0
 11
78.128921
 21
20.669739
 31
0.0
  0
LINE
  8
LY_1
  6
CONTINUOUS
 62
     3
  5
229
 10
106.933487
 20
37.299988
 30
0.0
 11
113.722519
 21
37.299988
 31
0.0
  0
LINE
  8
LY_1
  6
CONTINUOUS
 62
     3
  5
22A
 10
74.828003
 20
70.882065
 30
0.0
 11
74.828003
 21
64.0
 31
0.0
  0
LINE
  8
LY_1
  6
CONTINUOUS
 62
     3
  5
22B
 10
76.370575
 20
55.5
 30
0.0
 11
144.285431
 21
55.5
 31
0.0
  0
LINE
  8
LY_1
  6
CONTINUOUS
 62
     3
  5
22C
 10
145.328003
 20
64.0
 30
0.0
 11
145.328003
 21
56.654694
 31
0.0
  0
LINE
  8
LY_1
  6
CONTINUOUS
 62
     3
  5
22D
 10
145.828003
 20
70.88205
 30
0.0
 11
145.828003
 21
64.0
 31
0.0
  0
LINE
  8
LY_1
  6
CONTINUOUS
 62
     3
  5
22E
 10
74.828003
 20
64.0
 30
0.0
 11
145.828003
 21
64.0
 31
0.0
  0
LINE
  8
LY_1
  6
CONTINUOUS
 62
     3
  5
22F
 10
74.828003
 20
68.0
 30
0.0
 11
145.828003
 21
68.0
 31
0.0
  0
LINE
  8
LY_1
  6
CONTINUOUS
 62
     3
  5
230
 10
142.798634
 20
51.795104
 30
0.0
 11
142.527012
 21
20.669632
 31
0.0
  0
LINE
  8
LY_1
  6
CONTINUOUS
 62
     3
  5
231
 10
76.328015
 20
19.629898
 30
0.0
 11
106.933499
 21
37.299988
 31
0.0
  0
LINE
  8
LY_1
  6
CONTINUOUS
 62
     3
  5
232
 10
112.163584
 20
-38.200011
 30
0.0
 11
144.328016
 21
-19.629878
 31
0.0
  0
LINE
  8
LY_1
  6
CONTINUOUS
 62
     3
  5
233
 10
113.722532
 20
37.299993
 30
0.0
 11
144.328017
 21
19.629888
 31
0.0
  0
LINE
  8
LY_1
  6
CONTINUOUS
 62
     3
  5
234
 10
76.328014
 20
-19.629898
 30
0.0
 11
108.492412
 21
-38.200012
 31
0.0
  0
LINE
  8
LY_1
  6
CONTINUOUS
 62
     3
  5
235
 10
144.328003
 20
19.629898
 30
0.0
 11
144.328003
 21
-19.629883
 31
0.0
  0
LINE
  8
LY_1
  6
CONTINUOUS
 62
     3
  5
236
 10
76.328003
 20
19.629898
 30
0.0
 11
76.328003
 21
-19.629883
 31
0.0
  0
LINE
  8
LY_1
  6
CONTINUOUS
 62
     3
  5
237
 10
-35.5
 20
71.63002
 30
0.0
 11
-35.5
 21
64.0
 31
0.0
  0
LINE
  8
LY_1
  6
CONTINUOUS
 62
     3
  5
238
 10
18.5
 20
52.0
 30
0.0
 11
18.5
 21
20.596436
 31
0.0
  0
LINE
  8
LY_1
  6
CONTINUOUS
 62
     3
  5
239
 10
20.499999
 20
47.128417
 30
0.0
 11
34.000001
 21
54.922638
 31
0.0
  0
LINE
  8
LY_1
  6
CONTINUOUS
 62
     3
  5
23A
 10
-33.957428
 20
55.5
 30
0.0
 11
33.957428
 21
55.5
 31
0.0
  0
LINE
  8
LY_1
  6
CONTINUOUS
 62
     3
  5
23B
 10
35.0
 20
64.0
 30
0.0
 11
35.0
 21
56.654694
 31
0.0
  0
LINE
  8
LY_1
  6
CONTINUOUS
 62
     3
  5
23C
 10
35.5
 20
71.63002
 30
0.0
 11
35.5
 21
64.0
 31
0.0
  0
LINE
  8
LY_1
  6
CONTINUOUS
 62
     3
  5
23D
 10
22.5
 20
37.299988
 30
0.0
 11
36.0
 21
37.299988
 31
0.0
  0
LINE
  8
LY_1
  6
CONTINUOUS
 62
     3
  5
23E
 10
-35.5
 20
64.0
 30
0.0
 11
35.5
 21
64.0
 31
0.0
  0
LINE
  8
LY_1
  6
CONTINUOUS
 62
     3
  5
23F
 10
-35.5
 20
68.0
 30
0.0
 11
35.5
 21
68.0
 31
0.0
  0
LINE
  8
LY_1
  6
CONTINUOUS
 62
     3
  5
240
 10
-13.73863
 20
-31.5
 30
0.0
 11
-14.803846
 21
-31.5
 31
0.0
  0
LINE
  8
LY_1
  6
CONTINUOUS
 62
     3
  5
241
 10
-20.0
 20
-32.5
 30
0.0
 11
-21.561356
 21
-32.5
 31
0.0
  0
LINE
  8
LY_1
  6
CONTINUOUS
 62
     3
  5
242
 10
-23.44072
 20
-33.815932
 30
0.0
 11
-25.0
 21
-38.099989
 31
0.0
  0
LINE
  8
LY_1
  6
CONTINUOUS
 62
     3
  5
243
 10
-25.0
 20
-38.099991
 30
0.0
 11
-36.0
 21
-38.099991
 31
0.0
  0
LINE
  8
LY_1
  6
CONTINUOUS
 62
     3
  5
244
 10
13.73863
 20
-31.5
 30
0.0
 11
14.803846
 21
-31.5
 31
0.0
  0
LINE
  8
LY_1
  6
CONTINUOUS
 62
     3
  5
245
 10
20.0
 20
-32.5
 30
0.0
 11
21.561356
 21
-32.5
 31
0.0
  0
LINE
  8
LY_1
  6
CONTINUOUS
 62
     3
  5
246
 10
23.44072
 20
-33.815932
 30
0.0
 11
25.0
 21
-38.099989
 31
0.0
  0
LINE
  8
LY_1
  6
CONTINUOUS
 62
     3
  5
247
 10
25.0
 20
-38.099991
 30
0.0
 11
36.0
 21
-38.099991
 31
0.0
  0
LINE
  8
LY_1
  6
CONTINUOUS
 62
     3
  5
248
 10
25.0
 20
37.299988
 30
0.0
 11
25.0
 21
-38.099991
 31
0.0
  0
LINE
  8
LY_1
  6
CONTINUOUS
 62
     3
  5
249
 10
36.0
 20
37.299988
 30
0.0
 11
36.0
 21
-38.099991
 31
0.0
  0
LINE
  8
LY_1
  6
CENTER
 62
   110
  5
24A
 10
-41.0
 20
0.0
 30
0.0
 11
41.0
 21
0.0
 31
0.0
  0
ENDSEC
  0
EOF
