  0
SECTION
  2
HEADER
  9
$ACADVER
  1
AC1009
  9
$DWGCODEPAGE
  3
dos932
  9
$INSBASE
 10
0.0
 20
0.0
 30
0.0
  9
$EXTMIN
 10
-55.0
 20
-93.264697
 30
0.0
  9
$EXTMAX
 10
178.474548
 20
325.725586
 30
0.0
  9
$LIMMIN
 10
-55.0
 20
-93.264697
  9
$LIMMAX
 10
178.474548
 20
325.725586
  9
$ORTHOMODE
 70
     0
  9
$REGENMODE
 70
     1
  9
$FILLMODE
 70
     1
  9
$QTEXTMODE
 70
     0
  9
$MIRRTEXT
 70
     1
  9
$DRAGMODE
 70
     2
  9
$LTSCALE
 40
1.0
  9
$OSMODE
 70
     0
  9
$ATTMODE
 70
     1
  9
$TEXTSIZE
 40
3.3
  9
$TRACEWID
 40
0.05
  9
$TEXTSTYLE
  7
MX_NOTE_STANDARD
  9
$CLAYER
  8
LY_1
  9
$CELTYPE
  6
CONTINUOUS
  9
$CECOLOR
 62
   256
  9
$DIMSCALE
 40
1.0
  9
$DIMASZ
 40
2.5
  9
$DIMEXO
 40
0.0
  9
$DIMDLI
 40
3.75
  9
$DIMRND
 40
0.0
  9
$DIMDLE
 40
0.0
  9
$DIMEXE
 40
1.1938
  9
$DIMTP
 40
0.0
  9
$DIMTM
 40
0.0
  9
$DIMTXT
 40
3.3
  9
$DIMCEN
 40
2.5
  9
$DIMTSZ
 40
0.0
  9
$DIMTOL
 70
     0
  9
$DIMLIM
 70
     0
  9
$DIMTIH
 70
     0
  9
$DIMTOH
 70
     0
  9
$DIMSE1
 70
     0
  9
$DIMSE2
 70
     0
  9
$DIMTAD
 70
     1
  9
$DIMZIN
 70
     8
  9
$DIMBLK
  1

  9
$DIMASO
 70
     1
  9
$DIMSHO
 70
     1
  9
$DIMPOST
  1

  9
$DIMAPOST
  1

  9
$DIMALT
 70
     0
  9
$DIMALTD
 70
     4
  9
$DIMALTF
 40
0.03937
  9
$DIMLFAC
 40
1.0
  9
$DIMTOFL
 70
     1
  9
$DIMTVP
 40
0.0
  9
$DIMTIX
 70
     0
  9
$DIMSOXD
 70
     0
  9
$DIMSAH
 70
     1
  9
$DIMBLK1
  1
_OPEN30
  9
$DIMBLK2
  1
_OPEN30
  9
$DIMSTYLE
  2
MXDIMSTYLE
  9
$DIMCLRD
 70
     0
  9
$DIMCLRE
 70
     0
  9
$DIMCLRT
 70
     0
  9
$DIMTFAC
 40
1.0
  9
$DIMGAP
 40
1.0
  9
$LUNITS
 70
     2
  9
$LUPREC
 70
     4
  9
$AXISMODE
 70
     0
  9
$AXISUNIT
 10
0.0
 20
0.0
  9
$SKETCHINC
 40
0.1
  9
$FILLETRAD
 40
0.0
  9
$AUNITS
 70
     0
  9
$AUPREC
 70
     0
  9
$MENU
  1
acad
  9
$ELEVATION
 40
0.0
  9
$PELEVATION
 40
0.0
  9
$THICKNESS
 40
0.0
  9
$LIMCHECK
 70
     0
  9
$BLIPMODE
 70
     1
  9
$CHAMFERA
 40
0.0
  9
$CHAMFERB
 40
0.0
  9
$SKPOLY
 70
     0
  9
$TDCREATE
 40
2454901.550185185
  9
$TDUPDATE
 40
2454901.550185185
  9
$TDINDWG
 40
0.0000000000
  9
$TDUSRTIMER
 40
0.0000000000
  9
$USRTIMER
 70
     1
  9
$ANGBASE
 50
0.0
  9
$ANGDIR
 70
     0
  9
$PDMODE
 70
     0
  9
$PDSIZE
 40
0.0
  9
$PLINEWID
 40
0.0
  9
$COORDS
 70
     1
  9
$SPLFRAME
 70
     0
  9
$SPLINETYPE
 70
     6
  9
$SPLINESEGS
 70
     8
  9
$ATTDIA
 70
     0
  9
$ATTREQ
 70
     1
  9
$HANDLING
 70
     1
  9
$HANDSEED
  5
2A6
  9
$SURFTAB1
 70
     6
  9
$SURFTAB2
 70
     6
  9
$SURFTYPE
 70
     6
  9
$SURFU
 70
     6
  9
$SURFV
 70
     6
  9
$UCSNAME
  2

  9
$UCSORG
 10
0.0
 20
0.0
 30
0.0
  9
$UCSXDIR
 10
1.0
 20
0.0
 30
0.0
  9
$UCSYDIR
 10
0.0
 20
1.0
 30
0.0
  9
$PUCSNAME
  2

  9
$PUCSORG
 10
0.0
 20
0.0
 30
0.0
  9
$PUCSXDIR
 10
1.0
 20
0.0
 30
0.0
  9
$PUCSYDIR
 10
0.0
 20
1.0
 30
0.0
  9
$USERI1
 70
     0
  9
$USERI2
 70
     0
  9
$USERI3
 70
     0
  9
$USERI4
 70
     0
  9
$USERI5
 70
     0
  9
$USERR1
 40
0.0
  9
$USERR2
 40
0.0
  9
$USERR3
 40
0.0
  9
$USERR4
 40
0.0
  9
$USERR5
 40
0.0
  9
$WORLDVIEW
 70
     1
  9
$SHADEDGE
 70
     3
  9
$SHADEDIF
 70
    70
  9
$TILEMODE
 70
     1
  9
$MAXACTVP
 70
    16
  9
$PINSBASE
 10
0.0
 20
0.0
 30
0.0
  9
$PLIMCHECK
 70
     0
  9
$PEXTMIN
 10
1.000000E+20
 20
1.000000E+20
 30
1.000000E+20
  9
$PEXTMAX
 10
-1.000000E+20
 20
-1.000000E+20
 30
-1.000000E+20
  9
$PLIMMIN
 10
0.0
 20
0.0
  9
$PLIMMAX
 10
12.0
 20
9.0
  9
$UNITMODE
 70
     0
  9
$VISRETAIN
 70
     0
  9
$PLINEGEN
 70
     1
  9
$PSLTSCALE
 70
     0
  9
$TREEDEPTH
 70
  3020
  0
ENDSEC
  0
SECTION
  2
TABLES
  0
TABLE
  2
VPORT
 70
     1
  0
VPORT
  2
*ACTIVE
 70
     0
 10
0.0
 20
0.0
 11
1.0
 21
1.0
 12
61.737274
 22
116.230445
 13
0.0
 23
0.0
 14
1.0
 24
1.0
 15
0.0
 25
0.0
 16
0.0
 26
0.0
 36
1.0
 17
0.0
 27
0.0
 37
0.0
 40
423.180185
 41
1.732051
 42
50.0
 43
0.0
 44
0.0
 50
0.0
 51
0.0
 71
     0
 72
   100
 73
     1
 74
     1
 75
     0
 76
     0
 77
     0
 78
     0
  0
ENDTAB
  0
TABLE
  2
LTYPE
 70
     3
  0
LTYPE
  2
CONTINUOUS
 70
    64
  3
Solid line
 72
    65
 73
     0
 40
0.0
  0
LTYPE
  2
PHANTOM
 70
    64
  3
Phantom ______  __  __  ______  __  __  ______
 72
    65
 73
     6
 40
63.5
 49
31.75
 49
-6.35
 49
6.35
 49
-6.35
 49
6.35
 49
-6.35
  0
LTYPE
  2
CENTER
 70
    64
  3
Center ____ _ ____ _ ____ _ ____ _ ____ _ ____
 72
    65
 73
     4
 40
50.8
 49
31.75
 49
-6.35
 49
6.35
 49
-6.35
  0
ENDTAB
  0
TABLE
  2
LAYER
 70
     3
  0
LAYER
  2
0
 70
     0
 62
     7
  6
CONTINUOUS
  0
LAYER
  2
LY_1
 70
     0
 62
     7
  6
CONTINUOUS
  0
LAYER
  2
DEFPOINTS
 70
     0
 62
     7
  6
CONTINUOUS
  0
ENDTAB
  0
TABLE
  2
STYLE
 70
     2
  0
STYLE
  2
MX_NOTE_STANDARD
 70
     0
 40
0.0
 41
1.0
 50
0.0
 71
     0
 42
3.3
  3
txt.shx
  4
extfont.shx
  0
STYLE
  2
MX_DIMTXSTY_2
 70
     0
 40
0.0
 41
0.85
 50
0.0
 71
     0
 42
3.3
  3
txt.shx
  4
extfont.shx
  0
ENDTAB
  0
TABLE
  2
VIEW
 70
     0
  0
ENDTAB
  0
TABLE
  2
UCS
 70
     0
  0
ENDTAB
  0
TABLE
  2
APPID
 70
     1
  0
APPID
  2
ACAD
 70
     0
  0
ENDTAB
  0
TABLE
  2
DIMSTYLE
 70
     1
  0
DIMSTYLE
  2
MXDIMSTYLE
 70
     0
  3

  4

  5

  6
_OPEN30
  7
_OPEN30
 40
1.0
 41
2.5
 42
0.0
 43
3.75
 44
1.1938
 45
0.0
 46
0.0
 47
0.0
 48
0.0
 71
     0
 72
     0
 73
     0
 74
     0
 75
     0
 76
     0
 77
     1
 78
     8
140
3.3
141
2.5
142
0.0
143
0.03937
144
1.0
145
0.0
146
1.0
147
1.0
170
     0
171
     4
172
     1
173
     1
174
     0
175
     0
176
     0
177
     0
178
     0
  0
ENDTAB
  0
ENDSEC
  0
SECTION
  2
BLOCKS
  0
BLOCK
  8
0
  6
BYBLOCK
 62
     0
  5
20
  2
_OPEN30
 70
     2
 10
0.0
 20
0.0
 30
0.0
  3
_OPEN30
  0
LINE
  8
0
  6
BYBLOCK
 62
     0
  5
21
 10
-1.0
 20
0.267949
 30
0.0
 11
0.0
 21
0.0
 31
0.0
  0
LINE
  8
0
  6
BYBLOCK
 62
     0
  5
22
 10
0.0
 20
0.0
 30
0.0
 11
-1.0
 21
-0.267949
 31
0.0
  0
LINE
  8
0
  6
BYBLOCK
 62
     0
  5
23
 10
0.0
 20
0.0
 30
0.0
 11
-1.0
 21
0.0
 31
0.0
  0
ENDBLK
  8
0
  6
BYBLOCK
 62
     0
  5
24
  0
BLOCK
  8
0
  6
BYBLOCK
 62
     0
  5
26
  2
*D1
 70
     1
 10
0.0
 20
0.0
 30
0.0
  3
*D1
  0
LINE
  8
0
  6
CONTINUOUS
 62
   110
  5
27
 10
-50.0
 20
200.0
 30
0.0
 11
50.0
 21
200.0
 31
0.0
  0
LINE
  8
0
  6
CONTINUOUS
 62
   110
  5
28
 10
-50.0
 20
172.0
 30
0.0
 11
-50.0
 21
201.193787
 31
0.0
  0
LINE
  8
0
  6
CONTINUOUS
 62
   110
  5
29
 10
50.0
 20
172.0
 30
0.0
 11
50.0
 21
201.193787
 31
0.0
  0
INSERT
  8
0
  6
CONTINUOUS
 62
   110
  5
30
  2
_OPEN
 10
-50.0
 20
200.0
 30
0.0
 41
2.19
 42
2.19
 50
180.0
 43
2.19
  0
INSERT
  8
0
  6
CONTINUOUS
 62
   110
  5
31
  2
_OPEN
 10
50.0
 20
200.0
 30
0.0
 41
2.19
 42
2.19
 43
2.19
  0
TEXT
  8
0
  6
CONTINUOUS
 62
   110
  5
32
 10
-5.008297
 20
201.0
 30
0.0
 40
3.3
  1
%%c100
 41
0.965787
  7
MX_NOTE_STANDARD
 11
-5.008297
 21
202.65
 31
0.0
 73
     2
  0
POINT
  8
DEFPOINTS
  6
CONTINUOUS
 62
     0
  5
33
 10
-50.0
 20
172.0
 30
0.0
  0
POINT
  8
DEFPOINTS
  6
CONTINUOUS
 62
     0
  5
34
 10
50.0
 20
172.0
 30
0.0
  0
POINT
  8
DEFPOINTS
  6
CONTINUOUS
 62
     0
  5
35
 10
50.0
 20
200.0
 30
0.0
  0
ENDBLK
  8
0
  6
BYBLOCK
 62
     0
  5
36
  0
BLOCK
  8
0
  6
BYBLOCK
 62
     0
  5
2B
  2
_OPEN
 70
     2
 10
0.0
 20
0.0
 30
0.0
  3
_OPEN
  0
LINE
  8
0
  6
BYBLOCK
 62
     0
  5
2C
 10
-1.0
 20
0.166667
 30
0.0
 11
0.0
 21
0.0
 31
0.0
  0
LINE
  8
0
  6
BYBLOCK
 62
     0
  5
2D
 10
0.0
 20
0.0
 30
0.0
 11
-1.0
 21
-0.166667
 31
0.0
  0
LINE
  8
0
  6
BYBLOCK
 62
     0
  5
2E
 10
0.0
 20
0.0
 30
0.0
 11
-1.0
 21
0.0
 31
0.0
  0
ENDBLK
  8
0
  6
BYBLOCK
 62
     0
  5
2F
  0
BLOCK
  8
0
  6
BYBLOCK
 62
     0
  5
39
  2
*D3
 70
     1
 10
0.0
 20
0.0
 30
0.0
  3
*D3
  0
LINE
  8
0
  6
CONTINUOUS
 62
   110
  5
3A
 10
41.0
 20
-56.149994
 30
0.0
 11
-41.0
 21
-56.149994
 31
0.0
  0
LINE
  8
0
  6
CONTINUOUS
 62
   110
  5
3B
 10
41.0
 20
-48.149994
 30
0.0
 11
41.0
 21
-57.343781
 31
0.0
  0
LINE
  8
0
  6
CONTINUOUS
 62
   110
  5
3C
 10
-41.0
 20
-48.149994
 30
0.0
 11
-41.0
 21
-57.343781
 31
0.0
  0
INSERT
  8
0
  6
CONTINUOUS
 62
   110
  5
3D
  2
_OPEN
 10
41.0
 20
-56.149994
 30
0.0
 41
2.19
 42
2.19
 43
2.19
  0
INSERT
  8
0
  6
CONTINUOUS
 62
   110
  5
3E
  2
_OPEN
 10
-41.0
 20
-56.149994
 30
0.0
 41
2.19
 42
2.19
 50
180.0
 43
2.19
  0
TEXT
  8
0
  6
CONTINUOUS
 62
   110
  5
40
 10
-2.226654
 20
-55.149994
 30
0.0
 40
3.3
  1
82
 41
0.98743
  7
MX_DIMTXSTY_2
 11
-2.226654
 21
-53.499994
 31
0.0
 73
     2
  0
POINT
  8
DEFPOINTS
  6
CONTINUOUS
 62
     0
  5
41
 10
41.0
 20
-48.149994
 30
0.0
  0
POINT
  8
DEFPOINTS
  6
CONTINUOUS
 62
     0
  5
42
 10
-41.0
 20
-48.149994
 30
0.0
  0
POINT
  8
DEFPOINTS
  6
CONTINUOUS
 62
     0
  5
43
 10
-41.0
 20
-56.149994
 30
0.0
  0
ENDBLK
  8
0
  6
BYBLOCK
 62
     0
  5
44
  0
BLOCK
  8
0
  6
BYBLOCK
 62
     0
  5
47
  2
*D4
 70
     1
 10
0.0
 20
0.0
 30
0.0
  3
*D4
  0
LINE
  8
0
  6
CONTINUOUS
 62
   110
  5
48
 10
58.0
 20
187.0
 30
0.0
 11
58.0
 21
0.0
 31
0.0
  0
LINE
  8
0
  6
CONTINUOUS
 62
   110
  5
49
 10
40.061798
 20
187.0
 30
0.0
 11
59.193787
 21
187.0
 31
0.0
  0
LINE
  8
0
  6
CONTINUOUS
 62
   110
  5
4A
 10
46.0
 20
0.0
 30
0.0
 11
59.193787
 21
0.0
 31
0.0
  0
INSERT
  8
0
  6
CONTINUOUS
 62
   110
  5
4B
  2
_OPEN
 10
58.0
 20
187.0
 30
0.0
 41
2.19
 42
2.19
 50
90.0
 43
2.19
  0
INSERT
  8
0
  6
CONTINUOUS
 62
   110
  5
4C
  2
_OPEN
 10
58.0
 20
0.0
 30
0.0
 41
2.19
 42
2.19
 50
270.0
 43
2.19
  0
TEXT
  8
0
  6
CONTINUOUS
 62
   110
  5
4D
 10
57.0
 20
89.864716
 30
0.0
 40
3.3
  1
187
 50
90.0
 41
0.94423
  7
MX_NOTE_STANDARD
 11
55.35
 21
89.864716
 31
0.0
 73
     2
  0
POINT
  8
DEFPOINTS
  6
CONTINUOUS
 62
     0
  5
4E
 10
40.061798
 20
187.0
 30
0.0
  0
POINT
  8
DEFPOINTS
  6
CONTINUOUS
 62
     0
  5
4F
 10
46.0
 20
0.0
 30
0.0
  0
POINT
  8
DEFPOINTS
  6
CONTINUOUS
 62
     0
  5
50
 10
58.0
 20
0.0
 30
0.0
  0
ENDBLK
  8
0
  6
BYBLOCK
 62
     0
  5
51
  0
ENDSEC
  0
SECTION
  2
ENTITIES
  0
DIMENSION
  8
LY_1
  6
CONTINUOUS
 62
   110
  5
37
  2
*D1
 10
50.0
 20
200.0
 30
0.0
 11
0.0
 21
200.0
 31
0.0
 70
   128
  1
%%c<>
 13
-50.0
 23
172.0
 33
0.0
 14
50.0
 24
172.0
 34
0.0
  3
MXDIMSTYLE
1001
ACAD
1000
DSTYLE
1002
{
1070
     6
1000
_OPEN
1070
     7
1000
_OPEN
1070
    41
1040
2.19
1070
    44
1040
1.193787
1070
   271
1070
     0
1070
   284
1070
     8
1070
   343
1005
2A
1070
   344
1005
2A
1002
}
  0
DIMENSION
  8
LY_1
  6
CONTINUOUS
 62
   110
  5
45
  2
*D3
 10
-41.0
 20
-56.149994
 30
0.0
 11
0.0
 21
-56.149994
 31
0.0
 70
   128
  1
<>
 13
41.0
 23
-48.149994
 33
0.0
 14
-41.0
 24
-48.149994
 34
0.0
  3
MXDIMSTYLE
1001
ACAD
1000
DSTYLE
1002
{
1070
     6
1000
_OPEN
1070
     7
1000
_OPEN
1070
    41
1040
2.19
1070
    44
1040
1.193787
1070
   271
1070
     0
1070
   284
1070
     8
1070
   340
1005
3F
1070
   343
1005
2A
1070
   344
1005
2A
1002
}
  0
DIMENSION
  8
LY_1
  6
CONTINUOUS
 62
   110
  5
52
  2
*D4
 10
58.0
 20
0.0
 30
0.0
 11
58.0
 21
93.5
 31
0.0
 70
   128
  1
<>
 13
40.061798
 23
187.0
 33
0.0
 14
46.0
 24
0.0
 34
0.0
 50
90.0
  3
MXDIMSTYLE
1001
ACAD
1000
DSTYLE
1002
{
1070
     6
1000
_OPEN
1070
     7
1000
_OPEN
1070
    41
1040
2.19
1070
    44
1040
1.193787
1070
   271
1070
     0
1070
   284
1070
     8
1070
   343
1005
2A
1070
   344
1005
2A
1002
}
  0
TEXT
  8
LY_1
  6
CONTINUOUS
 62
   110
  5
53
 10
-51.060571
 20
-76.233584
 30
0.0
 40
4.167181
  1
      GATE VALVE  21/2
 41
0.982303
  7
MX_NOTE_STANDARD
 11
-51.060571
 21
-74.149994
 31
0.0
 73
     2
  0
TEXT
  8
LY_1
  6
CONTINUOUS
 62
   110
  5
54
 10
-51.109061
 20
-92.233584
 30
0.0
 40
4.167181
  1
KITZ
 41
0.912486
  7
MX_NOTE_STANDARD
 11
-51.109061
 21
-90.149994
 31
0.0
 73
     2
  0
TEXT
  8
LY_1
  6
CONTINUOUS
 62
   110
  5
55
 10
-51.054859
 20
-84.233584
 30
0.0
 40
4.167181
  1
FIG   FH21/2
 41
0.990528
  7
MX_NOTE_STANDARD
 11
-51.054859
 21
-82.149994
 31
0.0
 73
     2
  0
TEXT
  8
LY_1
  6
CONTINUOUS
 62
   110
  5
56
 10
-51.109061
 20
-68.233584
 30
0.0
 40
4.167181
  1
NAME  CLASS 125 FORGED BRASS
 41
0.912486
  7
MX_NOTE_STANDARD
 11
-51.109061
 21
-66.149994
 31
0.0
 73
     2
  0
POLYLINE
  8
LY_1
  6
CONTINUOUS
 62
     3
  5
57
 66
     1
 10
0.0
 20
0.0
 30
0.0
  0
VERTEX
  8
LY_1
  6
CONTINUOUS
 62
     3
  5
25B
 10
-2.124443
 20
15.551213
 30
0.0
  0
VERTEX
  8
LY_1
  6
CONTINUOUS
 62
     3
  5
25C
 10
-2.128963
 20
15.556341
 30
0.0
  0
VERTEX
  8
LY_1
  6
CONTINUOUS
 62
     3
  5
25D
 10
-2.134128
 20
15.560788
 30
0.0
  0
VERTEX
  8
LY_1
  6
CONTINUOUS
 62
     3
  5
25E
 10
-2.139842
 20
15.564468
 30
0.0
  0
VERTEX
  8
LY_1
  6
CONTINUOUS
 62
     3
  5
25F
 10
-2.145996
 20
15.567312
 30
0.0
  0
VERTEX
  8
LY_1
  6
CONTINUOUS
 62
     3
  5
260
 10
-2.152474
 20
15.569267
 30
0.0
  0
VERTEX
  8
LY_1
  6
CONTINUOUS
 62
     3
  5
261
 10
-2.159153
 20
15.570296
 30
0.0
  0
VERTEX
  8
LY_1
  6
CONTINUOUS
 62
     3
  5
262
 10
-2.165908
 20
15.570378
 30
0.0
  0
VERTEX
  8
LY_1
  6
CONTINUOUS
 62
     3
  5
263
 10
-2.172609
 20
15.569513
 30
0.0
  0
VERTEX
  8
LY_1
  6
CONTINUOUS
 62
     3
  5
264
 10
-2.179131
 20
15.567717
 30
0.0
  0
VERTEX
  8
LY_1
  6
CONTINUOUS
 62
     3
  5
265
 10
-2.18535
 20
15.565024
 30
0.0
  0
VERTEX
  8
LY_1
  6
CONTINUOUS
 62
     3
  5
266
 10
-2.191148
 20
15.561484
 30
0.0
  0
VERTEX
  8
LY_1
  6
CONTINUOUS
 62
     3
  5
267
 10
-2.196416
 20
15.557166
 30
0.0
  0
VERTEX
  8
LY_1
  6
CONTINUOUS
 62
     3
  5
268
 10
-2.201055
 20
15.552149
 30
0.0
  0
VERTEX
  8
LY_1
  6
CONTINUOUS
 62
     3
  5
269
 10
-2.204976
 20
15.54653
 30
0.0
  0
VERTEX
  8
LY_1
  6
CONTINUOUS
 62
     3
  5
26A
 10
-2.208105
 20
15.540414
 30
0.0
  0
VERTEX
  8
LY_1
  6
CONTINUOUS
 62
     3
  5
26B
 10
-2.210384
 20
15.533918
 30
0.0
  0
VERTEX
  8
LY_1
  6
CONTINUOUS
 62
     3
  5
26C
 10
-2.211768
 20
15.527164
 30
0.0
  0
VERTEX
  8
LY_1
  6
CONTINUOUS
 62
     3
  5
26D
 10
-2.212233
 20
15.520279
 30
0.0
  0
VERTEX
  8
LY_1
  6
CONTINUOUS
 62
     3
  5
26E
 10
-2.212233
 20
15.520279
 30
0.0
  0
SEQEND
  8
LY_1
  6
CONTINUOUS
 62
     3
  5
26F
  0
POLYLINE
  8
LY_1
  6
CONTINUOUS
 62
     3
  5
58
 66
     1
 10
0.0
 20
0.0
 30
0.0
  0
VERTEX
  8
LY_1
  6
CONTINUOUS
 62
     3
  5
270
 10
3.724053
 20
12.411234
 30
0.0
  0
VERTEX
  8
LY_1
  6
CONTINUOUS
 62
     3
  5
271
 10
3.728883
 20
12.405802
 30
0.0
  0
VERTEX
  8
LY_1
  6
CONTINUOUS
 62
     3
  5
272
 10
3.734437
 20
12.401148
 30
0.0
  0
VERTEX
  8
LY_1
  6
CONTINUOUS
 62
     3
  5
273
 10
3.740595
 20
12.397371
 30
0.0
  0
VERTEX
  8
LY_1
  6
CONTINUOUS
 62
     3
  5
274
 10
3.747228
 20
12.394552
 30
0.0
  0
VERTEX
  8
LY_1
  6
CONTINUOUS
 62
     3
  5
275
 10
3.754191
 20
12.392752
 30
0.0
  0
VERTEX
  8
LY_1
  6
CONTINUOUS
 62
     3
  5
276
 10
3.761338
 20
12.392009
 30
0.0
  0
VERTEX
  8
LY_1
  6
CONTINUOUS
 62
     3
  5
277
 10
3.768513
 20
12.392338
 30
0.0
  0
VERTEX
  8
LY_1
  6
CONTINUOUS
 62
     3
  5
278
 10
3.775566
 20
12.393734
 30
0.0
  0
VERTEX
  8
LY_1
  6
CONTINUOUS
 62
     3
  5
279
 10
3.782343
 20
12.396165
 30
0.0
  0
VERTEX
  8
LY_1
  6
CONTINUOUS
 62
     3
  5
27A
 10
3.788701
 20
12.39958
 30
0.0
  0
VERTEX
  8
LY_1
  6
CONTINUOUS
 62
     3
  5
27B
 10
3.794503
 20
12.403906
 30
0.0
  0
VERTEX
  8
LY_1
  6
CONTINUOUS
 62
     3
  5
27C
 10
3.799626
 20
12.409051
 30
0.0
  0
VERTEX
  8
LY_1
  6
CONTINUOUS
 62
     3
  5
27D
 10
3.80396
 20
12.414904
 30
0.0
  0
VERTEX
  8
LY_1
  6
CONTINUOUS
 62
     3
  5
27E
 10
3.807411
 20
12.42134
 30
0.0
  0
VERTEX
  8
LY_1
  6
CONTINUOUS
 62
     3
  5
27F
 10
3.809907
 20
12.428222
 30
0.0
  0
VERTEX
  8
LY_1
  6
CONTINUOUS
 62
     3
  5
280
 10
3.811393
 20
12.435402
 30
0.0
  0
VERTEX
  8
LY_1
  6
CONTINUOUS
 62
     3
  5
281
 10
3.81173
 20
12.438778
 30
0.0
  0
VERTEX
  8
LY_1
  6
CONTINUOUS
 62
     3
  5
282
 10
3.811842
 20
12.442169
 30
0.0
  0
SEQEND
  8
LY_1
  6
CONTINUOUS
 62
     3
  5
283
  0
POLYLINE
  8
LY_1
  6
CONTINUOUS
 62
     3
  5
59
 66
     1
 10
0.0
 20
0.0
 30
0.0
  0
VERTEX
  8
LY_1
  6
CONTINUOUS
 62
     3
  5
284
 10
0.040279
 20
50.178282
 30
0.0
  0
VERTEX
  8
LY_1
  6
CONTINUOUS
 62
     3
  5
285
 10
0.03605
 20
50.183647
 30
0.0
  0
VERTEX
  8
LY_1
  6
CONTINUOUS
 62
     3
  5
286
 10
0.031141
 20
50.18837
 30
0.0
  0
VERTEX
  8
LY_1
  6
CONTINUOUS
 62
     3
  5
287
 10
0.025645
 20
50.192362
 30
0.0
  0
VERTEX
  8
LY_1
  6
CONTINUOUS
 62
     3
  5
288
 10
0.019666
 20
50.195547
 30
0.0
  0
VERTEX
  8
LY_1
  6
CONTINUOUS
 62
     3
  5
289
 10
0.013316
 20
50.197866
 30
0.0
  0
VERTEX
  8
LY_1
  6
CONTINUOUS
 62
     3
  5
28A
 10
0.006716
 20
50.199274
 30
0.0
  0
VERTEX
  8
LY_1
  6
CONTINUOUS
 62
     3
  5
28B
 10
-0.000012
 20
50.199745
 30
0.0
  0
VERTEX
  8
LY_1
  6
CONTINUOUS
 62
     3
  5
28C
 10
-0.006739
 20
50.199271
 30
0.0
  0
VERTEX
  8
LY_1
  6
CONTINUOUS
 62
     3
  5
28D
 10
-0.013339
 20
50.197859
 30
0.0
  0
VERTEX
  8
LY_1
  6
CONTINUOUS
 62
     3
  5
28E
 10
-0.019687
 20
50.195538
 30
0.0
  0
VERTEX
  8
LY_1
  6
CONTINUOUS
 62
     3
  5
28F
 10
-0.025665
 20
50.19235
 30
0.0
  0
VERTEX
  8
LY_1
  6
CONTINUOUS
 62
     3
  5
290
 10
-0.031159
 20
50.188355
 30
0.0
  0
VERTEX
  8
LY_1
  6
CONTINUOUS
 62
     3
  5
291
 10
-0.036065
 20
50.18363
 30
0.0
  0
VERTEX
  8
LY_1
  6
CONTINUOUS
 62
     3
  5
292
 10
-0.040292
 20
50.178262
 30
0.0
  0
SEQEND
  8
LY_1
  6
CONTINUOUS
 62
     3
  5
293
  0
POLYLINE
  8
LY_1
  6
CONTINUOUS
 62
     3
  5
5A
 66
     1
 10
0.0
 20
0.0
 30
0.0
  0
VERTEX
  8
LY_1
  6
CONTINUOUS
 62
     3
  5
294
 10
-4.903434
 20
282.137843
 30
0.0
  0
VERTEX
  8
LY_1
  6
CONTINUOUS
 62
     3
  5
295
 10
-4.904817
 20
282.136562
 30
0.0
  0
VERTEX
  8
LY_1
  6
CONTINUOUS
 62
     3
  5
296
 10
-4.906036
 20
282.135072
 30
0.0
  0
VERTEX
  8
LY_1
  6
CONTINUOUS
 62
     3
  5
297
 10
-4.907069
 20
282.133401
 30
0.0
  0
VERTEX
  8
LY_1
  6
CONTINUOUS
 62
     3
  5
298
 10
-4.907895
 20
282.13158
 30
0.0
  0
VERTEX
  8
LY_1
  6
CONTINUOUS
 62
     3
  5
299
 10
-4.9085
 20
282.129644
 30
0.0
  0
VERTEX
  8
LY_1
  6
CONTINUOUS
 62
     3
  5
29A
 10
-4.908872
 20
282.127629
 30
0.0
  0
VERTEX
  8
LY_1
  6
CONTINUOUS
 62
     3
  5
29B
 10
-4.909004
 20
282.125574
 30
0.0
  0
VERTEX
  8
LY_1
  6
CONTINUOUS
 62
     3
  5
29C
 10
-4.908892
 20
282.123517
 30
0.0
  0
VERTEX
  8
LY_1
  6
CONTINUOUS
 62
     3
  5
29D
 10
-4.90854
 20
282.121498
 30
0.0
  0
VERTEX
  8
LY_1
  6
CONTINUOUS
 62
     3
  5
29E
 10
-4.907955
 20
282.119554
 30
0.0
  0
VERTEX
  8
LY_1
  6
CONTINUOUS
 62
     3
  5
29F
 10
-4.907146
 20
282.117722
 30
0.0
  0
VERTEX
  8
LY_1
  6
CONTINUOUS
 62
     3
  5
2A0
 10
-4.906129
 20
282.116037
 30
0.0
  0
VERTEX
  8
LY_1
  6
CONTINUOUS
 62
     3
  5
2A1
 10
-4.904925
 20
282.114531
 30
0.0
  0
VERTEX
  8
LY_1
  6
CONTINUOUS
 62
     3
  5
2A2
 10
-4.903555
 20
282.113232
 30
0.0
  0
VERTEX
  8
LY_1
  6
CONTINUOUS
 62
     3
  5
2A3
 10
-4.903555
 20
282.113232
 30
0.0
  0
SEQEND
  8
LY_1
  6
CONTINUOUS
 62
     3
  5
2A4
  0
ARC
  8
LY_1
  6
CONTINUOUS
 62
     3
  5
5B
 10
3.57016
 20
10.346085
 30
0.0
 40
1.34603
 50
217.524112
 51
359.999982
  0
ARC
  8
LY_1
  6
CONTINUOUS
 62
     3
  5
5C
 10
-3.564209
 20
10.351898
 30
0.0
 40
1.351944
 50
180.000036
 51
359.999982
  0
ARC
  8
LY_1
  6
CONTINUOUS
 62
     3
  5
5D
 10
-3.569992
 20
19.698227
 30
0.0
 40
1.346263
 50
37.524113
 51
180.000019
  0
ARC
  8
LY_1
  6
CONTINUOUS
 62
     3
  5
5E
 10
3.534973
 20
19.16626
 30
0.0
 40
1.381247
 50
359.999982
 51
270.000001
  0
ARC
  8
LY_1
  6
CONTINUOUS
 62
     3
  5
5F
 10
3.563934
 20
23.857285
 30
0.0
 40
1.351887
 50
180.000036
 51
359.999982
  0
ARC
  8
LY_1
  6
CONTINUOUS
 62
     3
  5
60
 10
-3.534897
 20
28.275818
 30
0.0
 40
1.381286
 50
90.000037
 51
270.000001
  0
ARC
  8
LY_1
  6
CONTINUOUS
 62
     3
  5
61
 10
3.534622
 20
33.117126
 30
0.0
 40
1.381169
 50
359.999982
 51
270.000001
  0
ARC
  8
LY_1
  6
CONTINUOUS
 62
     3
  5
62
 10
-3.534897
 20
37.856522
 30
0.0
 40
1.381269
 50
90.000037
 51
270.000001
  0
ARC
  8
LY_1
  6
CONTINUOUS
 62
     3
  5
63
 10
3.534973
 20
37.856522
 30
0.0
 40
1.381269
 50
270.000018
 51
90.000037
  0
ARC
  8
LY_1
  6
CONTINUOUS
 62
     3
  5
64
 10
3.278
 20
42.514313
 30
0.0
 40
1.638298
 50
0.778951
 51
34.259064
  0
ARC
  8
LY_1
  6
CONTINUOUS
 62
     3
  5
65
 10
3.564713
 20
42.556793
 30
0.0
 40
1.351612
 50
123.574515
 51
359.143204
  0
ARC
  8
LY_1
  6
CONTINUOUS
 62
     3
  5
66
 10
-3.567444
 20
42.581696
 30
0.0
 40
1.361231
 50
145.740937
 51
325.740956
  0
ARC
  8
LY_1
  6
CONTINUOUS
 62
     3
  5
67
 10
-3.535034
 20
51.618805
 30
0.0
 40
1.381186
 50
89.999982
 51
270.000001
  0
ARC
  8
LY_1
  6
CONTINUOUS
 62
     3
  5
68
 10
3.53508
 20
51.618805
 30
0.0
 40
1.381186
 50
270.000018
 51
90.000037
  0
ARC
  8
LY_1
  6
CONTINUOUS
 62
     3
  5
69
 10
1.860438
 20
269.540283
 30
0.0
 40
10.816795
 50
318.474707
 51
336.525422
  0
ARC
  8
LY_1
  6
CONTINUOUS
 62
     3
  5
6A
 10
1.804438
 20
269.576172
 30
0.0
 40
8.883203
 50
318.198276
 51
336.801307
  0
ARC
  8
LY_1
  6
CONTINUOUS
 62
     3
  5
6B
 10
-1.860438
 20
269.540283
 30
0.0
 40
10.816795
 50
203.474577
 51
221.525291
  0
ARC
  8
LY_1
  6
CONTINUOUS
 62
     3
  5
6C
 10
-1.804461
 20
269.576172
 30
0.0
 40
8.883203
 50
203.198692
 51
221.801723
  0
ARC
  8
LY_1
  6
PHANTOM
 62
   110
  5
6E
 10
0.0
 20
270.725586
 30
0.0
 40
13.000001
 50
226.309046
 51
313.690976
  0
ARC
  8
LY_1
  6
PHANTOM
 62
   110
  5
6F
 10
0.0
 20
270.725586
 30
0.0
 40
10.999994
 50
227.462092
 51
312.53789
  0
ARC
  8
LY_1
  6
CONTINUOUS
 62
     3
  5
70
 10
12.056231
 20
271.222412
 30
0.0
 40
1.27
 50
227.874799
 51
264.434343
  0
ARC
  8
LY_1
  6
CONTINUOUS
 62
     3
  5
71
 10
11.65377
 20
270.777344
 30
0.0
 40
0.67
 50
176.848023
 51
227.874618
  0
ARC
  8
LY_1
  6
CONTINUOUS
 62
     3
  5
72
 10
11.650042
 20
270.734619
 30
0.0
 40
0.67
 50
122.125367
 51
173.171961
  0
ARC
  8
LY_1
  6
CONTINUOUS
 62
     3
  5
73
 10
11.96908
 20
270.226563
 30
0.0
 40
1.27
 50
85.578118
 51
122.125203
  0
ARC
  8
LY_1
  6
CONTINUOUS
 62
     3
  5
74
 10
11.943773
 20
270.22876
 30
0.0
 40
1.27
 50
47.874821
 51
84.431739
  0
ARC
  8
LY_1
  6
CONTINUOUS
 62
     3
  5
75
 10
12.346213
 20
270.673584
 30
0.0
 40
0.67
 50
356.84801
 51
47.874602
  0
ARC
  8
LY_1
  6
CONTINUOUS
 62
     3
  5
76
 10
12.349962
 20
270.716553
 30
0.0
 40
0.67
 50
302.125403
 51
353.171979
  0
ARC
  8
LY_1
  6
CONTINUOUS
 62
     3
  5
77
 10
12.030901
 20
271.224609
 30
0.0
 40
1.27
 50
265.581487
 51
302.125184
  0
ARC
  8
LY_1
  6
CONTINUOUS
 62
     3
  5
78
 10
11.96908
 20
270.226563
 30
0.0
 40
1.500001
 50
85.485391
 51
122.125203
  0
ARC
  8
LY_1
  6
CONTINUOUS
 62
     3
  5
79
 10
12.346213
 20
270.673584
 30
0.0
 40
0.9
 50
356.37819
 51
47.874602
  0
ARC
  8
LY_1
  6
CONTINUOUS
 62
     3
  5
7A
 10
11.943773
 20
270.22876
 30
0.0
 40
1.500001
 50
47.874821
 51
84.51463
  0
ARC
  8
LY_1
  6
CONTINUOUS
 62
     3
  5
7B
 10
11.65377
 20
270.777344
 30
0.0
 40
0.9
 50
176.378215
 51
227.874618
  0
ARC
  8
LY_1
  6
CONTINUOUS
 62
     3
  5
7C
 10
12.056231
 20
271.222412
 30
0.0
 40
1.500001
 50
227.874799
 51
264.514447
  0
ARC
  8
LY_1
  6
CONTINUOUS
 62
     3
  5
7D
 10
11.650042
 20
270.734619
 30
0.0
 40
0.9
 50
122.125367
 51
173.641823
  0
ARC
  8
LY_1
  6
CONTINUOUS
 62
     3
  5
7E
 10
12.349962
 20
270.716553
 30
0.0
 40
0.9
 50
302.125403
 51
353.641797
  0
ARC
  8
LY_1
  6
CONTINUOUS
 62
     3
  5
7F
 10
12.030901
 20
271.224609
 30
0.0
 40
1.500001
 50
265.485645
 51
302.125184
  0
ARC
  8
LY_1
  6
CONTINUOUS
 62
     3
  5
80
 10
3.07251
 20
283.225586
 30
0.0
 40
0.4
 50
89.999982
 51
180.000019
  0
ARC
  8
LY_1
  6
CONTINUOUS
 62
     3
  5
81
 10
2.978778
 20
283.200684
 30
0.0
 40
0.4
 50
274.658043
 51
0.0
  0
ARC
  8
LY_1
  6
CONTINUOUS
 62
     3
  5
82
 10
3.042515
 20
283.170654
 30
0.0
 40
0.37
 50
180.000036
 51
265.157141
  0
ARC
  8
LY_1
  6
CONTINUOUS
 62
     3
  5
83
 10
4.743478
 20
283.273682
 30
0.0
 40
0.015
 50
312.505723
 51
89.998288
  0
ARC
  8
LY_1
  6
CONTINUOUS
 62
     3
  5
84
 10
5.199193
 20
283.199707
 30
0.0
 40
0.42579
 50
312.504463
 51
89.999982
  0
ARC
  8
LY_1
  6
CONTINUOUS
 62
     3
  5
85
 10
3.959329
 20
281.465576
 30
0.0
 40
0.015
 50
132.505506
 51
269.998635
  0
ARC
  8
LY_1
  6
CONTINUOUS
 62
     3
  5
86
 10
2.971277
 20
281.051514
 30
0.0
 40
0.42585
 50
132.504468
 51
270.000001
  0
ARC
  8
LY_1
  6
CONTINUOUS
 62
     3
  5
87
 10
5.212488
 20
281.038086
 30
0.0
 40
0.412502
 50
270.000018
 51
89.999982
  0
ARC
  8
LY_1
  6
CONTINUOUS
 62
     3
  5
88
 10
-0.494428
 20
283.225342
 30
0.0
 40
0.4
 50
89.999982
 51
180.000019
  0
ARC
  8
LY_1
  6
CONTINUOUS
 62
     3
  5
89
 10
-0.588161
 20
283.200439
 30
0.0
 40
0.4
 50
274.658043
 51
0.0
  0
ARC
  8
LY_1
  6
CONTINUOUS
 62
     3
  5
8A
 10
-0.524445
 20
283.17041
 30
0.0
 40
0.37
 50
180.000036
 51
265.157141
  0
ARC
  8
LY_1
  6
CONTINUOUS
 62
     3
  5
8B
 10
0.696542
 20
280.97876
 30
0.0
 40
0.353167
 50
180.000036
 51
359.999983
  0
ARC
  8
LY_1
  6
CONTINUOUS
 62
     3
  5
8C
 10
1.759447
 20
283.212891
 30
0.0
 40
0.412476
 50
270.000018
 51
89.999982
  0
ARC
  8
LY_1
  6
CONTINUOUS
 62
     3
  5
8D
 10
-1.753125
 20
283.272461
 30
0.0
 40
0.353143
 50
0.0
 51
180.000019
  0
ARC
  8
LY_1
  6
CONTINUOUS
 62
     3
  5
8E
 10
-1.753125
 20
280.97876
 30
0.0
 40
0.353143
 50
179.999964
 51
359.999983
  0
ARC
  8
LY_1
  6
CONTINUOUS
 62
     3
  5
8F
 10
-2.974331
 20
283.319336
 30
0.0
 40
0.3
 50
69.540669
 51
129.103799
  0
ARC
  8
LY_1
  6
CONTINUOUS
 62
     3
  5
90
 10
-2.965416
 20
283.150879
 30
0.0
 40
0.35
 50
211.487864
 51
266.528697
  0
ARC
  8
LY_1
  6
CONTINUOUS
 62
     3
  5
91
 10
-3.009272
 20
283.200684
 30
0.0
 40
0.4
 50
273.248893
 51
0.0
  0
ARC
  8
LY_1
  6
CONTINUOUS
 62
     3
  5
92
 10
-3.009272
 20
283.225586
 30
0.0
 40
0.4
 50
0.0
 51
69.540724
  0
ARC
  8
LY_1
  6
CONTINUOUS
 62
     3
  5
93
 10
-2.967071
 20
281.041748
 30
0.0
 40
0.389946
 50
230.896201
 51
50.89622
  0
ARC
  8
LY_1
  6
CONTINUOUS
 62
     3
  5
94
 10
-5.271868
 20
283.272461
 30
0.0
 40
0.353143
 50
0.0
 51
180.000019
  0
ARC
  8
LY_1
  6
CONTINUOUS
 62
     3
  5
95
 10
-5.271868
 20
280.97876
 30
0.0
 40
0.353143
 50
179.999964
 51
359.999983
  0
CIRCLE
  8
LY_1
  6
CONTINUOUS
 62
     3
  5
96
 10
0.0
 20
270.725586
 30
0.0
 40
9.000001
  0
CIRCLE
  8
LY_1
  6
CONTINUOUS
 62
     3
  5
97
 10
0.0
 20
270.725586
 30
0.0
 40
15.0
  0
ARC
  8
LY_1
  6
CONTINUOUS
 62
     3
  5
98
 10
-12.744532
 20
271.907471
 30
0.0
 40
0.15
 50
329.803437
 51
149.803424
  0
ARC
  8
LY_1
  6
CONTINUOUS
 62
     3
  5
99
 10
-11.096148
 20
269.706055
 30
0.0
 40
0.15
 50
154.285886
 51
334.374971
  0
ARC
  8
LY_1
  6
CONTINUOUS
 62
     3
  5
9A
 10
-11.405857
 20
271.329346
 30
0.0
 40
0.294274
 50
18.468446
 51
169.999966
  0
ARC
  8
LY_1
  6
CONTINUOUS
 62
     3
  5
9B
 10
-12.507259
 20
269.974121
 30
0.0
 40
0.255073
 50
202.732326
 51
349.999978
  0
ARC
  8
LY_1
  6
CONTINUOUS
 62
     3
  5
9C
 10
-12.507259
 20
269.974121
 30
0.0
 40
0.555073
 50
202.732326
 51
349.999978
  0
ARC
  8
LY_1
  6
CONTINUOUS
 62
     3
  5
9D
 10
-11.405857
 20
271.329346
 30
0.0
 40
0.594275
 50
18.468446
 51
169.999966
  0
ARC
  8
LY_1
  6
CONTINUOUS
 62
     3
  5
9E
 10
-13.213435
 20
270.725586
 30
0.0
 40
2.2
 50
334.285898
 51
18.46848
  0
ARC
  8
LY_1
  6
CONTINUOUS
 62
     3
  5
9F
 10
-10.713434
 20
270.725586
 30
0.0
 40
2.2
 50
149.803424
 51
202.732309
  0
ARC
  8
LY_1
  6
CONTINUOUS
 62
     3
  5
A0
 10
-10.713434
 20
270.725586
 30
0.0
 40
2.500001
 50
149.803424
 51
202.732309
  0
ARC
  8
LY_1
  6
CONTINUOUS
 62
     3
  5
A1
 10
-13.213435
 20
270.725586
 30
0.0
 40
2.500001
 50
334.285898
 51
18.46848
  0
ARC
  8
LY_1
  6
CONTINUOUS
 62
     3
  5
A2
 10
-26.5
 20
61.0
 30
0.0
 40
4.0
 50
359.999981
 51
90.000037
  0
ARC
  8
LY_1
  6
CONTINUOUS
 62
     3
  5
A3
 10
26.5
 20
61.0
 30
0.0
 40
4.0
 50
89.999982
 51
180.000019
  0
ARC
  8
LY_1
  6
CONTINUOUS
 62
     3
  5
A4
 10
0.0
 20
270.725586
 30
0.0
 40
39.0
 50
235.937701
 51
259.062208
  0
ARC
  8
LY_1
  6
CONTINUOUS
 62
     3
  5
A5
 10
0.0
 20
270.725586
 30
0.0
 40
39.0
 50
190.937682
 51
214.062189
  0
ARC
  8
LY_1
  6
CONTINUOUS
 62
     3
  5
A6
 10
0.0
 20
270.725586
 30
0.0
 40
39.0
 50
145.937701
 51
169.062208
  0
ARC
  8
LY_1
  6
CONTINUOUS
 62
     3
  5
A7
 10
0.0
 20
270.725586
 30
0.0
 40
39.0
 50
100.937683
 51
124.06219
  0
ARC
  8
LY_1
  6
CONTINUOUS
 62
     3
  5
A8
 10
0.0
 20
270.725586
 30
0.0
 40
39.0
 50
55.937668
 51
79.062172
  0
ARC
  8
LY_1
  6
CONTINUOUS
 62
     3
  5
A9
 10
0.0
 20
270.725586
 30
0.0
 40
39.0
 50
10.937667
 51
34.062157
  0
ARC
  8
LY_1
  6
CONTINUOUS
 62
     3
  5
AA
 10
0.0
 20
270.725586
 30
0.0
 40
39.0
 50
325.937666
 51
349.062156
  0
ARC
  8
LY_1
  6
CONTINUOUS
 62
     3
  5
AB
 10
-11.375702
 20
315.725586
 30
0.0
 40
8.0
 50
240.542122
 51
264.084255
  0
ARC
  8
LY_1
  6
CONTINUOUS
 62
     3
  5
AC
 10
-11.375702
 20
225.725586
 30
0.0
 40
8.0
 50
95.915745
 51
119.457878
  0
ARC
  8
LY_1
  6
CONTINUOUS
 62
     3
  5
AD
 10
11.375702
 20
315.725586
 30
0.0
 40
8.0
 50
275.915727
 51
299.457859
  0
ARC
  8
LY_1
  6
CONTINUOUS
 62
     3
  5
AE
 10
11.375702
 20
225.725586
 30
0.0
 40
8.0
 50
60.542141
 51
84.084273
  0
ARC
  8
LY_1
  6
CONTINUOUS
 62
     3
  5
AF
 10
0.0
 20
270.725586
 30
0.0
 40
39.0
 50
280.937664
 51
304.062154
  0
ARC
  8
LY_1
  6
CONTINUOUS
 62
     3
  5
B0
 10
130.322418
 20
61.0
 30
0.0
 40
4.0
 50
89.999982
 51
180.000019
  0
ARC
  8
LY_1
  6
CONTINUOUS
 62
     3
  5
B1
 10
130.322418
 20
50.518143
 30
0.0
 40
4.0
 50
180.000091
 51
240.000024
  0
ARC
  8
LY_1
  6
CONTINUOUS
 62
     3
  5
B2
 10
117.322418
 20
61.0
 30
0.0
 40
4.0
 50
359.999981
 51
90.000037
  0
ARC
  8
LY_1
  6
CONTINUOUS
 62
     3
  5
B3
 10
-38.5
 20
60.38121
 30
0.0
 40
4.0
 50
0.000091
 51
60.000043
  0
ARC
  8
LY_1
  6
CONTINUOUS
 62
     3
  5
B4
 10
-38.5
 20
51.199997
 30
0.0
 40
4.0
 50
270.000018
 51
359.999981
  0
ARC
  8
LY_1
  6
CONTINUOUS
 62
     3
  5
B5
 10
38.5
 20
60.38121
 30
0.0
 40
4.0
 50
119.999976
 51
179.999909
  0
ARC
  8
LY_1
  6
CONTINUOUS
 62
     3
  5
B6
 10
38.5
 20
51.199997
 30
0.0
 40
4.0
 50
180.000019
 51
270.000001
  0
ARC
  8
LY_1
  6
CONTINUOUS
 62
     3
  5
B7
 10
-26.401917
 20
226.225586
 30
0.0
 40
3.0
 50
90.000037
 51
150.000298
  0
ARC
  8
LY_1
  6
CONTINUOUS
 62
     3
  5
B8
 10
-22.5
 20
237.225586
 30
0.0
 40
8.0
 50
269.999963
 51
298.608293
  0
ARC
  8
LY_1
  6
CONTINUOUS
 62
     3
  5
B9
 10
26.401917
 20
226.225586
 30
0.0
 40
3.0
 50
29.999721
 51
89.999982
  0
ARC
  8
LY_1
  6
CONTINUOUS
 62
     3
  5
BA
 10
22.5
 20
237.225586
 30
0.0
 40
8.0
 50
241.391689
 51
270.000018
  0
ARC
  8
LY_1
  6
CONTINUOUS
 62
     3
  5
BB
 10
-26.401917
 20
315.225586
 30
0.0
 40
3.0
 50
209.999702
 51
269.999963
  0
ARC
  8
LY_1
  6
CONTINUOUS
 62
     3
  5
BC
 10
-22.5
 20
304.225586
 30
0.0
 40
8.0
 50
61.391707
 51
90.000037
  0
ARC
  8
LY_1
  6
CONTINUOUS
 62
     3
  5
BD
 10
26.401917
 20
315.225586
 30
0.0
 40
3.0
 50
270.000018
 51
330.000279
  0
ARC
  8
LY_1
  6
CONTINUOUS
 62
     3
  5
BE
 10
22.5
 20
304.225586
 30
0.0
 40
8.0
 50
89.999982
 51
118.608311
  0
ARC
  8
LY_1
  6
CONTINUOUS
 62
     3
  5
BF
 10
117.322418
 20
50.518143
 30
0.0
 40
4.0
 50
299.999957
 51
359.999909
  0
ARC
  8
LY_1
  6
CONTINUOUS
 62
     3
  5
C0
 10
82.758133
 20
62.484863
 30
0.0
 40
4.0
 50
0.500061
 51
37.354342
  0
ARC
  8
LY_1
  6
CONTINUOUS
 62
     3
  5
C1
 10
88.322418
 20
66.732056
 30
0.0
 40
3.0
 50
180.000036
 51
217.354341
  0
ARC
  8
LY_1
  6
CONTINUOUS
 62
     3
  5
C2
 10
89.322418
 20
116.830307
 30
0.0
 40
20.0
 50
293.578159
 51
0.000019
  0
ARC
  8
LY_1
  6
CONTINUOUS
 62
     3
  5
C3
 10
158.322418
 20
116.830307
 30
0.0
 40
20.0
 50
179.999981
 51
246.421822
  0
ARC
  8
LY_1
  6
CONTINUOUS
 62
     3
  5
C4
 10
164.886703
 20
62.484863
 30
0.0
 40
4.0
 50
142.645659
 51
179.49994
  0
ARC
  8
LY_1
  6
CONTINUOUS
 62
     3
  5
C5
 10
159.322418
 20
66.732056
 30
0.0
 40
3.0
 50
322.645678
 51
359.999954
  0
CIRCLE
  8
LY_1
  6
CONTINUOUS
 62
     3
  5
C6
 10
123.822418
 20
0.0
 30
0.0
 40
36.100006
  0
CIRCLE
  8
LY_1
  6
CONTINUOUS
 62
   110
  5
C7
 10
123.822418
 20
0.0
 30
0.0
 40
37.600006
  0
ARC
  8
LY_1
  6
CONTINUOUS
 62
     3
  5
C8
 10
83.76062
 20
179.0
 30
0.0
 40
8.0
 50
46.219272
 51
137.72153
  0
ARC
  8
LY_1
  6
CONTINUOUS
 62
     3
  5
C9
 10
86.674408
 20
176.259598
 30
0.0
 40
12.0
 50
137.40073
 51
167.301167
  0
ARC
  8
LY_1
  6
CONTINUOUS
 62
     3
  5
CA
 10
128.542557
 20
166.45871
 30
0.0
 40
55.0
 50
166.926763
 51
174.217581
  0
ARC
  8
LY_1
  6
CONTINUOUS
 62
     3
  5
CB
 10
163.884216
 20
179.0
 30
0.0
 40
8.0
 50
42.278444
 51
133.78073
  0
ARC
  8
LY_1
  6
CONTINUOUS
 62
     3
  5
CC
 10
160.970428
 20
176.259598
 30
0.0
 40
12.0
 50
12.698848
 51
42.599244
  0
ARC
  8
LY_1
  6
CONTINUOUS
 62
     3
  5
CD
 10
119.10228
 20
166.45871
 30
0.0
 40
55.0
 50
5.782404
 51
13.073225
  0
ARC
  8
LY_1
  6
CONTINUOUS
 62
     3
  5
CE
 10
114.822418
 20
176.5
 30
0.0
 40
1.0
 50
270.000018
 51
359.999981
  0
ARC
  8
LY_1
  6
CONTINUOUS
 62
     3
  5
CF
 10
94.831024
 20
179.0
 30
0.0
 40
8.0
 50
38.682186
 51
137.72153
  0
ARC
  8
LY_1
  6
CONTINUOUS
 62
     3
  5
D0
 10
97.744812
 20
176.259598
 30
0.0
 40
12.0
 50
137.40073
 51
167.301167
  0
ARC
  8
LY_1
  6
CONTINUOUS
 62
     3
  5
D1
 10
139.612961
 20
166.45871
 30
0.0
 40
55.0
 50
166.926763
 51
174.217581
  0
ARC
  8
LY_1
  6
CONTINUOUS
 62
     3
  5
D2
 10
101.539658
 20
176.5
 30
0.0
 40
1.0
 50
180.000019
 51
270.000001
  0
ARC
  8
LY_1
  6
CONTINUOUS
 62
     3
  5
D3
 10
102.539658
 20
179.0
 30
0.0
 40
2.0
 50
90.000037
 51
180.000019
  0
ARC
  8
LY_1
  6
CONTINUOUS
 62
     3
  5
D4
 10
84.495728
 20
176.5
 30
0.0
 40
1.0
 50
180.000019
 51
270.000001
  0
ARC
  8
LY_1
  6
CONTINUOUS
 62
     3
  5
D5
 10
85.495728
 20
179.0
 30
0.0
 40
2.0
 50
90.000037
 51
180.000019
  0
ARC
  8
LY_1
  6
CONTINUOUS
 62
     3
  5
D6
 10
132.822418
 20
176.5
 30
0.0
 40
1.0
 50
180.000019
 51
270.000001
  0
ARC
  8
LY_1
  6
CONTINUOUS
 62
     3
  5
D7
 10
123.822418
 20
179.0
 30
0.0
 40
8.0
 50
0.0
 51
180.000019
  0
ARC
  8
LY_1
  6
CONTINUOUS
 62
     3
  5
D8
 10
152.813812
 20
179.0
 30
0.0
 40
8.0
 50
42.278444
 51
141.317816
  0
ARC
  8
LY_1
  6
CONTINUOUS
 62
     3
  5
D9
 10
149.900024
 20
176.259598
 30
0.0
 40
12.0
 50
12.698848
 51
42.599244
  0
ARC
  8
LY_1
  6
CONTINUOUS
 62
     3
  5
DA
 10
108.031876
 20
166.45871
 30
0.0
 40
55.0
 50
5.782404
 51
13.073225
  0
ARC
  8
LY_1
  6
CONTINUOUS
 62
     3
  5
DB
 10
146.105179
 20
176.5
 30
0.0
 40
1.0
 50
270.000018
 51
0.0
  0
ARC
  8
LY_1
  6
CONTINUOUS
 62
     3
  5
DC
 10
145.105179
 20
179.0
 30
0.0
 40
2.0
 50
0.0
 51
89.999982
  0
ARC
  8
LY_1
  6
CONTINUOUS
 62
     3
  5
DD
 10
163.149109
 20
176.5
 30
0.0
 40
1.0
 50
270.000018
 51
0.0
  0
ARC
  8
LY_1
  6
CONTINUOUS
 62
     3
  5
DE
 10
162.149109
 20
179.0
 30
0.0
 40
2.0
 50
0.0
 51
89.999982
  0
ARC
  8
LY_1
  6
CONTINUOUS
 62
     3
  5
DF
 10
-40.061798
 20
179.0
 30
0.0
 40
8.0
 50
46.219272
 51
137.72153
  0
ARC
  8
LY_1
  6
CONTINUOUS
 62
     3
  5
E0
 10
-37.14801
 20
176.259598
 30
0.0
 40
12.0
 50
137.40073
 51
167.301167
  0
ARC
  8
LY_1
  6
CONTINUOUS
 62
     3
  5
E1
 10
4.720143
 20
166.45871
 30
0.0
 40
55.0
 50
166.926763
 51
174.217581
  0
ARC
  8
LY_1
  6
CONTINUOUS
 62
     3
  5
E2
 10
40.061798
 20
179.0
 30
0.0
 40
8.0
 50
42.278444
 51
133.78073
  0
ARC
  8
LY_1
  6
CONTINUOUS
 62
     3
  5
E3
 10
37.14801
 20
176.259598
 30
0.0
 40
12.0
 50
12.698848
 51
42.599244
  0
ARC
  8
LY_1
  6
CONTINUOUS
 62
     3
  5
E4
 10
-4.720143
 20
166.45871
 30
0.0
 40
55.0
 50
5.782404
 51
13.073225
  0
ARC
  8
LY_1
  6
CONTINUOUS
 62
     3
  5
E5
 10
-9.0
 20
176.5
 30
0.0
 40
1.0
 50
270.000018
 51
359.999981
  0
ARC
  8
LY_1
  6
CONTINUOUS
 62
     3
  5
E6
 10
-28.991394
 20
179.0
 30
0.0
 40
8.0
 50
38.682186
 51
137.72153
  0
ARC
  8
LY_1
  6
CONTINUOUS
 62
     3
  5
E7
 10
-26.077606
 20
176.259598
 30
0.0
 40
12.0
 50
137.40073
 51
167.301167
  0
ARC
  8
LY_1
  6
CONTINUOUS
 62
     3
  5
E8
 10
15.790547
 20
166.45871
 30
0.0
 40
55.0
 50
166.926763
 51
174.217581
  0
ARC
  8
LY_1
  6
CONTINUOUS
 62
     3
  5
E9
 10
-22.282761
 20
176.5
 30
0.0
 40
1.0
 50
180.000019
 51
270.000001
  0
ARC
  8
LY_1
  6
CONTINUOUS
 62
     3
  5
EA
 10
-21.282761
 20
179.0
 30
0.0
 40
2.0
 50
90.000037
 51
180.000019
  0
ARC
  8
LY_1
  6
CONTINUOUS
 62
     3
  5
EB
 10
-39.326691
 20
176.5
 30
0.0
 40
1.0
 50
180.000019
 51
270.000001
  0
ARC
  8
LY_1
  6
CONTINUOUS
 62
     3
  5
EC
 10
-38.326691
 20
179.0
 30
0.0
 40
2.0
 50
90.000037
 51
180.000019
  0
ARC
  8
LY_1
  6
CONTINUOUS
 62
     3
  5
ED
 10
9.0
 20
176.5
 30
0.0
 40
1.0
 50
180.000019
 51
270.000001
  0
ARC
  8
LY_1
  6
CONTINUOUS
 62
     3
  5
EE
 10
0.0
 20
179.0
 30
0.0
 40
8.0
 50
0.0
 51
180.000019
  0
ARC
  8
LY_1
  6
CONTINUOUS
 62
     3
  5
EF
 10
28.991394
 20
179.0
 30
0.0
 40
8.0
 50
42.278444
 51
141.317816
  0
ARC
  8
LY_1
  6
CONTINUOUS
 62
     3
  5
F0
 10
26.077606
 20
176.259598
 30
0.0
 40
12.0
 50
12.698848
 51
42.599244
  0
ARC
  8
LY_1
  6
CONTINUOUS
 62
     3
  5
F1
 10
-15.790547
 20
166.45871
 30
0.0
 40
55.0
 50
5.782404
 51
13.073225
  0
ARC
  8
LY_1
  6
CONTINUOUS
 62
     3
  5
F2
 10
22.282761
 20
176.5
 30
0.0
 40
1.0
 50
270.000018
 51
0.0
  0
ARC
  8
LY_1
  6
CONTINUOUS
 62
     3
  5
F3
 10
21.282761
 20
179.0
 30
0.0
 40
2.0
 50
0.0
 51
89.999982
  0
ARC
  8
LY_1
  6
CONTINUOUS
 62
     3
  5
F4
 10
39.326691
 20
176.5
 30
0.0
 40
1.0
 50
270.000018
 51
0.0
  0
ARC
  8
LY_1
  6
CONTINUOUS
 62
     3
  5
F5
 10
38.326691
 20
179.0
 30
0.0
 40
2.0
 50
0.0
 51
89.999982
  0
ARC
  8
LY_1
  6
CONTINUOUS
 62
     3
  5
F6
 10
0.0
 20
270.725586
 30
0.0
 40
31.0
 50
283.185452
 51
346.815204
  0
ARC
  8
LY_1
  6
CONTINUOUS
 62
     3
  5
F7
 10
0.0
 20
270.725586
 30
0.0
 40
31.0
 50
193.165198
 51
256.83267
  0
ARC
  8
LY_1
  6
CONTINUOUS
 62
     3
  5
F8
 10
0.0
 20
270.725586
 30
0.0
 40
31.0
 50
103.181646
 51
166.832671
  0
CIRCLE
  8
LY_1
  6
CONTINUOUS
 62
   110
  5
F9
 10
0.0
 20
270.725586
 30
0.0
 40
3.15
  0
CIRCLE
  8
LY_1
  6
CONTINUOUS
 62
     3
  5
FA
 10
0.0
 20
270.725586
 30
0.0
 40
4.0
  0
ARC
  8
LY_1
  6
CONTINUOUS
 62
     3
  5
FB
 10
-6.842773
 20
241.516357
 30
0.0
 40
1.0
 50
256.811688
 51
4.108386
  0
ARC
  8
LY_1
  6
CONTINUOUS
 62
     3
  5
FC
 10
6.842529
 20
241.516357
 30
0.0
 40
1.0
 50
175.891851
 51
283.179315
  0
ARC
  8
LY_1
  6
CONTINUOUS
 62
     3
  5
FD
 10
-29.209229
 20
277.568359
 30
0.0
 40
1.0
 50
166.811688
 51
274.108387
  0
ARC
  8
LY_1
  6
CONTINUOUS
 62
     3
  5
FE
 10
-29.209229
 20
263.883057
 30
0.0
 40
1.0
 50
85.891869
 51
192.676194
  0
ARC
  8
LY_1
  6
CONTINUOUS
 62
     3
  5
FF
 10
6.842773
 20
299.934814
 30
0.0
 40
1.0
 50
76.811706
 51
184.108405
  0
ARC
  8
LY_1
  6
CONTINUOUS
 62
     3
  5
100
 10
-6.842529
 20
299.934814
 30
0.0
 40
1.0
 50
355.89185
 51
103.150063
  0
ARC
  8
LY_1
  6
CONTINUOUS
 62
     3
  5
101
 10
29.209198
 20
263.882813
 30
0.0
 40
1.0
 50
346.811694
 51
94.108423
  0
ARC
  8
LY_1
  6
CONTINUOUS
 62
     3
  5
102
 10
29.209213
 20
277.568115
 30
0.0
 40
1.0
 50
265.89185
 51
13.179359
  0
ARC
  8
LY_1
  6
CONTINUOUS
 62
     3
  5
103
 10
0.0
 20
270.725586
 30
0.0
 40
31.0
 50
13.184324
 51
76.832634
  0
ARC
  8
LY_1
  6
CONTINUOUS
 62
     3
  5
104
 10
33.046371
 20
250.972656
 30
0.0
 40
2.0
 50
149.131826
 51
224.999873
  0
ARC
  8
LY_1
  6
CONTINUOUS
 62
     3
  5
105
 10
37.334961
 20
261.325928
 30
0.0
 40
2.0
 50
89.997742
 51
165.865898
  0
ARC
  8
LY_1
  6
CONTINUOUS
 62
     3
  5
106
 10
0.0
 20
270.725586
 30
0.0
 40
36.5
 50
329.131845
 51
345.868485
  0
ARC
  8
LY_1
  6
CONTINUOUS
 62
     3
  5
107
 10
0.0
 20
270.725586
 30
0.0
 40
41.0
 50
325.398081
 51
349.602123
  0
ARC
  8
LY_1
  6
CONTINUOUS
 62
     3
  5
108
 10
82.732849
 20
236.456543
 30
0.0
 40
45.0
 50
140.608733
 51
174.391286
  0
ARC
  8
LY_1
  6
CONTINUOUS
 62
     3
  5
109
 10
28.991394
 20
241.734131
 30
0.0
 40
9.0
 50
275.544984
 51
354.391233
  0
ARC
  8
LY_1
  6
CONTINUOUS
 62
     3
  5
10A
 10
9.399915
 20
233.390869
 30
0.0
 40
2.0
 50
104.131807
 51
179.999855
  0
ARC
  8
LY_1
  6
CONTINUOUS
 62
     3
  5
10B
 10
19.75322
 20
237.679199
 30
0.0
 40
2.0
 50
44.997723
 51
120.86588
  0
ARC
  8
LY_1
  6
CONTINUOUS
 62
     3
  5
10C
 10
0.0
 20
270.725586
 30
0.0
 40
36.5
 50
284.131843
 51
300.868484
  0
ARC
  8
LY_1
  6
CONTINUOUS
 62
     3
  5
10D
 10
0.0
 20
270.725586
 30
0.0
 40
41.0
 50
280.398079
 51
304.602122
  0
ARC
  8
LY_1
  6
CONTINUOUS
 62
     3
  5
10E
 10
34.269043
 20
187.992676
 30
0.0
 40
45.0
 50
95.608715
 51
129.391268
  0
ARC
  8
LY_1
  6
CONTINUOUS
 62
     3
  5
10F
 10
0.000022
 20
229.725586
 30
0.0
 40
9.0
 50
230.544966
 51
309.391232
  0
ARC
  8
LY_1
  6
CONTINUOUS
 62
     3
  5
110
 10
-19.752899
 20
237.679199
 30
0.0
 40
2.0
 50
59.131789
 51
134.999836
  0
ARC
  8
LY_1
  6
CONTINUOUS
 62
     3
  5
111
 10
-9.399689
 20
233.390625
 30
0.0
 40
2.0
 50
359.997724
 51
75.865862
  0
ARC
  8
LY_1
  6
CONTINUOUS
 62
     3
  5
112
 10
0.0
 20
270.725586
 30
0.0
 40
36.5
 50
239.131825
 51
255.868466
  0
ARC
  8
LY_1
  6
CONTINUOUS
 62
     3
  5
113
 10
0.0
 20
270.725586
 30
0.0
 40
41.0
 50
235.398061
 51
259.60212
  0
ARC
  8
LY_1
  6
CONTINUOUS
 62
     3
  5
114
 10
-34.269104
 20
187.992706
 30
0.0
 40
45.0
 50
50.6087
 51
84.391249
  0
ARC
  8
LY_1
  6
CONTINUOUS
 62
     3
  5
115
 10
-28.991425
 20
241.734131
 30
0.0
 40
9.0
 50
185.544947
 51
264.391231
  0
ARC
  8
LY_1
  6
CONTINUOUS
 62
     3
  5
116
 10
-37.334717
 20
261.325684
 30
0.0
 40
2.0
 50
14.131791
 51
89.999818
  0
ARC
  8
LY_1
  6
CONTINUOUS
 62
     3
  5
117
 10
-33.046341
 20
250.972412
 30
0.0
 40
2.0
 50
314.997724
 51
30.865864
  0
ARC
  8
LY_1
  6
CONTINUOUS
 62
     3
  5
118
 10
0.0
 20
270.725586
 30
0.0
 40
36.5
 50
194.131807
 51
210.868448
  0
ARC
  8
LY_1
  6
CONTINUOUS
 62
     3
  5
119
 10
0.0
 20
270.725586
 30
0.0
 40
41.0
 50
190.398043
 51
214.602102
  0
ARC
  8
LY_1
  6
CONTINUOUS
 62
     3
  5
11A
 10
-82.73288
 20
236.456543
 30
0.0
 40
45.0
 50
5.608699
 51
39.391234
  0
ARC
  8
LY_1
  6
CONTINUOUS
 62
     3
  5
11B
 10
-41.000076
 20
270.725586
 30
0.0
 40
9.0
 50
140.544966
 51
219.39125
  0
ARC
  8
LY_1
  6
CONTINUOUS
 62
     3
  5
11C
 10
-33.046326
 20
290.478516
 30
0.0
 40
2.0
 50
329.13179
 51
44.9998
  0
ARC
  8
LY_1
  6
CONTINUOUS
 62
     3
  5
11D
 10
-37.33493
 20
280.125244
 30
0.0
 40
2.0
 50
269.997723
 51
345.865863
  0
ARC
  8
LY_1
  6
CONTINUOUS
 62
     3
  5
11E
 10
0.0
 20
270.725586
 30
0.0
 40
36.5
 50
149.131826
 51
165.868467
  0
ARC
  8
LY_1
  6
CONTINUOUS
 62
     3
  5
11F
 10
0.0
 20
270.725586
 30
0.0
 40
41.0
 50
145.398062
 51
169.602121
  0
ARC
  8
LY_1
  6
CONTINUOUS
 62
     3
  5
120
 10
-82.73291
 20
304.994629
 30
0.0
 40
45.0
 50
320.608697
 51
354.391233
  0
ARC
  8
LY_1
  6
CONTINUOUS
 62
     3
  5
121
 10
-28.991409
 20
299.717041
 30
0.0
 40
9.0
 50
95.544948
 51
174.391231
  0
ARC
  8
LY_1
  6
CONTINUOUS
 62
     3
  5
122
 10
-9.399851
 20
308.060303
 30
0.0
 40
2.0
 50
284.131789
 51
359.999801
  0
ARC
  8
LY_1
  6
CONTINUOUS
 62
     3
  5
123
 10
-19.753174
 20
303.771973
 30
0.0
 40
2.0
 50
224.997705
 51
300.865861
  0
ARC
  8
LY_1
  6
CONTINUOUS
 62
     3
  5
124
 10
0.0
 20
270.725586
 30
0.0
 40
36.5
 50
104.131807
 51
120.868448
  0
ARC
  8
LY_1
  6
CONTINUOUS
 62
     3
  5
125
 10
0.0
 20
270.725586
 30
0.0
 40
41.0
 50
100.398043
 51
124.602103
  0
ARC
  8
LY_1
  6
CONTINUOUS
 62
     3
  5
126
 10
-34.269089
 20
353.458496
 30
0.0
 40
45.0
 50
275.608696
 51
309.391232
  0
ARC
  8
LY_1
  6
CONTINUOUS
 62
     3
  5
127
 10
-0.000054
 20
311.725586
 30
0.0
 40
9.0
 50
50.544923
 51
129.391213
  0
ARC
  8
LY_1
  6
CONTINUOUS
 62
     3
  5
128
 10
19.752991
 20
303.771973
 30
0.0
 40
2.0
 50
239.13177
 51
314.999801
  0
ARC
  8
LY_1
  6
CONTINUOUS
 62
     3
  5
129
 10
9.399754
 20
308.060547
 30
0.0
 40
2.0
 50
179.997724
 51
255.86588
  0
ARC
  8
LY_1
  6
CONTINUOUS
 62
     3
  5
12A
 10
0.0
 20
270.725586
 30
0.0
 40
36.5
 50
59.131789
 51
75.86843
  0
ARC
  8
LY_1
  6
CONTINUOUS
 62
     3
  5
12B
 10
0.0
 20
270.725586
 30
0.0
 40
41.0
 50
55.398035
 51
79.602085
  0
ARC
  8
LY_1
  6
CONTINUOUS
 62
     3
  5
12C
 10
34.269104
 20
353.458496
 30
0.0
 40
45.0
 50
230.608678
 51
264.391231
  0
ARC
  8
LY_1
  6
CONTINUOUS
 62
     3
  5
12D
 10
28.991379
 20
299.717041
 30
0.0
 40
9.0
 50
5.544922
 51
84.391195
  0
ARC
  8
LY_1
  6
CONTINUOUS
 62
     3
  5
12E
 10
37.334854
 20
280.125488
 30
0.0
 40
2.0
 50
194.131752
 51
269.999799
  0
ARC
  8
LY_1
  6
CONTINUOUS
 62
     3
  5
12F
 10
33.046432
 20
290.47876
 30
0.0
 40
2.0
 50
134.997705
 51
210.865862
  0
ARC
  8
LY_1
  6
CONTINUOUS
 62
     3
  5
130
 10
0.0
 20
270.725586
 30
0.0
 40
36.5
 50
14.131805
 51
30.868449
  0
ARC
  8
LY_1
  6
CONTINUOUS
 62
     3
  5
131
 10
0.0
 20
270.725586
 30
0.0
 40
41.0
 50
10.398034
 51
34.602073
  0
ARC
  8
LY_1
  6
CONTINUOUS
 62
     3
  5
132
 10
82.732864
 20
304.994629
 30
0.0
 40
45.0
 50
185.608659
 51
219.391212
  0
ARC
  8
LY_1
  6
CONTINUOUS
 62
     3
  5
133
 10
41.0
 20
270.725586
 30
0.0
 40
9.0
 50
320.54492
 51
39.39121
  0
ARC
  8
LY_1
  6
CONTINUOUS
 62
     3
  5
134
 10
-34.5
 20
117.915451
 30
0.0
 40
20.0
 50
283.886558
 51
0.000019
  0
ARC
  8
LY_1
  6
CONTINUOUS
 62
     3
  5
135
 10
34.5
 20
117.915451
 30
0.0
 40
20.0
 50
179.999981
 51
256.113424
  0
ARC
  8
LY_1
  6
CONTINUOUS
 62
     3
  5
136
 10
-25.5
 20
50.199997
 30
0.0
 40
3.0
 50
270.000018
 51
359.999981
  0
ARC
  8
LY_1
  6
CONTINUOUS
 62
     3
  5
137
 10
-27.5
 20
52.875656
 30
0.0
 40
5.0
 50
0.000036
 51
60.000043
  0
ARC
  8
LY_1
  6
CONTINUOUS
 62
     3
  5
138
 10
-35.5
 20
66.732056
 30
0.0
 40
3.0
 50
180.000036
 51
240.000024
  0
ARC
  8
LY_1
  6
CONTINUOUS
 62
     3
  5
139
 10
25.5
 20
50.199997
 30
0.0
 40
3.0
 50
180.000019
 51
270.000001
  0
ARC
  8
LY_1
  6
CONTINUOUS
 62
     3
  5
13A
 10
27.5
 20
52.875656
 30
0.0
 40
5.0
 50
119.999976
 51
179.999964
  0
ARC
  8
LY_1
  6
CONTINUOUS
 62
     3
  5
13B
 10
35.5
 20
66.732056
 30
0.0
 40
3.0
 50
299.999957
 51
359.999954
  0
ARC
  8
LY_1
  6
CONTINUOUS
 62
     3
  5
13C
 10
-11.456439
 20
-45.0
 30
0.0
 40
8.0
 50
75.081319
 51
89.710874
  0
ARC
  8
LY_1
  6
CONTINUOUS
 62
     3
  5
13D
 10
-11.375702
 20
-45.0
 30
0.0
 40
8.0
 50
90.289145
 51
134.048637
  0
ARC
  8
LY_1
  6
CONTINUOUS
 62
     3
  5
13E
 10
-22.5
 20
-33.5
 30
0.0
 40
8.0
 50
269.999963
 51
314.048635
  0
ARC
  8
LY_1
  6
CONTINUOUS
 62
     3
  5
13F
 10
-23.987839
 20
-44.5
 30
0.0
 40
3.0
 50
89.999873
 51
154.999942
  0
ARC
  8
LY_1
  6
CONTINUOUS
 62
     3
  5
140
 10
11.456439
 20
-45.0
 30
0.0
 40
8.0
 50
90.289145
 51
104.9187
  0
ARC
  8
LY_1
  6
CONTINUOUS
 62
     3
  5
141
 10
11.375702
 20
-45.0
 30
0.0
 40
8.0
 50
45.951375
 51
89.710874
  0
ARC
  8
LY_1
  6
CONTINUOUS
 62
     3
  5
142
 10
0.0
 20
-2.0
 30
0.0
 40
36.5
 50
255.0813
 51
284.918736
  0
ARC
  8
LY_1
  6
CONTINUOUS
 62
     3
  5
143
 10
22.5
 20
-33.5
 30
0.0
 40
8.0
 50
225.951363
 51
270.000018
  0
ARC
  8
LY_1
  6
CONTINUOUS
 62
     3
  5
144
 10
23.987839
 20
-44.5
 30
0.0
 40
3.0
 50
25.000053
 51
90.000146
  0
LINE
  8
LY_1
  6
CONTINUOUS
 62
     3
  5
145
 10
3.811783
 20
17.784973
 30
0.0
 11
3.534973
 21
17.784973
 31
0.0
  0
LINE
  8
LY_1
  6
CONTINUOUS
 62
     3
  5
146
 10
3.811356
 20
31.73587
 30
0.0
 11
3.534622
 21
31.73587
 31
0.0
  0
LINE
  8
LY_1
  6
CONTINUOUS
 62
     3
  5
147
 10
3.811356
 20
31.73587
 30
0.0
 11
3.811356
 21
29.657013
 31
0.0
  0
LINE
  8
LY_1
  6
CONTINUOUS
 62
     3
  5
148
 10
2.212036
 20
26.894424
 30
0.0
 11
2.212036
 21
23.857285
 31
0.0
  0
LINE
  8
LY_1
  6
CONTINUOUS
 62
     3
  5
149
 10
2.212036
 20
26.894424
 30
0.0
 11
-3.534897
 21
26.894424
 31
0.0
  0
LINE
  8
LY_1
  6
CONTINUOUS
 62
     3
  5
14A
 10
3.811356
 20
29.657013
 30
0.0
 11
-3.534897
 21
29.657013
 31
0.0
  0
LINE
  8
LY_1
  6
CONTINUOUS
 62
     3
  5
14B
 10
4.915726
 20
33.117126
 30
0.0
 11
4.915726
 21
23.857285
 31
0.0
  0
LINE
  8
LY_1
  6
CONTINUOUS
 62
     3
  5
14C
 10
3.811783
 20
17.784973
 30
0.0
 11
3.811783
 21
12.44223
 31
0.0
  0
LINE
  8
LY_1
  6
CONTINUOUS
 62
     3
  5
14D
 10
-4.916168
 20
19.698227
 30
0.0
 11
-4.916168
 21
10.351898
 31
0.0
  0
LINE
  8
LY_1
  6
CONTINUOUS
 62
     3
  5
14E
 10
-2.212265
 20
10.351898
 30
0.0
 11
-2.212265
 21
15.520233
 31
0.0
  0
LINE
  8
LY_1
  6
CONTINUOUS
 62
     3
  5
14F
 10
2.502666
 20
9.526195
 30
0.0
 11
-2.124564
 21
15.55127
 31
0.0
  0
LINE
  8
LY_1
  6
CONTINUOUS
 62
     3
  5
150
 10
3.723956
 20
12.411177
 30
0.0
 11
-2.502149
 21
20.518133
 31
0.0
  0
LINE
  8
LY_1
  6
CONTINUOUS
 62
     3
  5
151
 10
4.916199
 20
19.16626
 30
0.0
 11
4.916199
 21
10.346085
 31
0.0
  0
LINE
  8
LY_1
  6
CONTINUOUS
 62
     3
  5
152
 10
-3.534897
 20
39.237854
 30
0.0
 11
3.534973
 21
39.237854
 31
0.0
  0
LINE
  8
LY_1
  6
CONTINUOUS
 62
     3
  5
153
 10
3.534973
 20
36.475266
 30
0.0
 11
-3.534897
 21
36.475266
 31
0.0
  0
LINE
  8
LY_1
  6
CONTINUOUS
 62
     3
  5
154
 10
0.823399
 20
46.610192
 30
0.0
 11
2.817174
 21
43.682934
 31
0.0
  0
LINE
  8
LY_1
  6
CONTINUOUS
 62
     3
  5
155
 10
0.823418
 20
46.610132
 30
0.0
 11
-2.442373
 21
41.815302
 31
0.0
  0
LINE
  8
LY_1
  6
CONTINUOUS
 62
     3
  5
156
 10
0.040159
 20
50.178221
 30
0.0
 11
4.632013
 21
43.436468
 31
0.0
  0
LINE
  8
LY_1
  6
CONTINUOUS
 62
     3
  5
157
 10
-0.04043
 20
50.178148
 30
0.0
 11
-4.69255
 21
43.347913
 31
0.0
  0
LINE
  8
LY_1
  6
CONTINUOUS
 62
     3
  5
158
 10
3.53508
 20
50.237701
 30
0.0
 11
-3.535034
 21
50.237701
 31
0.0
  0
LINE
  8
LY_1
  6
CONTINUOUS
 62
     3
  5
159
 10
3.53508
 20
53.000153
 30
0.0
 11
-3.535034
 21
53.000153
 31
0.0
  0
LINE
  8
LY_1
  6
CONTINUOUS
 62
     3
  5
15A
 10
8.426469
 20
263.654897
 30
0.0
 11
9.958566
 21
262.369307
 31
0.0
  0
LINE
  8
LY_1
  6
CONTINUOUS
 62
     3
  5
15B
 10
9.063079
 20
266.4994
 30
0.0
 11
9.969371
 21
266.076785
 31
0.0
  0
LINE
  8
LY_1
  6
CONTINUOUS
 62
     3
  5
15C
 10
12.68831
 20
264.808928
 30
0.0
 11
11.78199
 21
265.231556
 31
0.0
  0
LINE
  8
LY_1
  6
CONTINUOUS
 62
     3
  5
15D
 10
11.817709
 20
268.641795
 30
0.0
 11
9.063086
 21
266.499401
 31
0.0
  0
LINE
  8
LY_1
  6
CONTINUOUS
 62
     3
  5
15E
 10
11.817668
 20
268.641875
 30
0.0
 11
12.688292
 21
264.808921
 31
0.0
  0
LINE
  8
LY_1
  6
CONTINUOUS
 62
     3
  5
15F
 10
-8.426481
 20
263.654887
 30
0.0
 11
-9.958578
 21
262.369297
 31
0.0
  0
LINE
  8
LY_1
  6
CONTINUOUS
 62
     3
  5
160
 10
-9.063099
 20
266.499407
 30
0.0
 11
-9.969405
 21
266.076786
 31
0.0
  0
LINE
  8
LY_1
  6
CONTINUOUS
 62
     3
  5
161
 10
-12.68831
 20
264.808928
 30
0.0
 11
-11.782004
 21
265.23155
 31
0.0
  0
LINE
  8
LY_1
  6
CONTINUOUS
 62
     3
  5
162
 10
-11.817709
 20
268.641795
 30
0.0
 11
-9.063086
 21
266.499401
 31
0.0
  0
LINE
  8
LY_1
  6
CONTINUOUS
 62
     3
  5
163
 10
-11.817682
 20
268.641878
 30
0.0
 11
-12.688307
 21
264.808925
 31
0.0
  0
LINE
  8
LY_1
  6
CONTINUOUS
 62
     3
  5
164
 10
2.672491
 20
283.225586
 30
0.0
 11
2.672491
 21
283.170654
 31
0.0
  0
LINE
  8
LY_1
  6
CONTINUOUS
 62
     3
  5
165
 10
3.378777
 20
283.288574
 30
0.0
 11
3.378777
 21
283.200684
 31
0.0
  0
LINE
  8
LY_1
  6
CONTINUOUS
 62
     3
  5
166
 10
-0.188163
 20
283.288574
 30
0.0
 11
-0.188163
 21
283.200439
 31
0.0
  0
LINE
  8
LY_1
  6
CONTINUOUS
 62
     3
  5
167
 10
-0.894427
 20
283.225342
 30
0.0
 11
-0.894427
 21
283.17041
 31
0.0
  0
LINE
  8
LY_1
  6
CONTINUOUS
 62
     3
  5
168
 10
-1.399995
 20
283.272461
 30
0.0
 11
-1.399995
 21
280.97876
 31
0.0
  0
LINE
  8
LY_1
  6
CONTINUOUS
 62
     3
  5
169
 10
-2.106257
 20
283.272461
 30
0.0
 11
-2.106257
 21
280.97876
 31
0.0
  0
LINE
  8
LY_1
  6
CONTINUOUS
 62
     3
  5
16A
 10
-2.609276
 20
283.225586
 30
0.0
 11
-2.609276
 21
283.200684
 31
0.0
  0
LINE
  8
LY_1
  6
CONTINUOUS
 62
     3
  5
16B
 10
-0.188163
 20
283.288574
 30
0.0
 11
0.343388
 21
283.288574
 31
0.0
  0
LINE
  8
LY_1
  6
CONTINUOUS
 62
     3
  5
16C
 10
1.049718
 20
282.800537
 30
0.0
 11
1.759447
 21
282.800537
 31
0.0
  0
LINE
  8
LY_1
  6
CONTINUOUS
 62
     3
  5
16D
 10
1.049718
 20
282.800537
 30
0.0
 11
1.049718
 21
280.97876
 31
0.0
  0
LINE
  8
LY_1
  6
CONTINUOUS
 62
     3
  5
16E
 10
0.343388
 20
283.288574
 30
0.0
 11
0.343388
 21
280.97876
 31
0.0
  0
LINE
  8
LY_1
  6
CONTINUOUS
 62
     3
  5
16F
 10
-0.494428
 20
283.625488
 30
0.0
 11
1.759447
 21
283.625488
 31
0.0
  0
LINE
  8
LY_1
  6
CONTINUOUS
 62
     3
  5
170
 10
3.378777
 20
283.288574
 30
0.0
 11
4.743478
 21
283.288574
 31
0.0
  0
LINE
  8
LY_1
  6
CONTINUOUS
 62
     3
  5
171
 10
2.971277
 20
280.625488
 30
0.0
 11
5.212488
 21
280.625488
 31
0.0
  0
LINE
  8
LY_1
  6
CONTINUOUS
 62
     3
  5
172
 10
5.212488
 20
281.450684
 30
0.0
 11
3.959329
 21
281.450684
 31
0.0
  0
LINE
  8
LY_1
  6
CONTINUOUS
 62
     3
  5
173
 10
5.486871
 20
282.885862
 30
0.0
 11
3.949213
 21
281.476637
 31
0.0
  0
LINE
  8
LY_1
  6
CONTINUOUS
 62
     3
  5
174
 10
4.753605
 20
283.262508
 30
0.0
 11
2.680599
 21
281.362651
 31
0.0
  0
LINE
  8
LY_1
  6
CONTINUOUS
 62
     3
  5
175
 10
3.07251
 20
283.625488
 30
0.0
 11
5.199193
 21
283.625488
 31
0.0
  0
LINE
  8
LY_1
  6
CONTINUOUS
 62
     3
  5
176
 10
-3.991216
 20
282.376786
 30
0.0
 11
-3.263866
 21
282.967968
 31
0.0
  0
LINE
  8
LY_1
  6
CONTINUOUS
 62
     3
  5
177
 10
-3.991248
 20
282.376781
 30
0.0
 11
-2.721123
 21
281.344439
 31
0.0
  0
LINE
  8
LY_1
  6
CONTINUOUS
 62
     3
  5
178
 10
-4.903503
 20
282.137825
 30
0.0
 11
-3.163519
 21
283.552062
 31
0.0
  0
LINE
  8
LY_1
  6
CONTINUOUS
 62
     3
  5
179
 10
-4.90351
 20
282.113248
 30
0.0
 11
-3.213022
 21
280.739239
 31
0.0
  0
LINE
  8
LY_1
  6
CONTINUOUS
 62
     3
  5
17A
 10
-4.918737
 20
283.272461
 30
0.0
 11
-4.918737
 21
280.97876
 31
0.0
  0
LINE
  8
LY_1
  6
CONTINUOUS
 62
     3
  5
17B
 10
-5.625023
 20
283.272461
 30
0.0
 11
-5.625023
 21
280.97876
 31
0.0
  0
LINE
  8
LY_1
  6
CONTINUOUS
 62
     3
  5
17C
 10
-11.99112
 20
271.432462
 30
0.0
 11
-12.256086
 21
269.929765
 31
0.0
  0
LINE
  8
LY_1
  6
CONTINUOUS
 62
     3
  5
17D
 10
-11.69566
 20
271.380364
 30
0.0
 11
-11.960626
 21
269.877667
 31
0.0
  0
LINE
  8
LY_1
  6
CONTINUOUS
 62
     3
  5
17E
 10
-22.5
 20
61.0
 30
0.0
 11
-22.5
 21
25.963882
 31
0.0
  0
LINE
  8
LY_1
  6
CONTINUOUS
 62
     3
  5
17F
 10
-15.299786
 20
244.225586
 30
0.0
 11
-27.140942
 21
264.735069
 31
0.0
  0
LINE
  8
LY_1
  6
CONTINUOUS
 62
     3
  5
180
 10
-9.814953
 20
253.725577
 30
0.0
 11
-15.696721
 21
263.913097
 31
0.0
  0
LINE
  8
LY_1
  6
CONTINUOUS
 62
     3
  5
181
 10
-6.034618
 20
244.225586
 30
0.0
 11
-15.299783
 21
244.225586
 31
0.0
  0
LINE
  8
LY_1
  6
CONTINUOUS
 62
     3
  5
182
 10
-6.716942
 20
253.725586
 30
0.0
 11
-9.814955
 21
253.725586
 31
0.0
  0
LINE
  8
LY_1
  6
CONTINUOUS
 62
     3
  5
183
 10
-15.299786
 20
297.225572
 30
0.0
 11
-27.140942
 21
276.716088
 31
0.0
  0
LINE
  8
LY_1
  6
CONTINUOUS
 62
     3
  5
184
 10
-9.814953
 20
287.72558
 30
0.0
 11
-15.696721
 21
277.538061
 31
0.0
  0
LINE
  8
LY_1
  6
CONTINUOUS
 62
     3
  5
185
 10
-6.034618
 20
297.225586
 30
0.0
 11
-15.299783
 21
297.225586
 31
0.0
  0
LINE
  8
LY_1
  6
CONTINUOUS
 62
     3
  5
186
 10
-6.716942
 20
287.725586
 30
0.0
 11
-9.814955
 21
287.725586
 31
0.0
  0
LINE
  8
LY_1
  6
CONTINUOUS
 62
     3
  5
187
 10
15.299786
 20
244.225586
 30
0.0
 11
27.140942
 21
264.735069
 31
0.0
  0
LINE
  8
LY_1
  6
CONTINUOUS
 62
     3
  5
188
 10
9.814953
 20
253.725577
 30
0.0
 11
15.696721
 21
263.913097
 31
0.0
  0
LINE
  8
LY_1
  6
CONTINUOUS
 62
     3
  5
189
 10
6.034618
 20
244.225586
 30
0.0
 11
15.299783
 21
244.225586
 31
0.0
  0
LINE
  8
LY_1
  6
CONTINUOUS
 62
     3
  5
18A
 10
6.716942
 20
253.725586
 30
0.0
 11
9.814955
 21
253.725586
 31
0.0
  0
LINE
  8
LY_1
  6
CONTINUOUS
 62
     3
  5
18B
 10
15.299786
 20
297.225572
 30
0.0
 11
27.140942
 21
276.716088
 31
0.0
  0
LINE
  8
LY_1
  6
CONTINUOUS
 62
     3
  5
18C
 10
9.814953
 20
287.72558
 30
0.0
 11
15.696721
 21
277.538061
 31
0.0
  0
LINE
  8
LY_1
  6
CONTINUOUS
 62
     3
  5
18D
 10
6.034618
 20
297.225586
 30
0.0
 11
15.299783
 21
297.225586
 31
0.0
  0
LINE
  8
LY_1
  6
CONTINUOUS
 62
     3
  5
18E
 10
6.716942
 20
287.725586
 30
0.0
 11
9.814955
 21
287.725586
 31
0.0
  0
LINE
  8
LY_1
  6
CONTINUOUS
 62
     3
  5
18F
 10
84.822412
 20
84.843009
 30
0.0
 11
162.822412
 21
84.843085
 31
0.0
  0
LINE
  8
LY_1
  6
CONTINUOUS
 62
     3
  5
190
 10
126.322418
 20
61.0
 30
0.0
 11
126.322418
 21
50.518143
 31
0.0
  0
LINE
  8
LY_1
  6
CONTINUOUS
 62
     3
  5
191
 10
-39.0
 20
85.523224
 30
0.0
 11
39.0
 21
85.523224
 31
0.0
  0
LINE
  8
LY_1
  6
CONTINUOUS
 62
     3
  5
192
 10
123.822418
 20
98.5
 30
0.0
 11
123.822418
 21
87.5
 31
0.0
  0
LINE
  8
LY_1
  6
CONTINUOUS
 62
     3
  5
193
 10
123.822418
 20
148.699997
 30
0.0
 11
123.822418
 21
128.699997
 31
0.0
  0
LINE
  8
LY_1
  6
CONTINUOUS
 62
     3
  5
194
 10
121.322418
 20
61.0
 30
0.0
 11
121.322418
 21
50.518143
 31
0.0
  0
LINE
  8
LY_1
  6
CONTINUOUS
 62
     3
  5
195
 10
-34.5
 20
60.38121
 30
0.0
 11
-34.5
 21
51.199997
 31
0.0
  0
LINE
  8
LY_1
  6
CONTINUOUS
 62
     3
  5
196
 10
36.499997
 20
63.845304
 30
0.0
 11
36.999994
 21
64.133977
 31
0.0
  0
LINE
  8
LY_1
  6
CONTINUOUS
 62
     3
  5
197
 10
34.5
 20
60.38121
 30
0.0
 11
34.5
 21
51.199997
 31
0.0
  0
LINE
  8
LY_1
  6
CONTINUOUS
 62
     3
  5
198
 10
-29.0
 20
227.725586
 30
0.0
 11
-29.0
 21
232.683105
 31
0.0
  0
LINE
  8
LY_1
  6
CONTINUOUS
 62
     3
  5
199
 10
-22.5
 20
229.225586
 30
0.0
 11
-26.401917
 21
229.225586
 31
0.0
  0
LINE
  8
LY_1
  6
CONTINUOUS
 62
     3
  5
19A
 10
-29.0
 20
227.725586
 30
0.0
 11
-41.0
 21
227.725586
 31
0.0
  0
LINE
  8
LY_1
  6
CONTINUOUS
 62
     3
  5
19B
 10
-41.0
 20
227.725586
 30
0.0
 11
-41.0
 21
253.290039
 31
0.0
  0
LINE
  8
LY_1
  6
CONTINUOUS
 62
     3
  5
19C
 10
29.0
 20
227.725586
 30
0.0
 11
29.0
 21
232.683105
 31
0.0
  0
LINE
  8
LY_1
  6
CONTINUOUS
 62
     3
  5
19D
 10
22.5
 20
229.225586
 30
0.0
 11
26.401917
 21
229.225586
 31
0.0
  0
LINE
  8
LY_1
  6
CONTINUOUS
 62
     3
  5
19E
 10
29.0
 20
227.725586
 30
0.0
 11
41.0
 21
227.725586
 31
0.0
  0
LINE
  8
LY_1
  6
CONTINUOUS
 62
     3
  5
19F
 10
41.0
 20
227.725586
 30
0.0
 11
41.0
 21
253.290039
 31
0.0
  0
LINE
  8
LY_1
  6
CONTINUOUS
 62
     3
  5
1A0
 10
-29.0
 20
313.725586
 30
0.0
 11
-29.0
 21
308.768066
 31
0.0
  0
LINE
  8
LY_1
  6
CONTINUOUS
 62
     3
  5
1A1
 10
-22.5
 20
312.225586
 30
0.0
 11
-26.401917
 21
312.225586
 31
0.0
  0
LINE
  8
LY_1
  6
CONTINUOUS
 62
     3
  5
1A2
 10
-29.0
 20
313.725586
 30
0.0
 11
-41.0
 21
313.725586
 31
0.0
  0
LINE
  8
LY_1
  6
CONTINUOUS
 62
     3
  5
1A3
 10
-41.0
 20
313.725586
 30
0.0
 11
-41.0
 21
288.161133
 31
0.0
  0
LINE
  8
LY_1
  6
CONTINUOUS
 62
     3
  5
1A4
 10
29.0
 20
313.725586
 30
0.0
 11
29.0
 21
308.768066
 31
0.0
  0
LINE
  8
LY_1
  6
CONTINUOUS
 62
     3
  5
1A5
 10
22.5
 20
312.225586
 30
0.0
 11
26.401917
 21
312.225586
 31
0.0
  0
LINE
  8
LY_1
  6
CONTINUOUS
 62
     3
  5
1A6
 10
29.0
 20
313.725586
 30
0.0
 11
41.0
 21
313.725586
 31
0.0
  0
LINE
  8
LY_1
  6
CONTINUOUS
 62
     3
  5
1A7
 10
41.0
 20
313.725586
 30
0.0
 11
41.0
 21
288.161133
 31
0.0
  0
LINE
  8
LY_1
  6
CONTINUOUS
 62
     3
  5
1A8
 10
-29.0
 20
24.826065
 30
0.0
 11
-41.0
 21
24.826065
 31
0.0
  0
LINE
  8
LY_1
  6
CONTINUOUS
 62
     3
  5
1A9
 10
29.0
 20
24.826065
 30
0.0
 11
41.0
 21
24.826065
 31
0.0
  0
LINE
  8
LY_1
  6
CONTINUOUS
 62
     3
  5
1AA
 10
-29.0
 20
-24.826065
 30
0.0
 11
-41.0
 21
-24.826065
 31
0.0
  0
LINE
  8
LY_1
  6
CONTINUOUS
 62
     3
  5
1AB
 10
29.0
 20
-24.826065
 30
0.0
 11
41.0
 21
-24.826065
 31
0.0
  0
LINE
  8
LY_1
  6
CONTINUOUS
 62
     3
  5
1AC
 10
119.575211
 20
47.199997
 30
0.0
 11
128.069626
 21
47.199997
 31
0.0
  0
LINE
  8
LY_1
  6
CONTINUOUS
 62
     3
  5
1AD
 10
85.322418
 20
77.0
 30
0.0
 11
85.322418
 21
66.732056
 31
0.0
  0
LINE
  8
LY_1
  6
CONTINUOUS
 62
     3
  5
1AE
 10
86.757938
 20
62.519807
 30
0.0
 11
87.055481
 21
28.424776
 31
0.0
  0
LINE
  8
LY_1
  6
CONTINUOUS
 62
     3
  5
1AF
 10
97.322452
 20
87.499967
 30
0.0
 11
84.822428
 21
84.843005
 31
0.0
  0
LINE
  8
LY_1
  6
CONTINUOUS
 62
     3
  5
1B0
 10
97.322418
 20
98.5
 30
0.0
 11
97.322418
 21
87.5
 31
0.0
  0
LINE
  8
LY_1
  6
CONTINUOUS
 62
     3
  5
1B1
 10
109.322418
 20
128.699997
 30
0.0
 11
109.322418
 21
116.830307
 31
0.0
  0
LINE
  8
LY_1
  6
CONTINUOUS
 62
     3
  5
1B2
 10
84.822418
 20
84.843002
 30
0.0
 11
84.822418
 21
77.0
 31
0.0
  0
LINE
  8
LY_1
  6
CONTINUOUS
 62
     3
  5
1B3
 10
150.322461
 20
87.50003
 30
0.0
 11
162.822425
 21
84.843081
 31
0.0
  0
LINE
  8
LY_1
  6
CONTINUOUS
 62
     3
  5
1B4
 10
150.322418
 20
98.5
 30
0.0
 11
150.322418
 21
87.5
 31
0.0
  0
LINE
  8
LY_1
  6
CONTINUOUS
 62
   110
  5
1B5
 10
110.172424
 20
128.699997
 30
0.0
 11
110.172424
 21
119.0
 31
0.0
  0
LINE
  8
LY_1
  6
CONTINUOUS
 62
   110
  5
1B6
 10
137.472412
 20
128.699997
 30
0.0
 11
137.472412
 21
119.0
 31
0.0
  0
LINE
  8
LY_1
  6
CONTINUOUS
 62
     3
  5
1B7
 10
138.322418
 20
128.699997
 30
0.0
 11
138.322418
 21
116.830307
 31
0.0
  0
LINE
  8
LY_1
  6
CONTINUOUS
 62
     3
  5
1B8
 10
109.322418
 20
119.0
 30
0.0
 11
138.322418
 21
119.0
 31
0.0
  0
LINE
  8
LY_1
  6
CONTINUOUS
 62
     3
  5
1B9
 10
97.322418
 20
98.5
 30
0.0
 11
150.322418
 21
98.5
 31
0.0
  0
LINE
  8
LY_1
  6
CONTINUOUS
 62
     3
  5
1BA
 10
97.322418
 20
87.5
 30
0.0
 11
150.322418
 21
87.5
 31
0.0
  0
LINE
  8
LY_1
  6
CONTINUOUS
 62
     3
  5
1BB
 10
86.519653
 20
65.0
 30
0.0
 11
161.125183
 21
65.0
 31
0.0
  0
LINE
  8
LY_1
  6
CONTINUOUS
 62
     3
  5
1BC
 10
162.322418
 20
77.0
 30
0.0
 11
162.322418
 21
66.732056
 31
0.0
  0
LINE
  8
LY_1
  6
CONTINUOUS
 62
     3
  5
1BD
 10
162.822418
 20
84.843079
 30
0.0
 11
162.822418
 21
77.0
 31
0.0
  0
LINE
  8
LY_1
  6
CONTINUOUS
 62
     3
  5
1BE
 10
84.822418
 20
77.0
 30
0.0
 11
162.822418
 21
77.0
 31
0.0
  0
LINE
  8
LY_1
  6
CONTINUOUS
 62
     3
  5
1BF
 10
84.822418
 20
81.5
 30
0.0
 11
162.822418
 21
81.5
 31
0.0
  0
LINE
  8
LY_1
  6
CONTINUOUS
 62
     3
  5
1C0
 10
15.299783
 20
98.5
 30
0.0
 11
15.299783
 21
87.5
 31
0.0
  0
LINE
  8
LY_1
  6
CONTINUOUS
 62
     3
  5
1C1
 10
-15.299783
 20
98.5
 30
0.0
 11
-15.299783
 21
87.5
 31
0.0
  0
LINE
  8
LY_1
  6
CONTINUOUS
 62
     3
  5
1C2
 10
160.886819
 20
62.519736
 30
0.0
 11
160.589276
 21
28.424706
 31
0.0
  0
LINE
  8
LY_1
  6
CONTINUOUS
 62
     3
  5
1C3
 10
80.822434
 20
24.826072
 30
0.0
 11
119.57522
 21
47.200004
 31
0.0
  0
LINE
  8
LY_1
  6
CONTINUOUS
 62
     3
  5
1C4
 10
123.822434
 20
-49.652112
 30
0.0
 11
166.822426
 21
-24.826054
 31
0.0
  0
LINE
  8
LY_1
  6
CONTINUOUS
 62
     3
  5
1C5
 10
128.322434
 20
47.054036
 30
0.0
 11
166.822426
 21
24.826054
 31
0.0
  0
LINE
  8
LY_1
  6
CONTINUOUS
 62
     3
  5
1C6
 10
80.822434
 20
-24.826072
 30
0.0
 11
123.822426
 21
-49.652129
 31
0.0
  0
LINE
  8
LY_1
  6
CONTINUOUS
 62
     3
  5
1C7
 10
166.822418
 20
24.826065
 30
0.0
 11
166.822418
 21
-24.826065
 31
0.0
  0
LINE
  8
LY_1
  6
CONTINUOUS
 62
     3
  5
1C8
 10
80.822418
 20
24.826065
 30
0.0
 11
80.822418
 21
-24.826065
 31
0.0
  0
LINE
  8
LY_1
  6
CENTER
 62
   110
  5
1CA
 10
69.170288
 20
0.0
 30
0.0
 11
178.474548
 21
0.0
 31
0.0
  0
LINE
  8
LY_1
  6
CENTER
 62
   110
  5
1CB
 10
123.822418
 20
192.0
 30
0.0
 11
123.822418
 21
-54.65213
 31
0.0
  0
LINE
  8
LY_1
  6
CONTINUOUS
 62
     3
  5
1CC
 10
115.822418
 20
179.0
 30
0.0
 11
115.822418
 21
176.5
 31
0.0
  0
LINE
  8
LY_1
  6
CONTINUOUS
 62
     3
  5
1CD
 10
85.361191
 20
175.5
 30
0.0
 11
84.495728
 21
175.5
 31
0.0
  0
LINE
  8
LY_1
  6
CONTINUOUS
 62
     3
  5
1CE
 10
85.632584
 20
177.0
 30
0.0
 11
83.495728
 21
177.0
 31
0.0
  0
LINE
  8
LY_1
  6
CONTINUOUS
 62
     3
  5
1CF
 10
86.72081
 20
181.0
 30
0.0
 11
85.495728
 21
181.0
 31
0.0
  0
LINE
  8
LY_1
  6
CONTINUOUS
 62
     3
  5
1D0
 10
84.892849
 20
171.99998
 30
0.0
 11
85.155316
 21
168.99998
 31
0.0
  0
LINE
  8
LY_1
  6
CONTINUOUS
 62
     3
  5
1D1
 10
100.539658
 20
179.0
 30
0.0
 11
100.539658
 21
176.5
 31
0.0
  0
LINE
  8
LY_1
  6
CONTINUOUS
 62
     3
  5
1D2
 10
117.577423
 20
184.0
 30
0.0
 11
101.076019
 21
184.0
 31
0.0
  0
LINE
  8
LY_1
  6
CONTINUOUS
 62
     3
  5
1D3
 10
116.076447
 20
181.0
 30
0.0
 11
102.539658
 21
181.0
 31
0.0
  0
LINE
  8
LY_1
  6
CONTINUOUS
 62
     3
  5
1D4
 10
115.822418
 20
177.0
 30
0.0
 11
100.539658
 21
177.0
 31
0.0
  0
LINE
  8
LY_1
  6
CONTINUOUS
 62
     3
  5
1D5
 10
114.822418
 20
175.5
 30
0.0
 11
101.539658
 21
175.5
 31
0.0
  0
LINE
  8
LY_1
  6
CONTINUOUS
 62
     3
  5
1D6
 10
83.495728
 20
179.0
 30
0.0
 11
83.495728
 21
176.5
 31
0.0
  0
LINE
  8
LY_1
  6
CONTINUOUS
 62
     3
  5
1D7
 10
73.822449
 20
171.999975
 30
0.0
 11
74.084915
 21
168.999975
 31
0.0
  0
LINE
  8
LY_1
  6
CONTINUOUS
 62
     3
  5
1D8
 10
113.728077
 20
161.800067
 30
0.0
 11
98.965892
 21
169.000066
 31
0.0
  0
LINE
  8
LY_1
  6
CONTINUOUS
 62
     3
  5
1D9
 10
113.350729
 20
168.999922
 30
0.0
 11
113.822398
 21
159.999929
 31
0.0
  0
LINE
  8
LY_1
  6
CONTINUOUS
 62
     3
  5
1DA
 10
131.822418
 20
179.0
 30
0.0
 11
131.822418
 21
176.5
 31
0.0
  0
LINE
  8
LY_1
  6
CONTINUOUS
 62
     3
  5
1DB
 10
162.283646
 20
175.5
 30
0.0
 11
163.149109
 21
175.5
 31
0.0
  0
LINE
  8
LY_1
  6
CONTINUOUS
 62
     3
  5
1DC
 10
162.012253
 20
177.0
 30
0.0
 11
164.149109
 21
177.0
 31
0.0
  0
LINE
  8
LY_1
  6
CONTINUOUS
 62
     3
  5
1DD
 10
160.924026
 20
181.0
 30
0.0
 11
162.149109
 21
181.0
 31
0.0
  0
LINE
  8
LY_1
  6
CONTINUOUS
 62
     3
  5
1DE
 10
162.752024
 20
172.000029
 30
0.0
 11
162.489558
 21
169.00003
 31
0.0
  0
LINE
  8
LY_1
  6
CONTINUOUS
 62
     3
  5
1DF
 10
147.105179
 20
179.0
 30
0.0
 11
147.105179
 21
176.5
 31
0.0
  0
LINE
  8
LY_1
  6
CONTINUOUS
 62
     3
  5
1E0
 10
130.067413
 20
184.0
 30
0.0
 11
146.568817
 21
184.0
 31
0.0
  0
LINE
  8
LY_1
  6
CONTINUOUS
 62
     3
  5
1E1
 10
131.56839
 20
181.0
 30
0.0
 11
145.105179
 21
181.0
 31
0.0
  0
LINE
  8
LY_1
  6
CONTINUOUS
 62
     3
  5
1E2
 10
131.822418
 20
177.0
 30
0.0
 11
147.105179
 21
177.0
 31
0.0
  0
LINE
  8
LY_1
  6
CONTINUOUS
 62
     3
  5
1E3
 10
132.822418
 20
175.5
 30
0.0
 11
146.105179
 21
175.5
 31
0.0
  0
LINE
  8
LY_1
  6
CONTINUOUS
 62
     3
  5
1E4
 10
164.149109
 20
179.0
 30
0.0
 11
164.149109
 21
176.5
 31
0.0
  0
LINE
  8
LY_1
  6
CONTINUOUS
 62
     3
  5
1E5
 10
173.822424
 20
172.000024
 30
0.0
 11
173.559958
 21
169.000024
 31
0.0
  0
LINE
  8
LY_1
  6
CONTINUOUS
 62
     3
  5
1E6
 10
73.822418
 20
172.0
 30
0.0
 11
173.822418
 21
172.0
 31
0.0
  0
LINE
  8
LY_1
  6
CONTINUOUS
 62
     3
  5
1E7
 10
133.916769
 20
161.79995
 30
0.0
 11
148.678957
 21
168.999949
 31
0.0
  0
LINE
  8
LY_1
  6
CONTINUOUS
 62
     3
  5
1E8
 10
74.084885
 20
169.0
 30
0.0
 11
173.559952
 21
169.0
 31
0.0
  0
LINE
  8
LY_1
  6
CONTINUOUS
 62
     3
  5
1E9
 10
134.29408
 20
169.00004
 30
0.0
 11
133.82241
 21
160.000047
 31
0.0
  0
LINE
  8
LY_1
  6
CONTINUOUS
 62
     3
  5
1EA
 10
113.822418
 20
160.0
 30
0.0
 11
133.822418
 21
160.0
 31
0.0
  0
LINE
  8
LY_1
  6
CONTINUOUS
 62
     3
  5
1EB
 10
-8.0
 20
179.0
 30
0.0
 11
-8.0
 21
176.5
 31
0.0
  0
LINE
  8
LY_1
  6
CONTINUOUS
 62
     3
  5
1EC
 10
-38.461227
 20
175.5
 30
0.0
 11
-39.326691
 21
175.5
 31
0.0
  0
LINE
  8
LY_1
  6
CONTINUOUS
 62
     3
  5
1ED
 10
-38.189835
 20
177.0
 30
0.0
 11
-40.326691
 21
177.0
 31
0.0
  0
LINE
  8
LY_1
  6
CONTINUOUS
 62
     3
  5
1EE
 10
-37.101608
 20
181.0
 30
0.0
 11
-38.326691
 21
181.0
 31
0.0
  0
LINE
  8
LY_1
  6
CONTINUOUS
 62
     3
  5
1EF
 10
-38.929595
 20
172.000012
 30
0.0
 11
-38.667129
 21
169.000012
 31
0.0
  0
LINE
  8
LY_1
  6
CONTINUOUS
 62
     3
  5
1F0
 10
-23.282761
 20
179.0
 30
0.0
 11
-23.282761
 21
176.5
 31
0.0
  0
LINE
  8
LY_1
  6
CONTINUOUS
 62
     3
  5
1F1
 10
-6.244998
 20
184.0
 30
0.0
 11
-22.746399
 21
184.0
 31
0.0
  0
LINE
  8
LY_1
  6
CONTINUOUS
 62
     3
  5
1F2
 10
-7.745967
 20
181.0
 30
0.0
 11
-21.282761
 21
181.0
 31
0.0
  0
LINE
  8
LY_1
  6
CONTINUOUS
 62
     3
  5
1F3
 10
-8.0
 20
177.0
 30
0.0
 11
-23.282761
 21
177.0
 31
0.0
  0
LINE
  8
LY_1
  6
CONTINUOUS
 62
     3
  5
1F4
 10
-9.0
 20
175.5
 30
0.0
 11
-22.282761
 21
175.5
 31
0.0
  0
LINE
  8
LY_1
  6
CONTINUOUS
 62
     3
  5
1F5
 10
-40.326691
 20
179.0
 30
0.0
 11
-40.326691
 21
176.5
 31
0.0
  0
LINE
  8
LY_1
  6
CONTINUOUS
 62
     3
  5
1F6
 10
-49.999996
 20
172.000006
 30
0.0
 11
-49.73753
 21
169.000006
 31
0.0
  0
LINE
  8
LY_1
  6
CONTINUOUS
 62
     3
  5
1F7
 10
-10.094346
 20
161.800009
 30
0.0
 11
-24.856534
 21
169.000008
 31
0.0
  0
LINE
  8
LY_1
  6
CONTINUOUS
 62
     3
  5
1F8
 10
-10.47167
 20
168.999996
 30
0.0
 11
-9.999999
 21
159.999988
 31
0.0
  0
LINE
  8
LY_1
  6
CONTINUOUS
 62
     3
  5
1F9
 10
8.0
 20
179.0
 30
0.0
 11
8.0
 21
176.5
 31
0.0
  0
LINE
  8
LY_1
  6
CONTINUOUS
 62
     3
  5
1FA
 10
38.461227
 20
175.5
 30
0.0
 11
39.326691
 21
175.5
 31
0.0
  0
LINE
  8
LY_1
  6
CONTINUOUS
 62
     3
  5
1FB
 10
38.189835
 20
177.0
 30
0.0
 11
40.326691
 21
177.0
 31
0.0
  0
LINE
  8
LY_1
  6
CONTINUOUS
 62
     3
  5
1FC
 10
37.101608
 20
181.0
 30
0.0
 11
38.326691
 21
181.0
 31
0.0
  0
LINE
  8
LY_1
  6
CONTINUOUS
 62
     3
  5
1FD
 10
38.929595
 20
172.000012
 30
0.0
 11
38.667129
 21
169.000012
 31
0.0
  0
LINE
  8
LY_1
  6
CONTINUOUS
 62
     3
  5
1FE
 10
23.282761
 20
179.0
 30
0.0
 11
23.282761
 21
176.5
 31
0.0
  0
LINE
  8
LY_1
  6
CONTINUOUS
 62
     3
  5
1FF
 10
6.244998
 20
184.0
 30
0.0
 11
22.746399
 21
184.0
 31
0.0
  0
LINE
  8
LY_1
  6
CONTINUOUS
 62
     3
  5
200
 10
7.745967
 20
181.0
 30
0.0
 11
21.282761
 21
181.0
 31
0.0
  0
LINE
  8
LY_1
  6
CONTINUOUS
 62
     3
  5
201
 10
8.0
 20
177.0
 30
0.0
 11
23.282761
 21
177.0
 31
0.0
  0
LINE
  8
LY_1
  6
CONTINUOUS
 62
     3
  5
202
 10
9.0
 20
175.5
 30
0.0
 11
22.282761
 21
175.5
 31
0.0
  0
LINE
  8
LY_1
  6
CONTINUOUS
 62
     3
  5
203
 10
40.326691
 20
179.0
 30
0.0
 11
40.326691
 21
176.5
 31
0.0
  0
LINE
  8
LY_1
  6
CONTINUOUS
 62
     3
  5
204
 10
-3.752866
 20
264.225703
 30
0.0
 11
-7.505819
 21
270.726007
 31
0.0
  0
LINE
  8
LY_1
  6
CONTINUOUS
 62
     3
  5
205
 10
7.505464
 20
270.725703
 30
0.0
 11
3.752511
 21
277.226007
 31
0.0
  0
LINE
  8
LY_1
  6
CONTINUOUS
 62
     3
  5
206
 10
-7.505464
 20
270.725703
 30
0.0
 11
-3.752511
 21
277.226007
 31
0.0
  0
LINE
  8
LY_1
  6
CONTINUOUS
 62
     3
  5
207
 10
3.752866
 20
264.225703
 30
0.0
 11
7.505819
 21
270.726007
 31
0.0
  0
LINE
  8
LY_1
  6
CONTINUOUS
 62
     3
  5
208
 10
-3.752777
 20
277.225586
 30
0.0
 11
3.752777
 21
277.225586
 31
0.0
  0
LINE
  8
LY_1
  6
CONTINUOUS
 62
     3
  5
209
 10
-3.752777
 20
264.225586
 30
0.0
 11
3.752777
 21
264.225586
 31
0.0
  0
LINE
  8
LY_1
  6
CONTINUOUS
 62
     3
  5
20A
 10
-6.984651
 20
257.452622
 30
0.0
 11
-5.845263
 21
241.588915
 31
0.0
  0
LINE
  8
LY_1
  6
CONTINUOUS
 62
     3
  5
20B
 10
6.984739
 20
257.452615
 30
0.0
 11
5.845352
 21
241.588909
 31
0.0
  0
LINE
  8
LY_1
  6
CONTINUOUS
 62
     3
  5
20C
 10
-13.274686
 20
277.712023
 30
0.0
 11
-29.13762
 21
276.572691
 31
0.0
  0
LINE
  8
LY_1
  6
CONTINUOUS
 62
     3
  5
20D
 10
-13.274339
 20
263.742627
 30
0.0
 11
-29.137285
 21
264.88196
 31
0.0
  0
LINE
  8
LY_1
  6
CONTINUOUS
 62
     3
  5
20E
 10
6.984381
 20
284.002033
 30
0.0
 11
5.845048
 21
299.864979
 31
0.0
  0
LINE
  8
LY_1
  6
CONTINUOUS
 62
     3
  5
20F
 10
-6.984305
 20
284.002028
 30
0.0
 11
-5.844972
 21
299.864973
 31
0.0
  0
LINE
  8
LY_1
  6
CONTINUOUS
 62
     3
  5
210
 10
13.2744
 20
263.742631
 30
0.0
 11
29.137346
 21
264.881964
 31
0.0
  0
LINE
  8
LY_1
  6
CONTINUOUS
 62
     3
  5
211
 10
13.274801
 20
277.712015
 30
0.0
 11
29.137726
 21
276.572683
 31
0.0
  0
LINE
  8
LY_1
  6
CONTINUOUS
 62
     3
  5
212
 10
37.334725
 20
263.325687
 30
0.0
 11
40.326668
 21
263.325687
 31
0.0
  0
LINE
  8
LY_1
  6
CONTINUOUS
 62
     3
  5
213
 10
31.632314
 20
249.558162
 30
0.0
 11
33.747937
 21
247.442538
 31
0.0
  0
LINE
  8
LY_1
  6
CONTINUOUS
 62
     3
  5
214
 10
21.167111
 20
239.093283
 30
0.0
 11
23.282735
 21
236.97766
 31
0.0
  0
LINE
  8
LY_1
  6
CONTINUOUS
 62
     3
  5
215
 10
7.399894
 20
233.390625
 30
0.0
 11
7.399894
 21
230.398682
 31
0.0
  0
LINE
  8
LY_1
  6
CONTINUOUS
 62
     3
  5
216
 10
-7.399886
 20
233.390869
 30
0.0
 11
-7.399886
 21
230.398925
 31
0.0
  0
LINE
  8
LY_1
  6
CONTINUOUS
 62
     3
  5
217
 10
-21.167218
 20
239.093195
 30
0.0
 11
-23.282841
 21
236.977572
 31
0.0
  0
LINE
  8
LY_1
  6
CONTINUOUS
 62
     3
  5
218
 10
-31.632098
 20
249.558375
 30
0.0
 11
-33.747721
 21
247.442751
 31
0.0
  0
LINE
  8
LY_1
  6
CONTINUOUS
 62
     3
  5
219
 10
-37.334869
 20
263.325684
 30
0.0
 11
-40.326813
 21
263.325684
 31
0.0
  0
LINE
  8
LY_1
  6
CONTINUOUS
 62
     3
  5
21A
 10
-37.334633
 20
278.125485
 30
0.0
 11
-40.326577
 21
278.125485
 31
0.0
  0
LINE
  8
LY_1
  6
CONTINUOUS
 62
     3
  5
21B
 10
-31.632109
 20
291.8925
 30
0.0
 11
-33.747678
 21
294.00807
 31
0.0
  0
LINE
  8
LY_1
  6
CONTINUOUS
 62
     3
  5
21C
 10
-21.166963
 20
302.357325
 30
0.0
 11
-23.282532
 21
304.472894
 31
0.0
  0
LINE
  8
LY_1
  6
CONTINUOUS
 62
     3
  5
21D
 10
-7.399911
 20
308.060547
 30
0.0
 11
-7.399911
 21
311.05249
 31
0.0
  0
LINE
  8
LY_1
  6
CONTINUOUS
 62
     3
  5
21E
 10
7.399836
 20
308.060303
 30
0.0
 11
7.399836
 21
311.052247
 31
0.0
  0
LINE
  8
LY_1
  6
CONTINUOUS
 62
     3
  5
21F
 10
21.167056
 20
302.357553
 30
0.0
 11
23.282625
 21
304.473123
 31
0.0
  0
LINE
  8
LY_1
  6
CONTINUOUS
 62
     3
  5
220
 10
31.63203
 20
291.892535
 30
0.0
 11
33.74761
 21
294.008116
 31
0.0
  0
LINE
  8
LY_1
  6
CONTINUOUS
 62
     3
  5
221
 10
37.334854
 20
278.125488
 30
0.0
 11
40.326691
 21
278.125488
 31
0.0
  0
LINE
  8
LY_1
  6
CENTER
 62
   110
  5
222
 10
-55.0
 20
270.725586
 30
0.0
 11
55.0
 21
270.725586
 31
0.0
  0
LINE
  8
LY_1
  6
CONTINUOUS
 62
     3
  5
223
 10
49.999996
 20
172.000006
 30
0.0
 11
49.73753
 21
169.000006
 31
0.0
  0
LINE
  8
LY_1
  6
CONTINUOUS
 62
     3
  5
224
 10
-50.0
 20
172.0
 30
0.0
 11
50.0
 21
172.0
 31
0.0
  0
LINE
  8
LY_1
  6
CONTINUOUS
 62
     3
  5
225
 10
10.094346
 20
161.800009
 30
0.0
 11
24.856534
 21
169.000008
 31
0.0
  0
LINE
  8
LY_1
  6
CONTINUOUS
 62
     3
  5
226
 10
-49.737534
 20
169.0
 30
0.0
 11
49.737534
 21
169.0
 31
0.0
  0
LINE
  8
LY_1
  6
CONTINUOUS
 62
     3
  5
227
 10
10.47167
 20
168.999996
 30
0.0
 11
9.999999
 21
159.999988
 31
0.0
  0
LINE
  8
LY_1
  6
CONTINUOUS
 62
     3
  5
228
 10
-10.0
 20
160.0
 30
0.0
 11
10.0
 21
160.0
 31
0.0
  0
LINE
  8
LY_1
  6
CENTER
 62
   110
  5
229
 10
0.0
 20
325.725586
 30
0.0
 11
0.0
 21
215.725555
 31
0.0
  0
LINE
  8
LY_1
  6
CONTINUOUS
 62
     3
  5
22A
 10
140.822418
 20
148.699997
 30
0.0
 11
140.822418
 21
128.699997
 31
0.0
  0
LINE
  8
LY_1
  6
CONTINUOUS
 62
     3
  5
22B
 10
106.822418
 20
148.699997
 30
0.0
 11
106.822418
 21
128.699997
 31
0.0
  0
LINE
  8
LY_1
  6
CONTINUOUS
 62
     3
  5
22C
 10
-9.814955
 20
148.699997
 30
0.0
 11
-9.814955
 21
128.699997
 31
0.0
  0
LINE
  8
LY_1
  6
CONTINUOUS
 62
     3
  5
22D
 10
9.814955
 20
148.699997
 30
0.0
 11
9.814955
 21
128.699997
 31
0.0
  0
LINE
  8
LY_1
  6
CONTINUOUS
 62
     3
  5
22E
 10
117.072418
 20
160.0
 30
0.0
 11
117.072418
 21
148.699997
 31
0.0
  0
LINE
  8
LY_1
  6
CONTINUOUS
 62
     3
  5
22F
 10
130.572418
 20
160.0
 30
0.0
 11
130.572418
 21
148.699997
 31
0.0
  0
LINE
  8
LY_1
  6
CONTINUOUS
 62
     3
  5
230
 10
106.822418
 20
128.699997
 30
0.0
 11
140.822418
 21
128.699997
 31
0.0
  0
LINE
  8
LY_1
  6
CONTINUOUS
 62
     3
  5
231
 10
106.822418
 20
148.699997
 30
0.0
 11
140.822418
 21
148.699997
 31
0.0
  0
LINE
  8
LY_1
  6
CONTINUOUS
 62
     3
  5
232
 10
-6.75
 20
160.0
 30
0.0
 11
-6.75
 21
148.699997
 31
0.0
  0
LINE
  8
LY_1
  6
CONTINUOUS
 62
     3
  5
233
 10
6.75
 20
160.0
 30
0.0
 11
6.75
 21
148.699997
 31
0.0
  0
LINE
  8
LY_1
  6
CONTINUOUS
 62
     3
  5
234
 10
-18.600006
 20
148.699997
 30
0.0
 11
-18.600006
 21
128.699997
 31
0.0
  0
LINE
  8
LY_1
  6
CONTINUOUS
 62
   110
  5
235
 10
-13.65
 20
128.699997
 30
0.0
 11
-13.65
 21
119.0
 31
0.0
  0
LINE
  8
LY_1
  6
CONTINUOUS
 62
     3
  5
236
 10
18.600006
 20
148.699997
 30
0.0
 11
18.600006
 21
128.699997
 31
0.0
  0
LINE
  8
LY_1
  6
CONTINUOUS
 62
     3
  5
237
 10
-18.600006
 20
128.699997
 30
0.0
 11
18.600006
 21
128.699997
 31
0.0
  0
LINE
  8
LY_1
  6
CONTINUOUS
 62
     3
  5
238
 10
-18.600006
 20
148.699997
 30
0.0
 11
18.600006
 21
148.699997
 31
0.0
  0
LINE
  8
LY_1
  6
CONTINUOUS
 62
   110
  5
239
 10
13.65
 20
128.699997
 30
0.0
 11
13.65
 21
119.0
 31
0.0
  0
LINE
  8
LY_1
  6
CONTINUOUS
 62
     3
  5
23A
 10
-29.699999
 20
87.500004
 30
0.0
 11
-39.000006
 21
85.523227
 31
0.0
  0
LINE
  8
LY_1
  6
CONTINUOUS
 62
     3
  5
23B
 10
-14.5
 20
128.699997
 30
0.0
 11
-14.5
 21
117.915451
 31
0.0
  0
LINE
  8
LY_1
  6
CONTINUOUS
 62
     3
  5
23C
 10
-29.699997
 20
98.5
 30
0.0
 11
-29.699997
 21
87.5
 31
0.0
  0
LINE
  8
LY_1
  6
CONTINUOUS
 62
     3
  5
23D
 10
-39.0
 20
85.523224
 30
0.0
 11
-39.0
 21
77.0
 31
0.0
  0
LINE
  8
LY_1
  6
CONTINUOUS
 62
     3
  5
23E
 10
29.699998
 20
87.500004
 30
0.0
 11
39.000006
 21
85.523227
 31
0.0
  0
LINE
  8
LY_1
  6
CONTINUOUS
 62
     3
  5
23F
 10
14.5
 20
128.699997
 30
0.0
 11
14.5
 21
117.915451
 31
0.0
  0
LINE
  8
LY_1
  6
CONTINUOUS
 62
     3
  5
240
 10
29.699997
 20
98.5
 30
0.0
 11
29.699997
 21
87.5
 31
0.0
  0
LINE
  8
LY_1
  6
CONTINUOUS
 62
     3
  5
241
 10
-14.5
 20
119.0
 30
0.0
 11
14.5
 21
119.0
 31
0.0
  0
LINE
  8
LY_1
  6
CONTINUOUS
 62
     3
  5
242
 10
-29.699997
 20
98.5
 30
0.0
 11
29.699997
 21
98.5
 31
0.0
  0
LINE
  8
LY_1
  6
CONTINUOUS
 62
     3
  5
243
 10
-29.699997
 20
87.5
 30
0.0
 11
29.699997
 21
87.5
 31
0.0
  0
LINE
  8
LY_1
  6
CONTINUOUS
 62
     3
  5
244
 10
-25.0
 20
57.205777
 30
0.0
 11
-36.999994
 21
64.133977
 31
0.0
  0
LINE
  8
LY_1
  6
CONTINUOUS
 62
     3
  5
245
 10
-38.5
 20
77.0
 30
0.0
 11
-38.5
 21
66.732056
 31
0.0
  0
LINE
  8
LY_1
  6
CONTINUOUS
 62
     3
  5
246
 10
-25.5
 20
47.199997
 30
0.0
 11
-41.0
 21
47.199997
 31
0.0
  0
LINE
  8
LY_1
  6
CONTINUOUS
 62
     3
  5
247
 10
-29.0
 20
47.199997
 30
0.0
 11
-29.0
 21
-48.149994
 31
0.0
  0
LINE
  8
LY_1
  6
CONTINUOUS
 62
     3
  5
248
 10
-41.0
 20
47.199997
 30
0.0
 11
-41.0
 21
-48.149994
 31
0.0
  0
LINE
  8
LY_1
  6
CONTINUOUS
 62
     3
  5
249
 10
22.5
 20
61.0
 30
0.0
 11
22.5
 21
25.963882
 31
0.0
  0
LINE
  8
LY_1
  6
CONTINUOUS
 62
     3
  5
24A
 10
25.0
 20
57.205777
 30
0.0
 11
36.499997
 21
63.845304
 31
0.0
  0
LINE
  8
LY_1
  6
CONTINUOUS
 62
     3
  5
24B
 10
-37.302765
 20
65.0
 30
0.0
 11
37.302765
 21
65.0
 31
0.0
  0
LINE
  8
LY_1
  6
CONTINUOUS
 62
     3
  5
24C
 10
38.5
 20
77.0
 30
0.0
 11
38.5
 21
66.732056
 31
0.0
  0
LINE
  8
LY_1
  6
CONTINUOUS
 62
     3
  5
24D
 10
39.0
 20
85.523224
 30
0.0
 11
39.0
 21
77.0
 31
0.0
  0
LINE
  8
LY_1
  6
CONTINUOUS
 62
     3
  5
24E
 10
-39.0
 20
77.0
 30
0.0
 11
39.0
 21
77.0
 31
0.0
  0
LINE
  8
LY_1
  6
CONTINUOUS
 62
     3
  5
24F
 10
-39.0
 20
81.5
 30
0.0
 11
39.0
 21
81.5
 31
0.0
  0
LINE
  8
LY_1
  6
CONTINUOUS
 62
     3
  5
250
 10
25.5
 20
47.199997
 30
0.0
 11
41.0
 21
47.199997
 31
0.0
  0
LINE
  8
LY_1
  6
CONTINUOUS
 62
     3
  5
251
 10
-26.70677
 20
-43.232147
 30
0.0
 11
-28.999998
 21
-48.14999
 31
0.0
  0
LINE
  8
LY_1
  6
CONTINUOUS
 62
     3
  5
252
 10
-29.0
 20
-48.149994
 30
0.0
 11
-41.0
 21
-48.149994
 31
0.0
  0
LINE
  8
LY_1
  6
CONTINUOUS
 62
     3
  5
253
 10
-23.987839
 20
-41.5
 30
0.0
 11
23.987839
 21
-41.5
 31
0.0
  0
LINE
  8
LY_1
  6
CONTINUOUS
 62
     3
  5
254
 10
26.70677
 20
-43.232147
 30
0.0
 11
28.999998
 21
-48.14999
 31
0.0
  0
LINE
  8
LY_1
  6
CONTINUOUS
 62
     3
  5
255
 10
29.0
 20
-48.149994
 30
0.0
 11
41.0
 21
-48.149994
 31
0.0
  0
LINE
  8
LY_1
  6
CONTINUOUS
 62
     3
  5
256
 10
29.0
 20
47.199997
 30
0.0
 11
29.0
 21
-48.149994
 31
0.0
  0
LINE
  8
LY_1
  6
CONTINUOUS
 62
     3
  5
257
 10
41.0
 20
47.199997
 30
0.0
 11
41.0
 21
-48.149994
 31
0.0
  0
LINE
  8
LY_1
  6
CENTER
 62
   110
  5
258
 10
-46.0
 20
0.0
 30
0.0
 11
46.0
 21
0.0
 31
0.0
  0
LINE
  8
LY_1
  6
CENTER
 62
   110
  5
259
 10
0.0
 20
192.0
 30
0.0
 11
0.0
 21
-43.5
 31
0.0
  0
ENDSEC
  0
EOF
