  0
SECTION
  2
HEADER
  9
$ACADVER
  1
AC1009
  9
$DWGCODEPAGE
  3
dos932
  9
$INSBASE
 10
0.0
 20
0.0
 30
0.0
  9
$EXTMIN
 10
-33.524147
 20
-69.548707
 30
0.0
  9
$EXTMAX
 10
114.29248
 20
183.749603
 30
0.0
  9
$LIMMIN
 10
-33.524147
 20
-69.548707
  9
$LIMMAX
 10
114.29248
 20
183.749603
  9
$ORTHOMODE
 70
     0
  9
$REGENMODE
 70
     1
  9
$FILLMODE
 70
     1
  9
$QTEXTMODE
 70
     0
  9
$MIRRTEXT
 70
     1
  9
$DRAGMODE
 70
     2
  9
$LTSCALE
 40
1.0
  9
$OSMODE
 70
     0
  9
$ATTMODE
 70
     1
  9
$TEXTSIZE
 40
3.3
  9
$TRACEWID
 40
0.05
  9
$TEXTSTYLE
  7
MX_NOTE_STANDARD
  9
$CLAYER
  8
LY_1
  9
$CELTYPE
  6
CONTINUOUS
  9
$CECOLOR
 62
   256
  9
$DIMSCALE
 40
1.0
  9
$DIMASZ
 40
2.5
  9
$DIMEXO
 40
0.0
  9
$DIMDLI
 40
3.75
  9
$DIMRND
 40
0.0
  9
$DIMDLE
 40
0.0
  9
$DIMEXE
 40
1.1938
  9
$DIMTP
 40
0.0
  9
$DIMTM
 40
0.0
  9
$DIMTXT
 40
3.3
  9
$DIMCEN
 40
2.5
  9
$DIMTSZ
 40
0.0
  9
$DIMTOL
 70
     0
  9
$DIMLIM
 70
     0
  9
$DIMTIH
 70
     0
  9
$DIMTOH
 70
     0
  9
$DIMSE1
 70
     0
  9
$DIMSE2
 70
     0
  9
$DIMTAD
 70
     1
  9
$DIMZIN
 70
     8
  9
$DIMBLK
  1

  9
$DIMASO
 70
     1
  9
$DIMSHO
 70
     1
  9
$DIMPOST
  1

  9
$DIMAPOST
  1

  9
$DIMALT
 70
     0
  9
$DIMALTD
 70
     4
  9
$DIMALTF
 40
0.03937
  9
$DIMLFAC
 40
1.0
  9
$DIMTOFL
 70
     1
  9
$DIMTVP
 40
0.0
  9
$DIMTIX
 70
     0
  9
$DIMSOXD
 70
     0
  9
$DIMSAH
 70
     1
  9
$DIMBLK1
  1
_OPEN30
  9
$DIMBLK2
  1
_OPEN30
  9
$DIMSTYLE
  2
MXDIMSTYLE
  9
$DIMCLRD
 70
     0
  9
$DIMCLRE
 70
     0
  9
$DIMCLRT
 70
     0
  9
$DIMTFAC
 40
1.0
  9
$DIMGAP
 40
1.0
  9
$LUNITS
 70
     2
  9
$LUPREC
 70
     4
  9
$AXISMODE
 70
     0
  9
$AXISUNIT
 10
0.0
 20
0.0
  9
$SKETCHINC
 40
0.1
  9
$FILLETRAD
 40
0.0
  9
$AUNITS
 70
     0
  9
$AUPREC
 70
     0
  9
$MENU
  1
acad
  9
$ELEVATION
 40
0.0
  9
$PELEVATION
 40
0.0
  9
$THICKNESS
 40
0.0
  9
$LIMCHECK
 70
     0
  9
$BLIPMODE
 70
     1
  9
$CHAMFERA
 40
0.0
  9
$CHAMFERB
 40
0.0
  9
$SKPOLY
 70
     0
  9
$TDCREATE
 40
2454901.550173611
  9
$TDUPDATE
 40
2454901.550173611
  9
$TDINDWG
 40
0.0000000000
  9
$TDUSRTIMER
 40
0.0000000000
  9
$USRTIMER
 70
     1
  9
$ANGBASE
 50
0.0
  9
$ANGDIR
 70
     0
  9
$PDMODE
 70
     0
  9
$PDSIZE
 40
0.0
  9
$PLINEWID
 40
0.0
  9
$COORDS
 70
     1
  9
$SPLFRAME
 70
     0
  9
$SPLINETYPE
 70
     6
  9
$SPLINESEGS
 70
     8
  9
$ATTDIA
 70
     0
  9
$ATTREQ
 70
     1
  9
$HANDLING
 70
     1
  9
$HANDSEED
  5
204
  9
$SURFTAB1
 70
     6
  9
$SURFTAB2
 70
     6
  9
$SURFTYPE
 70
     6
  9
$SURFU
 70
     6
  9
$SURFV
 70
     6
  9
$UCSNAME
  2

  9
$UCSORG
 10
0.0
 20
0.0
 30
0.0
  9
$UCSXDIR
 10
1.0
 20
0.0
 30
0.0
  9
$UCSYDIR
 10
0.0
 20
1.0
 30
0.0
  9
$PUCSNAME
  2

  9
$PUCSORG
 10
0.0
 20
0.0
 30
0.0
  9
$PUCSXDIR
 10
1.0
 20
0.0
 30
0.0
  9
$PUCSYDIR
 10
0.0
 20
1.0
 30
0.0
  9
$USERI1
 70
     0
  9
$USERI2
 70
     0
  9
$USERI3
 70
     0
  9
$USERI4
 70
     0
  9
$USERI5
 70
     0
  9
$USERR1
 40
0.0
  9
$USERR2
 40
0.0
  9
$USERR3
 40
0.0
  9
$USERR4
 40
0.0
  9
$USERR5
 40
0.0
  9
$WORLDVIEW
 70
     1
  9
$SHADEDGE
 70
     3
  9
$SHADEDIF
 70
    70
  9
$TILEMODE
 70
     1
  9
$MAXACTVP
 70
    16
  9
$PINSBASE
 10
0.0
 20
0.0
 30
0.0
  9
$PLIMCHECK
 70
     0
  9
$PEXTMIN
 10
1.000000E+20
 20
1.000000E+20
 30
1.000000E+20
  9
$PEXTMAX
 10
-1.000000E+20
 20
-1.000000E+20
 30
-1.000000E+20
  9
$PLIMMIN
 10
0.0
 20
0.0
  9
$PLIMMAX
 10
12.0
 20
9.0
  9
$UNITMODE
 70
     0
  9
$VISRETAIN
 70
     0
  9
$PLINEGEN
 70
     1
  9
$PSLTSCALE
 70
     0
  9
$TREEDEPTH
 70
  3020
  0
ENDSEC
  0
SECTION
  2
TABLES
  0
TABLE
  2
VPORT
 70
     1
  0
VPORT
  2
*ACTIVE
 70
     0
 10
0.0
 20
0.0
 11
1.0
 21
1.0
 12
40.384167
 22
57.100448
 13
0.0
 23
0.0
 14
1.0
 24
1.0
 15
0.0
 25
0.0
 16
0.0
 26
0.0
 36
1.0
 17
0.0
 27
0.0
 37
0.0
 40
255.831293
 41
1.732051
 42
50.0
 43
0.0
 44
0.0
 50
0.0
 51
0.0
 71
     0
 72
   100
 73
     1
 74
     1
 75
     0
 76
     0
 77
     0
 78
     0
  0
ENDTAB
  0
TABLE
  2
LTYPE
 70
     2
  0
LTYPE
  2
CONTINUOUS
 70
    64
  3
Solid line
 72
    65
 73
     0
 40
0.0
  0
LTYPE
  2
CENTER
 70
    64
  3
Center ____ _ ____ _ ____ _ ____ _ ____ _ ____
 72
    65
 73
     4
 40
50.8
 49
31.75
 49
-6.35
 49
6.35
 49
-6.35
  0
ENDTAB
  0
TABLE
  2
LAYER
 70
     3
  0
LAYER
  2
0
 70
     0
 62
     7
  6
CONTINUOUS
  0
LAYER
  2
LY_1
 70
     0
 62
     7
  6
CONTINUOUS
  0
LAYER
  2
DEFPOINTS
 70
     0
 62
     7
  6
CONTINUOUS
  0
ENDTAB
  0
TABLE
  2
STYLE
 70
     2
  0
STYLE
  2
MX_NOTE_STANDARD
 70
     0
 40
0.0
 41
1.0
 50
0.0
 71
     0
 42
3.3
  3
txt.shx
  4
extfont.shx
  0
STYLE
  2
MX_DIMTXSTY_2
 70
     0
 40
0.0
 41
0.9
 50
0.0
 71
     0
 42
3.3
  3
txt.shx
  4
extfont.shx
  0
ENDTAB
  0
TABLE
  2
VIEW
 70
     0
  0
ENDTAB
  0
TABLE
  2
UCS
 70
     0
  0
ENDTAB
  0
TABLE
  2
APPID
 70
     1
  0
APPID
  2
ACAD
 70
     0
  0
ENDTAB
  0
TABLE
  2
DIMSTYLE
 70
     1
  0
DIMSTYLE
  2
MXDIMSTYLE
 70
     0
  3

  4

  5

  6
_OPEN30
  7
_OPEN30
 40
1.0
 41
2.5
 42
0.0
 43
3.75
 44
1.1938
 45
0.0
 46
0.0
 47
0.0
 48
0.0
 71
     0
 72
     0
 73
     0
 74
     0
 75
     0
 76
     0
 77
     1
 78
     8
140
3.3
141
2.5
142
0.0
143
0.03937
144
1.0
145
0.0
146
1.0
147
1.0
170
     0
171
     4
172
     1
173
     1
174
     0
175
     0
176
     0
177
     0
178
     0
  0
ENDTAB
  0
ENDSEC
  0
SECTION
  2
BLOCKS
  0
BLOCK
  8
0
  6
BYBLOCK
 62
     0
  5
20
  2
_OPEN30
 70
     2
 10
0.0
 20
0.0
 30
0.0
  3
_OPEN30
  0
LINE
  8
0
  6
BYBLOCK
 62
     0
  5
21
 10
-1.0
 20
0.267949
 30
0.0
 11
0.0
 21
0.0
 31
0.0
  0
LINE
  8
0
  6
BYBLOCK
 62
     0
  5
22
 10
0.0
 20
0.0
 30
0.0
 11
-1.0
 21
-0.267949
 31
0.0
  0
LINE
  8
0
  6
BYBLOCK
 62
     0
  5
23
 10
0.0
 20
0.0
 30
0.0
 11
-1.0
 21
0.0
 31
0.0
  0
ENDBLK
  8
0
  6
BYBLOCK
 62
     0
  5
24
  0
BLOCK
  8
0
  6
BYBLOCK
 62
     0
  5
26
  2
*D1
 70
     1
 10
0.0
 20
0.0
 30
0.0
  3
*D1
  0
LINE
  8
0
  6
CONTINUOUS
 62
   110
  5
27
 10
25.0
 20
-34.669636
 30
0.0
 11
-25.0
 21
-34.669636
 31
0.0
  0
LINE
  8
0
  6
CONTINUOUS
 62
   110
  5
28
 10
25.0
 20
-21.799999
 30
0.0
 11
25.0
 21
-35.863436
 31
0.0
  0
LINE
  8
0
  6
CONTINUOUS
 62
   110
  5
29
 10
-25.0
 20
-21.799999
 30
0.0
 11
-25.0
 21
-35.863436
 31
0.0
  0
INSERT
  8
0
  6
CONTINUOUS
 62
   110
  5
30
  2
_OPEN
 10
25.0
 20
-34.669636
 30
0.0
 41
2.19
 42
2.19
 43
2.19
  0
INSERT
  8
0
  6
CONTINUOUS
 62
   110
  5
31
  2
_OPEN
 10
-25.0
 20
-34.669636
 30
0.0
 41
2.19
 42
2.19
 50
180.0
 43
2.19
  0
TEXT
  8
0
  6
CONTINUOUS
 62
   110
  5
33
 10
-2.210197
 20
-33.669636
 30
0.0
 40
3.3
  1
50
 41
1.017352
  7
MX_DIMTXSTY_2
 11
-2.210197
 21
-32.019636
 31
0.0
 73
     2
  0
POINT
  8
DEFPOINTS
  6
CONTINUOUS
 62
     0
  5
34
 10
25.0
 20
-21.799999
 30
0.0
  0
POINT
  8
DEFPOINTS
  6
CONTINUOUS
 62
     0
  5
35
 10
-25.0
 20
-21.799999
 30
0.0
  0
POINT
  8
DEFPOINTS
  6
CONTINUOUS
 62
     0
  5
36
 10
-25.0
 20
-34.669636
 30
0.0
  0
ENDBLK
  8
0
  6
BYBLOCK
 62
     0
  5
37
  0
BLOCK
  8
0
  6
BYBLOCK
 62
     0
  5
2B
  2
_OPEN
 70
     2
 10
0.0
 20
0.0
 30
0.0
  3
_OPEN
  0
LINE
  8
0
  6
BYBLOCK
 62
     0
  5
2C
 10
-1.0
 20
0.166667
 30
0.0
 11
0.0
 21
0.0
 31
0.0
  0
LINE
  8
0
  6
BYBLOCK
 62
     0
  5
2D
 10
0.0
 20
0.0
 30
0.0
 11
-1.0
 21
-0.166667
 31
0.0
  0
LINE
  8
0
  6
BYBLOCK
 62
     0
  5
2E
 10
0.0
 20
0.0
 30
0.0
 11
-1.0
 21
0.0
 31
0.0
  0
ENDBLK
  8
0
  6
BYBLOCK
 62
     0
  5
2F
  0
BLOCK
  8
0
  6
BYBLOCK
 62
     0
  5
3A
  2
*D3
 70
     1
 10
0.0
 20
0.0
 30
0.0
  3
*D3
  0
LINE
  8
0
  6
CONTINUOUS
 62
   110
  5
3B
 10
44.276516
 20
96.997025
 30
0.0
 11
44.276516
 21
0.0
 31
0.0
  0
LINE
  8
0
  6
CONTINUOUS
 62
   110
  5
3C
 10
22.506241
 20
96.997025
 30
0.0
 11
45.470316
 21
96.997025
 31
0.0
  0
LINE
  8
0
  6
CONTINUOUS
 62
   110
  5
3D
 10
30.0
 20
0.0
 30
0.0
 11
45.470316
 21
0.0
 31
0.0
  0
INSERT
  8
0
  6
CONTINUOUS
 62
   110
  5
3E
  2
_OPEN
 10
44.276516
 20
96.997025
 30
0.0
 41
2.19
 42
2.19
 50
90.0
 43
2.19
  0
INSERT
  8
0
  6
CONTINUOUS
 62
   110
  5
3F
  2
_OPEN
 10
44.276516
 20
0.0
 30
0.0
 41
2.19
 42
2.19
 50
270.0
 43
2.19
  0
TEXT
  8
0
  6
CONTINUOUS
 62
   110
  5
40
 10
43.276516
 20
46.241687
 30
0.0
 40
3.3
  1
97
 50
90.0
 41
0.932572
  7
MX_DIMTXSTY_2
 11
41.626516
 21
46.241687
 31
0.0
 73
     2
  0
POINT
  8
DEFPOINTS
  6
CONTINUOUS
 62
     0
  5
41
 10
22.506241
 20
96.997025
 30
0.0
  0
POINT
  8
DEFPOINTS
  6
CONTINUOUS
 62
     0
  5
42
 10
30.0
 20
0.0
 30
0.0
  0
POINT
  8
DEFPOINTS
  6
CONTINUOUS
 62
     0
  5
43
 10
44.276516
 20
0.0
 30
0.0
  0
ENDBLK
  8
0
  6
BYBLOCK
 62
     0
  5
44
  0
BLOCK
  8
0
  6
BYBLOCK
 62
     0
  5
47
  2
*D4
 70
     1
 10
0.0
 20
0.0
 30
0.0
  3
*D4
  0
LINE
  8
0
  6
CONTINUOUS
 62
   110
  5
48
 10
-30.000002
 20
111.330254
 30
0.0
 11
29.999985
 21
111.330254
 31
0.0
  0
LINE
  8
0
  6
CONTINUOUS
 62
   110
  5
49
 10
-30.000002
 20
86.497032
 30
0.0
 11
-30.000002
 21
112.524054
 31
0.0
  0
LINE
  8
0
  6
CONTINUOUS
 62
   110
  5
4A
 10
29.999985
 20
86.497032
 30
0.0
 11
29.999985
 21
112.524054
 31
0.0
  0
INSERT
  8
0
  6
CONTINUOUS
 62
   110
  5
4B
  2
_OPEN
 10
-30.000002
 20
111.330254
 30
0.0
 41
2.19
 42
2.19
 50
180.0
 43
2.19
  0
INSERT
  8
0
  6
CONTINUOUS
 62
   110
  5
4C
  2
_OPEN
 10
29.999985
 20
111.330254
 30
0.0
 41
2.19
 42
2.19
 43
2.19
  0
TEXT
  8
0
  6
CONTINUOUS
 62
   110
  5
4D
 10
-3.6376
 20
112.330254
 30
0.0
 40
3.3
  1
%%c60
 41
0.940033
  7
MX_DIMTXSTY_2
 11
-3.6376
 21
113.980254
 31
0.0
 73
     2
  0
POINT
  8
DEFPOINTS
  6
CONTINUOUS
 62
     0
  5
4E
 10
-30.000002
 20
86.497032
 30
0.0
  0
POINT
  8
DEFPOINTS
  6
CONTINUOUS
 62
     0
  5
4F
 10
29.999985
 20
86.497032
 30
0.0
  0
POINT
  8
DEFPOINTS
  6
CONTINUOUS
 62
     0
  5
50
 10
29.999985
 20
111.330254
 30
0.0
  0
ENDBLK
  8
0
  6
BYBLOCK
 62
     0
  5
51
  0
ENDSEC
  0
SECTION
  2
ENTITIES
  0
DIMENSION
  8
LY_1
  6
CONTINUOUS
 62
   110
  5
38
  2
*D1
 10
-25.0
 20
-34.669636
 30
0.0
 11
0.0
 21
-34.669636
 31
0.0
 70
   128
  1
<>
 13
25.0
 23
-21.799999
 33
0.0
 14
-25.0
 24
-21.799999
 34
0.0
  3
MXDIMSTYLE
1001
ACAD
1000
DSTYLE
1002
{
1070
     6
1000
_OPEN
1070
     7
1000
_OPEN
1070
    41
1040
2.19
1070
   271
1070
     0
1070
   284
1070
     8
1070
   340
1005
32
1070
   343
1005
2A
1070
   344
1005
2A
1002
}
  0
DIMENSION
  8
LY_1
  6
CONTINUOUS
 62
   110
  5
45
  2
*D3
 10
44.276516
 20
0.0
 30
0.0
 11
44.276516
 21
48.498512
 31
0.0
 70
   128
  1
<>
 13
22.506241
 23
96.997025
 33
0.0
 14
30.0
 24
0.0
 34
0.0
 50
90.0
  3
MXDIMSTYLE
1001
ACAD
1000
DSTYLE
1002
{
1070
     6
1000
_OPEN
1070
     7
1000
_OPEN
1070
    41
1040
2.19
1070
   271
1070
     0
1070
   284
1070
     8
1070
   340
1005
32
1070
   343
1005
2A
1070
   344
1005
2A
1002
}
  0
DIMENSION
  8
LY_1
  6
CONTINUOUS
 62
   110
  5
52
  2
*D4
 10
29.999985
 20
111.330254
 30
0.0
 11
-0.000008
 21
111.330254
 31
0.0
 70
   128
  1
%%c<>
 13
-30.000002
 23
86.497032
 33
0.0
 14
29.999985
 24
86.497032
 34
0.0
  3
MXDIMSTYLE
1001
ACAD
1000
DSTYLE
1002
{
1070
     6
1000
_OPEN
1070
     7
1000
_OPEN
1070
    41
1040
2.19
1070
   271
1070
     0
1070
   284
1070
     8
1070
   340
1005
32
1070
   343
1005
2A
1070
   344
1005
2A
1002
}
  0
TEXT
  8
LY_1
  6
CONTINUOUS
 62
   110
  5
53
 10
-31.295237
 20
-52.715271
 30
0.0
 40
4.167179
  1
      GATE VALVE  1
 41
1.010114
  7
MX_NOTE_STANDARD
  0
TEXT
  8
LY_1
  6
CONTINUOUS
 62
   110
  5
54
 10
-31.363042
 20
-68.715271
 30
0.0
 40
4.167179
  1
KITZ
 41
0.912486
  7
MX_NOTE_STANDARD
  0
TEXT
  8
LY_1
  6
CONTINUOUS
 62
   110
  5
55
 10
-31.263834
 20
-60.715271
 30
0.0
 40
4.167179
  1
FIG   FH1
 41
1.055328
  7
MX_NOTE_STANDARD
  0
TEXT
  8
LY_1
  6
CONTINUOUS
 62
   110
  5
56
 10
-31.363042
 20
-44.715271
 30
0.0
 40
4.167179
  1
NAME  CLASS 125 FORGED BRASS
 41
0.912486
  7
MX_NOTE_STANDARD
  0
ARC
  8
LY_1
  6
CONTINUOUS
 62
     3
  5
57
 10
16.85
 20
26.5
 30
0.0
 40
2.0
 50
89.999996
 51
180.000005
  0
ARC
  8
LY_1
  6
CONTINUOUS
 62
     3
  5
58
 10
16.85
 20
23.505901
 30
0.0
 40
2.0
 50
120.000003
 51
180.000005
  0
ARC
  8
LY_1
  6
CONTINUOUS
 62
     3
  5
59
 10
16.85
 20
23.5
 30
0.0
 40
2.0
 50
180.000005
 51
270.000001
  0
ARC
  8
LY_1
  6
CONTINUOUS
 62
     3
  5
5A
 10
-16.85
 20
23.5
 30
0.0
 40
2.0
 50
269.999997
 51
0.0
  0
ARC
  8
LY_1
  6
CONTINUOUS
 62
     3
  5
5B
 10
-16.85
 20
23.505901
 30
0.0
 40
2.0
 50
0.0
 51
60.000002
  0
ARC
  8
LY_1
  6
CONTINUOUS
 62
     3
  5
5C
 10
1.426335
 20
152.588333
 30
0.0
 40
8.292879
 50
318.474676
 51
336.525304
  0
ARC
  8
LY_1
  6
CONTINUOUS
 62
     3
  5
5D
 10
1.383403
 20
152.615707
 30
0.0
 40
6.81044
 50
318.198402
 51
336.801372
  0
ARC
  8
LY_1
  6
CONTINUOUS
 62
     3
  5
5E
 10
-1.426335
 20
152.588333
 30
0.0
 40
8.292884
 50
203.474699
 51
221.525319
  0
ARC
  8
LY_1
  6
CONTINUOUS
 62
     3
  5
5F
 10
-1.38342
 20
152.615707
 30
0.0
 40
6.810456
 50
203.198719
 51
221.801654
  0
ARC
  8
LY_1
  6
CONTINUOUS
 62
     3
  5
60
 10
0.0
 20
153.497025
 30
0.0
 40
9.966681
 50
226.309128
 51
313.690973
  0
ARC
  8
LY_1
  6
CONTINUOUS
 62
     3
  5
61
 10
0.0
 20
153.497025
 30
0.0
 40
8.433338
 50
227.462146
 51
312.537849
  0
ARC
  8
LY_1
  6
CONTINUOUS
 62
     3
  5
62
 10
9.243111
 20
153.87796
 30
0.0
 40
0.97368
 50
227.875509
 51
264.434288
  0
ARC
  8
LY_1
  6
CONTINUOUS
 62
     3
  5
63
 10
8.934557
 20
153.536758
 30
0.0
 40
0.513668
 50
176.848009
 51
227.875219
  0
ARC
  8
LY_1
  6
CONTINUOUS
 62
     3
  5
64
 10
8.931699
 20
153.503922
 30
0.0
 40
0.513676
 50
122.124725
 51
173.17237
  0
ARC
  8
LY_1
  6
CONTINUOUS
 62
     3
  5
65
 10
9.176294
 20
153.114365
 30
0.0
 40
0.973662
 50
85.57809
 51
122.125176
  0
ARC
  8
LY_1
  6
CONTINUOUS
 62
     3
  5
66
 10
9.156893
 20
153.116074
 30
0.0
 40
0.973669
 50
47.874913
 51
84.431793
  0
ARC
  8
LY_1
  6
CONTINUOUS
 62
     3
  5
67
 10
9.465429
 20
153.45723
 30
0.0
 40
0.513667
 50
356.847997
 51
47.875224
  0
ARC
  8
LY_1
  6
CONTINUOUS
 62
     3
  5
68
 10
9.468305
 20
153.490067
 30
0.0
 40
0.513663
 50
302.125635
 51
353.174063
  0
ARC
  8
LY_1
  6
CONTINUOUS
 62
     3
  5
69
 10
9.223691
 20
153.879623
 30
0.0
 40
0.973658
 50
265.581364
 51
302.125451
  0
ARC
  8
LY_1
  6
CONTINUOUS
 62
     3
  5
6A
 10
9.176294
 20
153.114365
 30
0.0
 40
1.150007
 50
85.485425
 51
122.124889
  0
ARC
  8
LY_1
  6
CONTINUOUS
 62
     3
  5
6B
 10
9.465429
 20
153.45723
 30
0.0
 40
0.69
 50
356.377627
 51
47.875149
  0
ARC
  8
LY_1
  6
CONTINUOUS
 62
     3
  5
6C
 10
9.156893
 20
153.116074
 30
0.0
 40
1.150002
 50
47.874883
 51
84.514698
  0
ARC
  8
LY_1
  6
CONTINUOUS
 62
     3
  5
6D
 10
8.934557
 20
153.536758
 30
0.0
 40
0.69
 50
176.377628
 51
227.875137
  0
ARC
  8
LY_1
  6
CONTINUOUS
 62
     3
  5
6E
 10
9.243111
 20
153.87796
 30
0.0
 40
1.150002
 50
227.874881
 51
264.51444
  0
ARC
  8
LY_1
  6
CONTINUOUS
 62
     3
  5
6F
 10
8.931699
 20
153.503922
 30
0.0
 40
0.689999
 50
122.125394
 51
173.641577
  0
ARC
  8
LY_1
  6
CONTINUOUS
 62
     3
  5
70
 10
9.468305
 20
153.490067
 30
0.0
 40
0.689986
 50
302.126134
 51
353.641566
  0
ARC
  8
LY_1
  6
CONTINUOUS
 62
     3
  5
71
 10
9.223691
 20
153.879623
 30
0.0
 40
1.149991
 50
265.485632
 51
302.125246
  0
ARC
  8
LY_1
  6
CONTINUOUS
 62
     3
  5
72
 10
2.355591
 20
163.080292
 30
0.0
 40
0.306671
 50
90.000003
 51
180.000005
  0
ARC
  8
LY_1
  6
CONTINUOUS
 62
     3
  5
73
 10
2.28373
 20
163.061172
 30
0.0
 40
0.306677
 50
274.657784
 51
0.0
  0
ARC
  8
LY_1
  6
CONTINUOUS
 62
     3
  5
74
 10
2.332595
 20
163.038177
 30
0.0
 40
0.283668
 50
180.000009
 51
265.157284
  0
ARC
  8
LY_1
  6
CONTINUOUS
 62
     3
  5
75
 10
3.636665
 20
163.117142
 30
0.0
 40
0.011504
 50
312.4836
 51
90.000003
  0
ARC
  8
LY_1
  6
CONTINUOUS
 62
     3
  5
76
 10
3.986048
 20
163.060577
 30
0.0
 40
0.326441
 50
312.504073
 51
90.000003
  0
ARC
  8
LY_1
  6
CONTINUOUS
 62
     3
  5
77
 10
3.035484
 20
161.731018
 30
0.0
 40
0.011505
 50
132.487105
 51
270.000001
  0
ARC
  8
LY_1
  6
CONTINUOUS
 62
     3
  5
78
 10
2.27798
 20
161.413483
 30
0.0
 40
0.326485
 50
132.504659
 51
270.000001
  0
ARC
  8
LY_1
  6
CONTINUOUS
 62
     3
  5
79
 10
3.996242
 20
161.403259
 30
0.0
 40
0.316269
 50
269.999997
 51
90.000003
  0
ARC
  8
LY_1
  6
CONTINUOUS
 62
     3
  5
7A
 10
-0.379062
 20
163.080231
 30
0.0
 40
0.306671
 50
90.000003
 51
180.000005
  0
ARC
  8
LY_1
  6
CONTINUOUS
 62
     3
  5
7B
 10
-0.450923
 20
163.061096
 30
0.0
 40
0.306662
 50
274.658084
 51
0.0
  0
ARC
  8
LY_1
  6
CONTINUOUS
 62
     3
  5
7C
 10
-0.402074
 20
163.038101
 30
0.0
 40
0.283667
 50
180.000009
 51
265.157421
  0
ARC
  8
LY_1
  6
CONTINUOUS
 62
     3
  5
7D
 10
0.534015
 20
161.357758
 30
0.0
 40
0.270762
 50
180.000009
 51
0.0
  0
ARC
  8
LY_1
  6
CONTINUOUS
 62
     3
  5
7E
 10
1.348908
 20
163.070663
 30
0.0
 40
0.316238
 50
269.999997
 51
90.000003
  0
ARC
  8
LY_1
  6
CONTINUOUS
 62
     3
  5
7F
 10
-1.344063
 20
163.116287
 30
0.0
 40
0.270743
 50
0.0
 51
180.000005
  0
ARC
  8
LY_1
  6
CONTINUOUS
 62
     3
  5
80
 10
-1.344063
 20
161.357758
 30
0.0
 40
0.270741
 50
180.000009
 51
0.0
  0
ARC
  8
LY_1
  6
CONTINUOUS
 62
     3
  5
81
 10
-2.280319
 20
163.152191
 30
0.0
 40
0.229993
 50
69.540055
 51
129.10511
  0
ARC
  8
LY_1
  6
CONTINUOUS
 62
     3
  5
82
 10
-2.273484
 20
163.02301
 30
0.0
 40
0.268331
 50
211.487331
 51
266.528916
  0
ARC
  8
LY_1
  6
CONTINUOUS
 62
     3
  5
83
 10
-2.307109
 20
163.06134
 30
0.0
 40
0.306676
 50
273.248777
 51
0.0
  0
ARC
  8
LY_1
  6
CONTINUOUS
 62
     3
  5
84
 10
-2.307109
 20
163.080338
 30
0.0
 40
0.306667
 50
0.0
 51
69.540717
  0
ARC
  8
LY_1
  6
CONTINUOUS
 62
     3
  5
85
 10
-2.274755
 20
161.406143
 30
0.0
 40
0.29896
 50
230.896352
 51
50.896353
  0
ARC
  8
LY_1
  6
CONTINUOUS
 62
     3
  5
86
 10
-4.041764
 20
163.116257
 30
0.0
 40
0.270742
 50
0.0
 51
180.000005
  0
ARC
  8
LY_1
  6
CONTINUOUS
 62
     3
  5
87
 10
-4.041764
 20
161.357742
 30
0.0
 40
0.270742
 50
180.000009
 51
0.0
  0
CIRCLE
  8
LY_1
  6
CONTINUOUS
 62
     3
  5
88
 10
0.0
 20
153.497025
 30
0.0
 40
6.900001
  0
CIRCLE
  8
LY_1
  6
CONTINUOUS
 62
     3
  5
89
 10
0.0
 20
153.497025
 30
0.0
 40
11.5
  0
ARC
  8
LY_1
  6
CONTINUOUS
 62
     3
  5
8A
 10
-9.770807
 20
154.403168
 30
0.0
 40
0.115002
 50
329.801326
 51
149.801334
  0
ARC
  8
LY_1
  6
CONTINUOUS
 62
     3
  5
8B
 10
-8.507047
 20
152.715302
 30
0.0
 40
0.114994
 50
154.292853
 51
334.371802
  0
ARC
  8
LY_1
  6
CONTINUOUS
 62
     3
  5
8C
 10
-8.744491
 20
153.959854
 30
0.0
 40
0.225611
 50
18.469106
 51
169.99804
  0
ARC
  8
LY_1
  6
CONTINUOUS
 62
     3
  5
8D
 10
-9.588899
 20
152.920792
 30
0.0
 40
0.195554
 50
202.730537
 51
350.002007
  0
ARC
  8
LY_1
  6
CONTINUOUS
 62
     3
  5
8E
 10
-9.588899
 20
152.920792
 30
0.0
 40
0.425555
 50
202.732053
 51
349.999793
  0
ARC
  8
LY_1
  6
CONTINUOUS
 62
     3
  5
8F
 10
-8.744491
 20
153.959854
 30
0.0
 40
0.455612
 50
18.468854
 51
169.999925
  0
ARC
  8
LY_1
  6
CONTINUOUS
 62
     3
  5
90
 10
-10.130301
 20
153.497025
 30
0.0
 40
1.686666
 50
334.285919
 51
18.468295
  0
ARC
  8
LY_1
  6
CONTINUOUS
 62
     3
  5
91
 10
-8.213634
 20
153.497025
 30
0.0
 40
1.686668
 50
149.803343
 51
202.732527
  0
ARC
  8
LY_1
  6
CONTINUOUS
 62
     3
  5
92
 10
-8.213634
 20
153.497025
 30
0.0
 40
1.916666
 50
149.803506
 51
202.732609
  0
ARC
  8
LY_1
  6
CONTINUOUS
 62
     3
  5
93
 10
-10.130301
 20
153.497025
 30
0.0
 40
1.916673
 50
334.285518
 51
18.468333
  0
ARC
  8
LY_1
  6
CONTINUOUS
 62
     3
  5
94
 10
0.0
 20
153.497025
 30
0.0
 40
21.999989
 50
133.67202
 51
166.327988
  0
ARC
  8
LY_1
  6
CONTINUOUS
 62
     3
  5
95
 10
0.0
 20
153.497025
 30
0.0
 40
21.99999
 50
73.671991
 51
106.328034
  0
ARC
  8
LY_1
  6
CONTINUOUS
 62
     3
  5
96
 10
0.0
 20
153.497025
 30
0.0
 40
21.999975
 50
13.671985
 51
46.327985
  0
ARC
  8
LY_1
  6
CONTINUOUS
 62
     3
  5
97
 10
0.0
 20
153.497025
 30
0.0
 40
21.999994
 50
193.672012
 51
226.328007
  0
ARC
  8
LY_1
  6
CONTINUOUS
 62
     3
  5
98
 10
0.0
 20
153.497025
 30
0.0
 40
22.000006
 50
253.671986
 51
286.327981
  0
ARC
  8
LY_1
  6
CONTINUOUS
 62
     3
  5
99
 10
0.0
 20
153.497025
 30
0.0
 40
22.000015
 50
313.671981
 51
346.327948
  0
ARC
  8
LY_1
  6
CONTINUOUS
 62
     3
  5
9A
 10
71.0
 20
56.741596
 30
0.0
 40
6.999996
 50
304.849778
 51
0.0
  0
ARC
  8
LY_1
  6
CONTINUOUS
 62
     3
  5
9B
 10
101.0
 20
56.741596
 30
0.0
 40
7.0
 50
180.000009
 51
235.150112
  0
ARC
  8
LY_1
  6
CONTINUOUS
 62
     3
  5
9C
 10
79.899994
 20
89.497032
 30
0.0
 40
0.5
 50
269.999997
 51
0.0
  0
ARC
  8
LY_1
  6
CONTINUOUS
 62
     3
  5
9D
 10
69.974945
 20
89.997032
 30
0.0
 40
1.0
 50
180.000009
 51
269.999997
  0
ARC
  8
LY_1
  6
CONTINUOUS
 62
     3
  5
9E
 10
70.974945
 20
90.79702
 30
0.0
 40
2.0
 50
90.000003
 51
180.000005
  0
ARC
  8
LY_1
  6
CONTINUOUS
 62
     3
  5
9F
 10
66.66893
 20
91.397026
 30
0.0
 40
5.599994
 50
38.68224
 51
124.285196
  0
ARC
  8
LY_1
  6
CONTINUOUS
 62
     3
  5
A0
 10
68.250351
 20
89.086357
 30
0.0
 40
8.399996
 50
124.31936
 51
164.934657
  0
ARC
  8
LY_1
  6
CONTINUOUS
 62
     3
  5
A1
 10
97.319687
 20
81.277153
 30
0.0
 40
38.499981
 50
164.956896
 51
172.207797
  0
ARC
  8
LY_1
  6
CONTINUOUS
 62
     3
  5
A2
 10
92.099991
 20
89.497032
 30
0.0
 40
0.5
 50
180.000009
 51
269.999997
  0
ARC
  8
LY_1
  6
CONTINUOUS
 62
     3
  5
A3
 10
86.0
 20
91.397026
 30
0.0
 40
5.599991
 50
0.0
 51
180.000005
  0
CIRCLE
  8
LY_1
  6
CONTINUOUS
 62
   110
  5
A4
 10
0.0
 20
153.497025
 30
0.0
 40
2.299999
  0
CIRCLE
  8
LY_1
  6
CONTINUOUS
 62
     3
  5
A5
 10
0.0
 20
153.497025
 30
0.0
 40
3.0
  0
ARC
  8
LY_1
  6
CONTINUOUS
 62
     3
  5
A6
 10
102.02504
 20
89.997032
 30
0.0
 40
1.0
 50
269.999997
 51
0.0
  0
ARC
  8
LY_1
  6
CONTINUOUS
 62
     3
  5
A7
 10
101.02504
 20
90.79702
 30
0.0
 40
2.0
 50
0.0
 51
90.000003
  0
ARC
  8
LY_1
  6
CONTINUOUS
 62
     3
  5
A8
 10
105.331055
 20
91.397026
 30
0.0
 40
5.599997
 50
55.714895
 51
141.31798
  0
ARC
  8
LY_1
  6
CONTINUOUS
 62
     3
  5
A9
 10
103.749634
 20
89.086357
 30
0.0
 40
8.399987
 50
15.065277
 51
55.680723
  0
ARC
  8
LY_1
  6
CONTINUOUS
 62
     3
  5
AA
 10
74.680298
 20
81.277153
 30
0.0
 40
38.5
 50
7.792233
 51
15.043135
  0
ARC
  8
LY_1
  6
CONTINUOUS
 62
     3
  5
AB
 10
-11.004775
 20
89.997032
 30
0.0
 40
1.0
 50
180.000009
 51
269.999997
  0
ARC
  8
LY_1
  6
CONTINUOUS
 62
     3
  5
AC
 10
-10.004775
 20
90.79702
 30
0.0
 40
2.0
 50
90.000003
 51
180.000005
  0
ARC
  8
LY_1
  6
CONTINUOUS
 62
     3
  5
AD
 10
-21.661026
 20
89.997032
 30
0.0
 40
1.0
 50
180.000009
 51
269.999997
  0
ARC
  8
LY_1
  6
CONTINUOUS
 62
     3
  5
AE
 10
-20.661026
 20
90.79702
 30
0.0
 40
2.0
 50
90.000003
 51
180.000005
  0
ARC
  8
LY_1
  6
CONTINUOUS
 62
     3
  5
AF
 10
-11.849995
 20
91.397026
 30
0.0
 40
5.599991
 50
38.682059
 51
124.28525
  0
ARC
  8
LY_1
  6
CONTINUOUS
 62
     3
  5
B0
 10
-10.268574
 20
89.086357
 30
0.0
 40
8.400002
 50
124.319429
 51
164.934643
  0
ARC
  8
LY_1
  6
CONTINUOUS
 62
     3
  5
B1
 10
18.800766
 20
81.277153
 30
0.0
 40
38.499981
 50
164.956896
 51
172.207797
  0
ARC
  8
LY_1
  6
CONTINUOUS
 62
     3
  5
B2
 10
-22.506241
 20
91.397026
 30
0.0
 40
5.600006
 50
38.682138
 51
124.285237
  0
ARC
  8
LY_1
  6
CONTINUOUS
 62
     3
  5
B3
 10
-20.92482
 20
89.086357
 30
0.0
 40
8.399996
 50
124.31936
 51
164.934657
  0
ARC
  8
LY_1
  6
CONTINUOUS
 62
     3
  5
B4
 10
8.144503
 20
81.277153
 30
0.0
 40
38.500004
 50
164.956882
 51
172.207797
  0
ARC
  8
LY_1
  6
CONTINUOUS
 62
     3
  5
B5
 10
11.004775
 20
89.997032
 30
0.0
 40
1.0
 50
269.999997
 51
0.0
  0
ARC
  8
LY_1
  6
CONTINUOUS
 62
     3
  5
B6
 10
10.004775
 20
90.79702
 30
0.0
 40
2.0
 50
0.0
 51
90.000003
  0
ARC
  8
LY_1
  6
CONTINUOUS
 62
     3
  5
B7
 10
21.661026
 20
89.997032
 30
0.0
 40
1.0
 50
269.999997
 51
0.0
  0
ARC
  8
LY_1
  6
CONTINUOUS
 62
     3
  5
B8
 10
20.661026
 20
90.79702
 30
0.0
 40
2.0
 50
0.0
 51
90.000003
  0
ARC
  8
LY_1
  6
CONTINUOUS
 62
     3
  5
B9
 10
11.849995
 20
91.397026
 30
0.0
 40
5.600003
 50
55.714809
 51
141.31783
  0
ARC
  8
LY_1
  6
CONTINUOUS
 62
     3
  5
BA
 10
10.268574
 20
89.086357
 30
0.0
 40
8.399969
 50
15.065309
 51
55.68058
  0
ARC
  8
LY_1
  6
CONTINUOUS
 62
     3
  5
BB
 10
-18.800766
 20
81.277153
 30
0.0
 40
38.5
 50
7.792233
 51
15.043155
  0
ARC
  8
LY_1
  6
CONTINUOUS
 62
     3
  5
BC
 10
0.0
 20
153.497025
 30
0.0
 40
16.299997
 50
256.575288
 51
343.424611
  0
ARC
  8
LY_1
  6
CONTINUOUS
 62
     3
  5
BD
 10
0.0
 20
153.497025
 30
0.0
 40
16.299995
 50
136.575342
 51
223.424627
  0
ARC
  8
LY_1
  6
CONTINUOUS
 62
     3
  5
BE
 10
0.0
 20
153.497025
 30
0.0
 40
16.300003
 50
16.575325
 51
103.424651
  0
ARC
  8
LY_1
  6
CONTINUOUS
 62
     3
  5
BF
 10
11.849998
 20
174.02182
 30
0.0
 40
6.299982
 50
21.61901
 51
98.38113
  0
ARC
  8
LY_1
  6
CONTINUOUS
 62
     3
  5
C0
 10
15.972963
 20
167.963058
 30
0.0
 40
1.399999
 50
150.00012
 51
222.165768
  0
ARC
  8
LY_1
  6
CONTINUOUS
 62
     3
  5
C1
 10
20.51442
 20
160.097015
 30
0.0
 40
1.400008
 50
197.834206
 51
269.999997
  0
ARC
  8
LY_1
  6
CONTINUOUS
 62
     3
  5
C2
 10
0.0
 20
153.497025
 30
0.0
 40
20.149965
 50
17.821948
 51
42.176872
  0
ARC
  8
LY_1
  6
CONTINUOUS
 62
     3
  5
C3
 10
0.0
 20
153.497025
 30
0.0
 40
23.249973
 50
12.923823
 51
47.076153
  0
ARC
  8
LY_1
  6
CONTINUOUS
 62
     3
  5
C4
 10
87.430939
 20
203.975311
 30
0.0
 40
75.000015
 50
201.618896
 51
218.381096
  0
ARC
  8
LY_1
  6
CONTINUOUS
 62
     3
  5
C5
 10
23.699997
 20
153.497025
 30
0.0
 40
6.299994
 50
321.618643
 51
38.381251
  0
ARC
  8
LY_1
  6
CONTINUOUS
 62
     3
  5
C6
 10
20.514435
 20
146.897034
 30
0.0
 40
1.399994
 50
90.000003
 51
162.165794
  0
ARC
  8
LY_1
  6
CONTINUOUS
 62
     3
  5
C7
 10
15.972974
 20
139.030991
 30
0.0
 40
1.399999
 50
137.834228
 51
209.999862
  0
ARC
  8
LY_1
  6
CONTINUOUS
 62
     3
  5
C8
 10
0.0
 20
153.497025
 30
0.0
 40
20.150007
 50
317.821915
 51
342.176843
  0
ARC
  8
LY_1
  6
CONTINUOUS
 62
     3
  5
C9
 10
0.0
 20
153.497025
 30
0.0
 40
23.250002
 50
312.923833
 51
347.076112
  0
ARC
  8
LY_1
  6
CONTINUOUS
 62
     3
  5
CA
 10
87.430954
 20
103.018761
 30
0.0
 40
75.0
 50
141.618904
 51
158.381118
  0
ARC
  8
LY_1
  6
CONTINUOUS
 62
     3
  5
CB
 10
11.849995
 20
132.972214
 30
0.0
 40
6.300008
 50
261.618891
 51
338.381049
  0
ARC
  8
LY_1
  6
CONTINUOUS
 62
     3
  5
CC
 10
4.541471
 20
132.431
 30
0.0
 40
1.399998
 50
29.999909
 51
102.165758
  0
ARC
  8
LY_1
  6
CONTINUOUS
 62
     3
  5
CD
 10
-4.541451
 20
132.431
 30
0.0
 40
1.400002
 50
77.834247
 51
149.999642
  0
ARC
  8
LY_1
  6
CONTINUOUS
 62
     3
  5
CE
 10
0.0
 20
153.497025
 30
0.0
 40
20.150003
 50
257.821948
 51
282.176893
  0
ARC
  8
LY_1
  6
CONTINUOUS
 62
     3
  5
CF
 10
0.0
 20
153.497025
 30
0.0
 40
23.250006
 50
252.923848
 51
287.076126
  0
ARC
  8
LY_1
  6
CONTINUOUS
 62
     3
  5
D0
 10
0.000009
 20
52.54047
 30
0.0
 40
75.0
 50
81.618896
 51
98.38113
  0
ARC
  8
LY_1
  6
CONTINUOUS
 62
     3
  5
D1
 10
-11.849998
 20
132.972214
 30
0.0
 40
6.299982
 50
201.619005
 51
278.381084
  0
ARC
  8
LY_1
  6
CONTINUOUS
 62
     3
  5
D2
 10
-15.972963
 20
139.030975
 30
0.0
 40
1.399999
 50
330.000112
 51
42.165784
  0
ARC
  8
LY_1
  6
CONTINUOUS
 62
     3
  5
D3
 10
-20.51442
 20
146.897018
 30
0.0
 40
1.400008
 50
17.834218
 51
90.000003
  0
ARC
  8
LY_1
  6
CONTINUOUS
 62
     3
  5
D4
 10
0.0
 20
153.497025
 30
0.0
 40
20.149971
 50
197.82198
 51
222.176905
  0
ARC
  8
LY_1
  6
CONTINUOUS
 62
     3
  5
D5
 10
0.0
 20
153.497025
 30
0.0
 40
23.249979
 50
192.923888
 51
227.076186
  0
ARC
  8
LY_1
  6
CONTINUOUS
 62
     3
  5
D6
 10
-87.430939
 20
103.01873
 30
0.0
 40
75.0
 50
21.618886
 51
38.381111
  0
ARC
  8
LY_1
  6
CONTINUOUS
 62
     3
  5
D7
 10
-23.699997
 20
153.497025
 30
0.0
 40
6.299985
 50
141.618754
 51
218.381351
  0
ARC
  8
LY_1
  6
CONTINUOUS
 62
     3
  5
D8
 10
-20.514435
 20
160.097
 30
0.0
 40
1.399994
 50
269.999997
 51
342.165782
  0
ARC
  8
LY_1
  6
CONTINUOUS
 62
     3
  5
D9
 10
-15.972969
 20
167.963043
 30
0.0
 40
1.399999
 50
317.834189
 51
29.999888
  0
ARC
  8
LY_1
  6
CONTINUOUS
 62
     3
  5
DA
 10
0.0
 20
153.497025
 30
0.0
 40
20.149998
 50
137.821948
 51
162.176886
  0
ARC
  8
LY_1
  6
CONTINUOUS
 62
     3
  5
DB
 10
0.0
 20
153.497025
 30
0.0
 40
23.250002
 50
132.923841
 51
167.076153
  0
ARC
  8
LY_1
  6
CONTINUOUS
 62
     3
  5
DC
 10
-87.430954
 20
203.975281
 30
0.0
 40
75.000023
 50
321.618896
 51
338.381109
  0
ARC
  8
LY_1
  6
CONTINUOUS
 62
     3
  5
DD
 10
-11.849995
 20
174.02182
 30
0.0
 40
6.299993
 50
81.618875
 51
158.381131
  0
ARC
  8
LY_1
  6
CONTINUOUS
 62
     3
  5
DE
 10
-4.541467
 20
174.563034
 30
0.0
 40
1.399998
 50
209.999907
 51
282.165719
  0
ARC
  8
LY_1
  6
CONTINUOUS
 62
     3
  5
DF
 10
4.541457
 20
174.563034
 30
0.0
 40
1.400002
 50
257.834194
 51
329.99963
  0
ARC
  8
LY_1
  6
CONTINUOUS
 62
     3
  5
E0
 10
0.0
 20
153.497025
 30
0.0
 40
20.149971
 50
77.821973
 51
102.176898
  0
ARC
  8
LY_1
  6
CONTINUOUS
 62
     3
  5
E1
 10
0.0
 20
153.497025
 30
0.0
 40
23.249989
 50
72.92386
 51
107.076165
  0
ARC
  8
LY_1
  6
CONTINUOUS
 62
     3
  5
E2
 10
-0.000009
 20
254.453568
 30
0.0
 40
75.000008
 50
261.618891
 51
278.381104
  0
ARC
  8
LY_1
  6
CONTINUOUS
 62
     3
  5
E3
 10
22.506241
 20
91.397026
 30
0.0
 40
5.599997
 50
55.714895
 51
141.317884
  0
ARC
  8
LY_1
  6
CONTINUOUS
 62
     3
  5
E4
 10
20.92482
 20
89.086357
 30
0.0
 40
8.399987
 50
15.065277
 51
55.680638
  0
ARC
  8
LY_1
  6
CONTINUOUS
 62
     3
  5
E5
 10
-8.144503
 20
81.277153
 30
0.0
 40
38.499989
 50
7.792236
 51
15.043155
  0
ARC
  8
LY_1
  6
CONTINUOUS
 62
     3
  5
E6
 10
-15.0
 20
57.345066
 30
0.0
 40
7.000005
 50
294.924778
 51
0.0
  0
ARC
  8
LY_1
  6
CONTINUOUS
 62
     3
  5
E7
 10
15.0
 20
57.345066
 30
0.0
 40
7.0
 50
180.000009
 51
245.075223
  0
ARC
  8
LY_1
  6
CONTINUOUS
 62
     3
  5
E8
 10
1.906798
 20
1.718932
 30
0.0
 40
0.718903
 50
217.524112
 51
359.999924
  0
ARC
  8
LY_1
  6
CONTINUOUS
 62
     3
  5
E9
 10
-1.903609
 20
1.722046
 30
0.0
 40
0.722061
 50
180.000077
 51
359.999924
  0
ARC
  8
LY_1
  6
CONTINUOUS
 62
     3
  5
EA
 10
-1.906708
 20
6.713837
 30
0.0
 40
0.719028
 50
37.524021
 51
180.000005
  0
ARC
  8
LY_1
  6
CONTINUOUS
 62
     3
  5
EB
 10
1.888
 20
6.429703
 30
0.0
 40
0.737711
 50
0.0
 51
270.000001
  0
ARC
  8
LY_1
  6
CONTINUOUS
 62
     3
  5
EC
 10
1.903473
 20
8.935135
 30
0.0
 40
0.722032
 50
180.000005
 51
0.00001
  0
ARC
  8
LY_1
  6
CONTINUOUS
 62
     3
  5
ED
 10
-1.887955
 20
11.295029
 30
0.0
 40
0.737732
 50
90.000003
 51
270.000001
  0
ARC
  8
LY_1
  6
CONTINUOUS
 62
     3
  5
EE
 10
1.887801
 20
13.880736
 30
0.0
 40
0.73767
 50
0.0
 51
270.000001
  0
ARC
  8
LY_1
  6
CONTINUOUS
 62
     3
  5
EF
 10
-1.887955
 20
16.412003
 30
0.0
 40
0.737717
 50
90.000003
 51
270.000001
  0
ARC
  8
LY_1
  6
CONTINUOUS
 62
     3
  5
F0
 10
1.888
 20
16.412003
 30
0.0
 40
0.737723
 50
269.999997
 51
90.000003
  0
ARC
  8
LY_1
  6
CONTINUOUS
 62
     3
  5
F1
 10
1.750748
 20
18.899643
 30
0.0
 40
0.875
 50
0.778369
 51
34.259928
  0
ARC
  8
LY_1
  6
CONTINUOUS
 62
     3
  5
F2
 10
1.90387
 20
18.922394
 30
0.0
 40
0.721864
 50
123.575662
 51
359.142521
  0
ARC
  8
LY_1
  6
CONTINUOUS
 62
     3
  5
F3
 10
-1.905334
 20
18.935684
 30
0.0
 40
0.727015
 50
145.741566
 51
325.741256
  0
ARC
  8
LY_1
  6
CONTINUOUS
 62
     3
  5
F4
 10
-1.88803
 20
23.762329
 30
0.0
 40
0.737671
 50
90.000003
 51
270.000001
  0
ARC
  8
LY_1
  6
CONTINUOUS
 62
     3
  5
F5
 10
1.888062
 20
23.762329
 30
0.0
 40
0.737686
 50
269.999997
 51
90.000003
  0
ARC
  8
LY_1
  6
CONTINUOUS
 62
     3
  5
F6
 10
-16.85
 20
26.5
 30
0.0
 40
2.0
 50
0.0
 51
90.000003
  0
ARC
  8
LY_1
  6
CONTINUOUS
 62
     3
  5
F7
 10
90.0
 20
26.5
 30
0.0
 40
2.0
 50
90.000003
 51
180.000005
  0
ARC
  8
LY_1
  6
CONTINUOUS
 62
     3
  5
F8
 10
82.0
 20
26.5
 30
0.0
 40
2.0
 50
0.0
 51
90.000003
  0
ARC
  8
LY_1
  6
CONTINUOUS
 62
     3
  5
F9
 10
-21.0
 20
25.901932
 30
0.0
 40
2.0
 50
0.0
 51
59.999469
  0
ARC
  8
LY_1
  6
CONTINUOUS
 62
     3
  5
FA
 10
-21.0
 20
23.5
 30
0.0
 40
2.0
 50
269.999997
 51
0.0
  0
ARC
  8
LY_1
  6
CONTINUOUS
 62
     3
  5
FB
 10
-18.5
 20
30.232025
 30
0.0
 40
2.999985
 50
180.000282
 51
240.000311
  0
ARC
  8
LY_1
  6
CONTINUOUS
 62
     3
  5
FC
 10
21.0
 20
25.901932
 30
0.0
 40
1.999999
 50
120.000536
 51
180.000005
  0
ARC
  8
LY_1
  6
CONTINUOUS
 62
     3
  5
FD
 10
21.0
 20
23.5
 30
0.0
 40
2.0
 50
180.000009
 51
269.999997
  0
ARC
  8
LY_1
  6
CONTINUOUS
 62
     3
  5
FE
 10
64.251053
 20
26.431458
 30
0.0
 40
2.000015
 50
0.499645
 51
49.473813
  0
ARC
  8
LY_1
  6
CONTINUOUS
 62
     3
  5
FF
 10
67.5
 20
30.232025
 30
0.0
 40
3.0
 50
180.000282
 51
229.474306
  0
ARC
  8
LY_1
  6
CONTINUOUS
 62
     3
  5
100
 10
107.748932
 20
26.431458
 30
0.0
 40
2.0
 50
130.526199
 51
179.500363
  0
ARC
  8
LY_1
  6
CONTINUOUS
 62
     3
  5
101
 10
104.5
 20
30.232025
 30
0.0
 40
2.999987
 50
310.525241
 51
359.999709
  0
CIRCLE
  8
LY_1
  6
CONTINUOUS
 62
     3
  5
102
 10
86.0
 20
0.0
 30
0.0
 40
15.15
  0
CIRCLE
  8
LY_1
  6
CONTINUOUS
 62
   110
  5
103
 10
86.0
 20
0.0
 30
0.0
 40
16.599991
  0
ARC
  8
LY_1
  6
CONTINUOUS
 62
     3
  5
104
 10
18.5
 20
30.232025
 30
0.0
 40
2.999999
 50
299.999684
 51
359.999709
  0
ARC
  8
LY_1
  6
CONTINUOUS
 62
     3
  5
105
 10
-10.859434
 20
-14.850003
 30
0.0
 40
2.999985
 50
269.999997
 51
291.786901
  0
ARC
  8
LY_1
  6
CONTINUOUS
 62
     3
  5
106
 10
-8.261358
 20
-21.350002
 30
0.0
 40
4.000008
 50
69.418088
 51
111.786762
  0
ARC
  8
LY_1
  6
CONTINUOUS
 62
     3
  5
107
 10
-14.40695
 20
-19.850002
 30
0.0
 40
2.0
 50
90.000003
 51
164.999503
  0
ARC
  8
LY_1
  6
CONTINUOUS
 62
     3
  5
108
 10
10.859426
 20
-14.850003
 30
0.0
 40
2.999978
 50
248.213005
 51
269.999997
  0
ARC
  8
LY_1
  6
CONTINUOUS
 62
     3
  5
109
 10
8.261351
 20
-21.350002
 30
0.0
 40
4.000008
 50
68.21325
 51
110.581917
  0
ARC
  8
LY_1
  6
CONTINUOUS
 62
     3
  5
10A
 10
-0.000004
 20
0.649997
 30
0.0
 40
19.499975
 50
249.418015
 51
290.582028
  0
ARC
  8
LY_1
  6
CONTINUOUS
 62
     3
  5
10B
 10
14.406942
 20
-19.850002
 30
0.0
 40
1.999997
 50
15.000504
 51
90.000003
  0
LINE
  8
LY_1
  6
CONTINUOUS
 62
     3
  5
10C
 10
16.85
 20
21.5
 30
0.0
 11
25.0
 21
21.5
 31
0.0
  0
LINE
  8
LY_1
  6
CONTINUOUS
 62
     3
  5
10D
 10
15.85
 20
25.237953
 30
0.0
 11
20.0
 21
27.633957
 31
0.0
  0
LINE
  8
LY_1
  6
CONTINUOUS
 62
     3
  5
10E
 10
14.85
 20
26.5
 30
0.0
 11
14.85
 21
23.5
 31
0.0
  0
LINE
  8
LY_1
  6
CONTINUOUS
 62
     3
  5
10F
 10
-17.0
 20
-21.799999
 30
0.0
 11
-25.0
 21
-21.799999
 31
0.0
  0
LINE
  8
LY_1
  6
CONTINUOUS
 62
     3
  5
110
 10
-17.0
 20
-11.258329
 30
0.0
 11
-25.0
 21
-11.258329
 31
0.0
  0
LINE
  8
LY_1
  6
CONTINUOUS
 62
     3
  5
111
 10
-16.85
 20
21.5
 30
0.0
 11
-25.0
 21
21.5
 31
0.0
  0
LINE
  8
LY_1
  6
CONTINUOUS
 62
     3
  5
112
 10
-17.0
 20
21.5
 30
0.0
 11
-17.0
 21
-21.799999
 31
0.0
  0
LINE
  8
LY_1
  6
CONTINUOUS
 62
     3
  5
113
 10
-17.0
 20
11.258326
 30
0.0
 11
-25.0
 21
11.258326
 31
0.0
  0
LINE
  8
LY_1
  6
CONTINUOUS
 62
     3
  5
114
 10
17.0
 20
-21.799999
 30
0.0
 11
25.0
 21
-21.799999
 31
0.0
  0
LINE
  8
LY_1
  6
CONTINUOUS
 62
     3
  5
115
 10
17.0
 20
-11.258329
 30
0.0
 11
25.0
 21
-11.258329
 31
0.0
  0
LINE
  8
LY_1
  6
CONTINUOUS
 62
     3
  5
116
 10
17.0
 20
11.258326
 30
0.0
 11
25.0
 21
11.258326
 31
0.0
  0
LINE
  8
LY_1
  6
CONTINUOUS
 62
     3
  5
117
 10
84.75872
 20
-21.799999
 30
0.0
 11
87.241257
 21
-21.799999
 31
0.0
  0
LINE
  8
LY_1
  6
CONTINUOUS
 62
     3
  5
118
 10
66.500001
 20
-11.25833
 30
0.0
 11
84.758722
 21
-21.8
 31
0.0
  0
LINE
  8
LY_1
  6
CONTINUOUS
 62
     3
  5
119
 10
87.241256
 20
-21.799998
 30
0.0
 11
105.499998
 21
-11.25832
 31
0.0
  0
LINE
  8
LY_1
  6
CONTINUOUS
 62
     3
  5
11A
 10
84.239098
 20
21.5
 30
0.0
 11
87.76088
 21
21.5
 31
0.0
  0
LINE
  8
LY_1
  6
CONTINUOUS
 62
     3
  5
11B
 10
87.760879
 20
21.500001
 30
0.0
 11
105.500001
 21
11.258326
 31
0.0
  0
LINE
  8
LY_1
  6
CONTINUOUS
 62
     3
  5
11C
 10
66.500002
 20
11.258327
 30
0.0
 11
84.239096
 21
21.499999
 31
0.0
  0
LINE
  8
LY_1
  6
CONTINUOUS
 62
     3
  5
11D
 10
105.5
 20
11.258326
 30
0.0
 11
105.5
 21
-11.25832
 31
0.0
  0
LINE
  8
LY_1
  6
CONTINUOUS
 62
     3
  5
11E
 10
66.5
 20
11.258326
 30
0.0
 11
66.5
 21
-11.258329
 31
0.0
  0
LINE
  8
LY_1
  6
CONTINUOUS
 62
     3
  5
11F
 10
64.0
 20
37.0
 30
0.0
 11
108.0
 21
37.0
 31
0.0
  0
LINE
  8
LY_1
  6
CONTINUOUS
 62
     3
  5
120
 10
64.0
 20
40.0
 30
0.0
 11
108.0
 21
40.0
 31
0.0
  0
LINE
  8
LY_1
  6
CONTINUOUS
 62
     3
  5
121
 10
96.999999
 20
43.997027
 30
0.0
 11
108.000002
 21
42.509996
 31
0.0
  0
LINE
  8
LY_1
  6
CONTINUOUS
 62
     3
  5
122
 10
63.999995
 20
42.509997
 30
0.0
 11
74.999998
 21
43.997027
 31
0.0
  0
LINE
  8
LY_1
  6
CONTINUOUS
 62
     3
  5
123
 10
-22.0
 20
40.0
 30
0.0
 11
22.0
 21
40.0
 31
0.0
  0
LINE
  8
LY_1
  6
CONTINUOUS
 62
     3
  5
124
 10
-22.0
 20
37.0
 30
0.0
 11
22.0
 21
37.0
 31
0.0
  0
LINE
  8
LY_1
  6
CONTINUOUS
 62
     3
  5
125
 10
64.0
 20
42.509998
 30
0.0
 11
108.0
 21
42.509998
 31
0.0
  0
LINE
  8
LY_1
  6
CONTINUOUS
 62
     3
  5
126
 10
-22.0
 20
40.0
 30
0.0
 11
22.0
 21
40.0
 31
0.0
  0
LINE
  8
LY_1
  6
CONTINUOUS
 62
     3
  5
127
 10
6.46029
 20
148.07616
 30
0.0
 11
7.634896
 21
147.090547
 31
0.0
  0
LINE
  8
LY_1
  6
CONTINUOUS
 62
     3
  5
128
 10
6.948357
 20
150.256946
 30
0.0
 11
7.643187
 21
149.932926
 31
0.0
  0
LINE
  8
LY_1
  6
CONTINUOUS
 62
     3
  5
129
 10
9.727713
 20
148.96092
 30
0.0
 11
9.032852
 21
149.284926
 31
0.0
  0
LINE
  8
LY_1
  6
CONTINUOUS
 62
     3
  5
12A
 10
9.060244
 20
151.899432
 30
0.0
 11
6.948365
 21
150.25693
 31
0.0
  0
LINE
  8
LY_1
  6
CONTINUOUS
 62
     3
  5
12B
 10
9.060223
 20
151.899438
 30
0.0
 11
9.727689
 21
148.960892
 31
0.0
  0
LINE
  8
LY_1
  6
CONTINUOUS
 62
     3
  5
12C
 10
-6.460301
 20
148.076148
 30
0.0
 11
-7.634907
 21
147.090535
 31
0.0
  0
LINE
  8
LY_1
  6
CONTINUOUS
 62
     3
  5
12D
 10
-6.948364
 20
150.256934
 30
0.0
 11
-7.643197
 21
149.932928
 31
0.0
  0
LINE
  8
LY_1
  6
CONTINUOUS
 62
     3
  5
12E
 10
-9.727695
 20
148.960893
 30
0.0
 11
-9.032864
 21
149.284928
 31
0.0
  0
LINE
  8
LY_1
  6
CONTINUOUS
 62
     3
  5
12F
 10
-9.060244
 20
151.899432
 30
0.0
 11
-6.948365
 21
150.25693
 31
0.0
  0
LINE
  8
LY_1
  6
CONTINUOUS
 62
     3
  5
130
 10
-9.060241
 20
151.899435
 30
0.0
 11
-9.727705
 21
148.96092
 31
0.0
  0
LINE
  8
LY_1
  6
CONTINUOUS
 62
     3
  5
131
 10
2.048908
 20
163.080292
 30
0.0
 11
2.048908
 21
163.038177
 31
0.0
  0
LINE
  8
LY_1
  6
CONTINUOUS
 62
     3
  5
132
 10
2.590395
 20
163.128616
 30
0.0
 11
2.590395
 21
163.061172
 31
0.0
  0
LINE
  8
LY_1
  6
CONTINUOUS
 62
     3
  5
133
 10
-0.144258
 20
163.128555
 30
0.0
 11
-0.144258
 21
163.061096
 31
0.0
  0
LINE
  8
LY_1
  6
CONTINUOUS
 62
     3
  5
134
 10
-0.685727
 20
163.080231
 30
0.0
 11
-0.685727
 21
163.038101
 31
0.0
  0
LINE
  8
LY_1
  6
CONTINUOUS
 62
     3
  5
135
 10
-1.073329
 20
163.116287
 30
0.0
 11
-1.073329
 21
161.357758
 31
0.0
  0
LINE
  8
LY_1
  6
CONTINUOUS
 62
     3
  5
136
 10
-1.614798
 20
163.116287
 30
0.0
 11
-1.614798
 21
161.357758
 31
0.0
  0
LINE
  8
LY_1
  6
CONTINUOUS
 62
     3
  5
137
 10
-2.000443
 20
163.080338
 30
0.0
 11
-2.000443
 21
163.06134
 31
0.0
  0
LINE
  8
LY_1
  6
CONTINUOUS
 62
     3
  5
138
 10
-0.144258
 20
163.128555
 30
0.0
 11
0.263264
 21
163.128555
 31
0.0
  0
LINE
  8
LY_1
  6
CONTINUOUS
 62
     3
  5
139
 10
0.804783
 20
162.75444
 30
0.0
 11
1.348908
 21
162.75444
 31
0.0
  0
LINE
  8
LY_1
  6
CONTINUOUS
 62
     3
  5
13A
 10
0.804783
 20
162.75444
 30
0.0
 11
0.804783
 21
161.357758
 31
0.0
  0
LINE
  8
LY_1
  6
CONTINUOUS
 62
     3
  5
13B
 10
0.263264
 20
163.128555
 30
0.0
 11
0.263264
 21
161.357758
 31
0.0
  0
LINE
  8
LY_1
  6
CONTINUOUS
 62
     3
  5
13C
 10
-0.379062
 20
163.386871
 30
0.0
 11
1.348908
 21
163.386871
 31
0.0
  0
LINE
  8
LY_1
  6
CONTINUOUS
 62
     3
  5
13D
 10
2.590395
 20
163.128662
 30
0.0
 11
3.636665
 21
163.128662
 31
0.0
  0
LINE
  8
LY_1
  6
CONTINUOUS
 62
     3
  5
13E
 10
2.27798
 20
161.087006
 30
0.0
 11
3.996242
 21
161.087006
 31
0.0
  0
LINE
  8
LY_1
  6
CONTINUOUS
 62
     3
  5
13F
 10
3.996242
 20
161.719498
 30
0.0
 11
3.035484
 21
161.719498
 31
0.0
  0
LINE
  8
LY_1
  6
CONTINUOUS
 62
     3
  5
140
 10
4.206603
 20
162.819905
 30
0.0
 11
3.027726
 21
161.739492
 31
0.0
  0
LINE
  8
LY_1
  6
CONTINUOUS
 62
     3
  5
141
 10
3.644441
 20
163.108679
 30
0.0
 11
2.055126
 21
161.65209
 31
0.0
  0
LINE
  8
LY_1
  6
CONTINUOUS
 62
     3
  5
142
 10
2.355591
 20
163.386993
 30
0.0
 11
3.986048
 21
163.386993
 31
0.0
  0
LINE
  8
LY_1
  6
CONTINUOUS
 62
     3
  5
143
 10
-3.059932
 20
162.429623
 30
0.0
 11
-2.502295
 21
162.882871
 31
0.0
  0
LINE
  8
LY_1
  6
CONTINUOUS
 62
     3
  5
144
 10
-3.059947
 20
162.429621
 30
0.0
 11
-2.086187
 21
161.638162
 31
0.0
  0
LINE
  8
LY_1
  6
CONTINUOUS
 62
     3
  5
145
 10
-3.759356
 20
162.246422
 30
0.0
 11
-2.425364
 21
163.33068
 31
0.0
  0
LINE
  8
LY_1
  6
CONTINUOUS
 62
     3
  5
146
 10
-3.759354
 20
162.227562
 30
0.0
 11
-2.463308
 21
161.174154
 31
0.0
  0
LINE
  8
LY_1
  6
CONTINUOUS
 62
     3
  5
147
 10
-3.77103
 20
163.116257
 30
0.0
 11
-3.77103
 21
161.357742
 31
0.0
  0
LINE
  8
LY_1
  6
CONTINUOUS
 62
     3
  5
148
 10
-4.312516
 20
163.116257
 30
0.0
 11
-4.312516
 21
161.357742
 31
0.0
  0
LINE
  8
LY_1
  6
CONTINUOUS
 62
     3
  5
149
 10
-9.193188
 20
154.03895
 30
0.0
 11
-9.396338
 21
152.886832
 31
0.0
  0
LINE
  8
LY_1
  6
CONTINUOUS
 62
     3
  5
14A
 10
-8.966674
 20
153.999031
 30
0.0
 11
-9.169824
 21
152.846898
 31
0.0
  0
LINE
  8
LY_1
  6
CONTINUOUS
 62
     3
  5
14B
 10
-17.5
 20
166.829315
 30
0.0
 11
-17.5
 21
168.804276
 31
0.0
  0
LINE
  8
LY_1
  6
CONTINUOUS
 62
     3
  5
14C
 10
-17.5
 20
140.164719
 30
0.0
 11
-17.5
 21
138.189758
 31
0.0
  0
LINE
  8
LY_1
  6
CONTINUOUS
 62
     3
  5
14D
 10
6.350858
 20
142.497028
 30
0.0
 11
7.849234
 21
145.092289
 31
0.0
  0
LINE
  8
LY_1
  6
CONTINUOUS
 62
     3
  5
14E
 10
17.5
 20
166.829315
 30
0.0
 11
17.5
 21
168.804276
 31
0.0
  0
LINE
  8
LY_1
  6
CONTINUOUS
 62
     3
  5
14F
 10
3.354101
 20
142.497025
 30
0.0
 11
6.350853
 21
142.497025
 31
0.0
  0
LINE
  8
LY_1
  6
CONTINUOUS
 62
     3
  5
150
 10
6.350855
 20
164.497017
 30
0.0
 11
7.849232
 21
161.901739
 31
0.0
  0
LINE
  8
LY_1
  6
CONTINUOUS
 62
     3
  5
151
 10
17.5
 20
140.164719
 30
0.0
 11
17.5
 21
138.189758
 31
0.0
  0
LINE
  8
LY_1
  6
CONTINUOUS
 62
     3
  5
152
 10
3.354101
 20
164.497025
 30
0.0
 11
6.350853
 21
164.497025
 31
0.0
  0
LINE
  8
LY_1
  6
CONTINUOUS
 62
     3
  5
153
 10
-22.0
 20
42.509998
 30
0.0
 11
22.0
 21
42.509998
 31
0.0
  0
LINE
  8
LY_1
  6
CONTINUOUS
 62
     3
  5
154
 10
86.0
 20
50.997028
 30
0.0
 11
86.0
 21
43.997028
 31
0.0
  0
LINE
  8
LY_1
  6
CONTINUOUS
 62
     3
  5
155
 10
86.0
 20
73.497032
 30
0.0
 11
86.0
 21
62.997032
 31
0.0
  0
LINE
  8
LY_1
  6
CONTINUOUS
 62
     3
  5
156
 10
-19.127594
 20
133.997025
 30
0.0
 11
-25.0
 21
133.997025
 31
0.0
  0
LINE
  8
LY_1
  6
CONTINUOUS
 62
     3
  5
157
 10
-25.0
 20
133.997025
 30
0.0
 11
-25.0
 21
144.58046
 31
0.0
  0
LINE
  8
LY_1
  6
CONTINUOUS
 62
     3
  5
158
 10
19.127594
 20
133.997025
 30
0.0
 11
25.0
 21
133.997025
 31
0.0
  0
LINE
  8
LY_1
  6
CONTINUOUS
 62
     3
  5
159
 10
25.0
 20
133.997025
 30
0.0
 11
25.0
 21
144.580475
 31
0.0
  0
LINE
  8
LY_1
  6
CONTINUOUS
 62
     3
  5
15A
 10
-19.127594
 20
172.997025
 30
0.0
 11
-25.0
 21
172.997025
 31
0.0
  0
LINE
  8
LY_1
  6
CONTINUOUS
 62
     3
  5
15B
 10
-25.0
 20
172.997025
 30
0.0
 11
-25.0
 21
162.413574
 31
0.0
  0
LINE
  8
LY_1
  6
CONTINUOUS
 62
     3
  5
15C
 10
19.127594
 20
172.997025
 30
0.0
 11
25.0
 21
172.997025
 31
0.0
  0
LINE
  8
LY_1
  6
CONTINUOUS
 62
     3
  5
15D
 10
25.0
 20
172.997025
 30
0.0
 11
25.0
 21
162.413559
 31
0.0
  0
LINE
  8
LY_1
  6
CONTINUOUS
 62
     3
  5
15E
 10
75.0
 20
50.997028
 30
0.0
 11
75.0
 21
43.997028
 31
0.0
  0
LINE
  8
LY_1
  6
CONTINUOUS
 62
     3
  5
15F
 10
78.0
 20
62.997032
 30
0.0
 11
78.0
 21
56.741596
 31
0.0
  0
LINE
  8
LY_1
  6
CONTINUOUS
 62
     3
  5
160
 10
97.0
 20
50.997028
 30
0.0
 11
97.0
 21
43.997028
 31
0.0
  0
LINE
  8
LY_1
  6
CONTINUOUS
 62
   110
  5
161
 10
93.349991
 20
62.997032
 30
0.0
 11
93.349991
 21
57.997028
 31
0.0
  0
LINE
  8
LY_1
  6
CONTINUOUS
 62
   110
  5
162
 10
78.649994
 20
62.997032
 30
0.0
 11
78.649994
 21
57.997028
 31
0.0
  0
LINE
  8
LY_1
  6
CONTINUOUS
 62
     3
  5
163
 10
78.0
 20
57.997028
 30
0.0
 11
94.0
 21
57.997028
 31
0.0
  0
LINE
  8
LY_1
  6
CONTINUOUS
 62
     3
  5
164
 10
94.0
 20
62.997032
 30
0.0
 11
94.0
 21
56.741596
 31
0.0
  0
LINE
  8
LY_1
  6
CONTINUOUS
 62
     3
  5
165
 10
75.0
 20
50.997028
 30
0.0
 11
97.0
 21
50.997028
 31
0.0
  0
LINE
  8
LY_1
  6
CONTINUOUS
 62
     3
  5
166
 10
75.0
 20
43.997028
 30
0.0
 11
97.0
 21
43.997028
 31
0.0
  0
LINE
  8
LY_1
  6
CONTINUOUS
 62
     3
  5
167
 10
-6.350853
 20
50.997028
 30
0.0
 11
-6.350853
 21
43.997028
 31
0.0
  0
LINE
  8
LY_1
  6
CONTINUOUS
 62
     3
  5
168
 10
6.350853
 20
50.997028
 30
0.0
 11
6.350853
 21
43.997028
 31
0.0
  0
LINE
  8
LY_1
  6
CONTINUOUS
 62
     3
  5
169
 10
95.0
 20
73.497032
 30
0.0
 11
95.0
 21
62.997032
 31
0.0
  0
LINE
  8
LY_1
  6
CONTINUOUS
 62
     3
  5
16A
 10
77.0
 20
73.497032
 30
0.0
 11
77.0
 21
62.997032
 31
0.0
  0
LINE
  8
LY_1
  6
CONTINUOUS
 62
     3
  5
16B
 10
80.399994
 20
91.397026
 30
0.0
 11
80.399994
 21
89.497032
 31
0.0
  0
LINE
  8
LY_1
  6
CONTINUOUS
 62
     3
  5
16C
 10
79.899994
 20
88.997032
 30
0.0
 11
69.974945
 21
88.997032
 31
0.0
  0
LINE
  8
LY_1
  6
CONTINUOUS
 62
     3
  5
16D
 10
80.399994
 20
89.997032
 30
0.0
 11
68.974945
 21
89.997032
 31
0.0
  0
LINE
  8
LY_1
  6
CONTINUOUS
 62
     3
  5
16E
 10
80.57782
 20
92.79702
 30
0.0
 11
70.974945
 21
92.79702
 31
0.0
  0
LINE
  8
LY_1
  6
CONTINUOUS
 62
     3
  5
16F
 10
68.974945
 20
90.79702
 30
0.0
 11
68.974945
 21
89.997032
 31
0.0
  0
LINE
  8
LY_1
  6
CONTINUOUS
 62
     3
  5
170
 10
81.628479
 20
94.897026
 30
0.0
 11
71.040436
 21
94.897026
 31
0.0
  0
LINE
  8
LY_1
  6
CONTINUOUS
 62
     3
  5
171
 10
59.175191
 20
86.497032
 30
0.0
 11
59.358923
 21
84.397006
 31
0.0
  0
LINE
  8
LY_1
  6
CONTINUOUS
 62
     3
  5
172
 10
91.599991
 20
91.397026
 30
0.0
 11
91.599991
 21
89.497032
 31
0.0
  0
LINE
  8
LY_1
  6
CENTER
 62
   110
  5
174
 10
0.0
 20
123.792641
 30
0.0
 11
0.0
 21
183.749603
 31
0.0
  0
LINE
  8
LY_1
  6
CENTER
 62
   110
  5
175
 10
-33.524147
 20
153.497025
 30
0.0
 11
35.0
 21
153.497025
 31
0.0
  0
LINE
  8
LY_1
  6
CONTINUOUS
 62
     3
  5
176
 10
79.000001
 20
82.397035
 30
0.0
 11
74.171619
 21
84.397019
 31
0.0
  0
LINE
  8
LY_1
  6
CONTINUOUS
 62
     3
  5
177
 10
92.999988
 20
82.397006
 30
0.0
 11
97.828405
 21
84.397007
 31
0.0
  0
LINE
  8
LY_1
  6
CONTINUOUS
 62
     3
  5
178
 10
79.0
 20
84.397026
 30
0.0
 11
79.0
 21
80.697029
 31
0.0
  0
LINE
  8
LY_1
  6
CONTINUOUS
 62
     3
  5
179
 10
92.099991
 20
88.997032
 30
0.0
 11
102.02504
 21
88.997032
 31
0.0
  0
LINE
  8
LY_1
  6
CONTINUOUS
 62
     3
  5
17A
 10
91.599991
 20
89.997032
 30
0.0
 11
103.02504
 21
89.997032
 31
0.0
  0
LINE
  8
LY_1
  6
CONTINUOUS
 62
     3
  5
17B
 10
91.422165
 20
92.79702
 30
0.0
 11
101.02504
 21
92.79702
 31
0.0
  0
LINE
  8
LY_1
  6
CONTINUOUS
 62
     3
  5
17C
 10
103.02504
 20
90.79702
 30
0.0
 11
103.02504
 21
89.997032
 31
0.0
  0
LINE
  8
LY_1
  6
CONTINUOUS
 62
     3
  5
17D
 10
90.371506
 20
94.897026
 30
0.0
 11
100.959549
 21
94.897026
 31
0.0
  0
LINE
  8
LY_1
  6
CONTINUOUS
 62
     3
  5
17E
 10
112.824805
 20
86.497031
 30
0.0
 11
112.641074
 21
84.397021
 31
0.0
  0
LINE
  8
LY_1
  6
CONTINUOUS
 62
     3
  5
17F
 10
59.175186
 20
86.497032
 30
0.0
 11
112.824799
 21
86.497032
 31
0.0
  0
LINE
  8
LY_1
  6
CONTINUOUS
 62
     3
  5
180
 10
93.0
 20
84.397026
 30
0.0
 11
93.0
 21
80.697029
 31
0.0
  0
LINE
  8
LY_1
  6
CONTINUOUS
 62
     3
  5
181
 10
59.358917
 20
84.397026
 30
0.0
 11
112.641068
 21
84.397026
 31
0.0
  0
LINE
  8
LY_1
  6
CONTINUOUS
 62
     3
  5
182
 10
79.0
 20
80.697029
 30
0.0
 11
93.0
 21
80.697029
 31
0.0
  0
LINE
  8
LY_1
  6
CONTINUOUS
 62
     3
  5
183
 10
82.0
 20
73.497032
 30
0.0
 11
82.0
 21
80.697029
 31
0.0
  0
LINE
  8
LY_1
  6
CONTINUOUS
 62
     3
  5
184
 10
90.0
 20
73.497032
 30
0.0
 11
90.0
 21
80.697029
 31
0.0
  0
LINE
  8
LY_1
  6
CONTINUOUS
 62
     3
  5
185
 10
77.0
 20
62.997032
 30
0.0
 11
95.0
 21
62.997032
 31
0.0
  0
LINE
  8
LY_1
  6
CONTINUOUS
 62
     3
  5
186
 10
77.0
 20
73.497032
 30
0.0
 11
95.0
 21
73.497032
 31
0.0
  0
LINE
  8
LY_1
  6
CONTINUOUS
 62
     3
  5
187
 10
-6.999981
 20
82.397029
 30
0.0
 11
-11.828385
 21
84.397029
 31
0.0
  0
LINE
  8
LY_1
  6
CONTINUOUS
 62
     3
  5
188
 10
6.999981
 20
82.397029
 30
0.0
 11
11.828385
 21
84.397029
 31
0.0
  0
LINE
  8
LY_1
  6
CONTINUOUS
 62
     3
  5
189
 10
-7.478496
 20
94.897026
 30
0.0
 11
7.478496
 21
94.897026
 31
0.0
  0
LINE
  8
LY_1
  6
CONTINUOUS
 62
     3
  5
18A
 10
-12.004775
 20
90.79702
 30
0.0
 11
-12.004775
 21
89.997032
 31
0.0
  0
LINE
  8
LY_1
  6
CONTINUOUS
 62
     3
  5
18B
 10
-18.917313
 20
88.997032
 30
0.0
 11
-21.661026
 21
88.997032
 31
0.0
  0
LINE
  8
LY_1
  6
CONTINUOUS
 62
     3
  5
18C
 10
-18.698761
 20
89.997032
 30
0.0
 11
-22.661026
 21
89.997032
 31
0.0
  0
LINE
  8
LY_1
  6
CONTINUOUS
 62
     3
  5
18D
 10
-17.80455
 20
92.79702
 30
0.0
 11
-20.661026
 21
92.79702
 31
0.0
  0
LINE
  8
LY_1
  6
CONTINUOUS
 62
     3
  5
18E
 10
-22.661026
 20
90.79702
 30
0.0
 11
-22.661026
 21
89.997032
 31
0.0
  0
LINE
  8
LY_1
  6
CONTINUOUS
 62
     3
  5
18F
 10
-16.334549
 20
94.897026
 30
0.0
 11
-18.134735
 21
94.897026
 31
0.0
  0
LINE
  8
LY_1
  6
CONTINUOUS
 62
     3
  5
190
 10
-19.343705
 20
86.497032
 30
0.0
 11
-19.160004
 21
84.397027
 31
0.0
  0
LINE
  8
LY_1
  6
CONTINUOUS
 62
     3
  5
191
 10
-29.999985
 20
86.497031
 30
0.0
 11
-29.816269
 21
84.397019
 31
0.0
  0
LINE
  8
LY_1
  6
CONTINUOUS
 62
     3
  5
192
 10
-7.0
 20
84.397026
 30
0.0
 11
-7.0
 21
80.697029
 31
0.0
  0
LINE
  8
LY_1
  6
CONTINUOUS
 62
     3
  5
193
 10
-11.004775
 20
88.997032
 30
0.0
 11
11.004775
 21
88.997032
 31
0.0
  0
LINE
  8
LY_1
  6
CONTINUOUS
 62
     3
  5
194
 10
-12.004775
 20
89.997032
 30
0.0
 11
12.004775
 21
89.997032
 31
0.0
  0
LINE
  8
LY_1
  6
CONTINUOUS
 62
     3
  5
195
 10
-10.004775
 20
92.79702
 30
0.0
 11
10.004775
 21
92.79702
 31
0.0
  0
LINE
  8
LY_1
  6
CONTINUOUS
 62
     3
  5
196
 10
12.004775
 20
90.79702
 30
0.0
 11
12.004775
 21
89.997032
 31
0.0
  0
LINE
  8
LY_1
  6
CONTINUOUS
 62
     3
  5
197
 10
18.917313
 20
88.997032
 30
0.0
 11
21.661026
 21
88.997032
 31
0.0
  0
LINE
  8
LY_1
  6
CONTINUOUS
 62
     3
  5
198
 10
18.698761
 20
89.997032
 30
0.0
 11
22.661026
 21
89.997032
 31
0.0
  0
LINE
  8
LY_1
  6
CONTINUOUS
 62
     3
  5
199
 10
17.80455
 20
92.79702
 30
0.0
 11
20.661026
 21
92.79702
 31
0.0
  0
LINE
  8
LY_1
  6
CONTINUOUS
 62
     3
  5
19A
 10
22.661026
 20
90.79702
 30
0.0
 11
22.661026
 21
89.997032
 31
0.0
  0
LINE
  8
LY_1
  6
CONTINUOUS
 62
     3
  5
19B
 10
16.334549
 20
94.897026
 30
0.0
 11
18.134735
 21
94.897026
 31
0.0
  0
LINE
  8
LY_1
  6
CONTINUOUS
 62
     3
  5
19C
 10
19.343705
 20
86.497032
 30
0.0
 11
19.160004
 21
84.397027
 31
0.0
  0
LINE
  8
LY_1
  6
CONTINUOUS
 62
     3
  5
19D
 10
-2.886749
 20
148.49703
 30
0.0
 11
-5.77351
 21
153.497037
 31
0.0
  0
LINE
  8
LY_1
  6
CONTINUOUS
 62
     3
  5
19E
 10
5.773494
 20
153.497033
 30
0.0
 11
2.886741
 21
158.497027
 31
0.0
  0
LINE
  8
LY_1
  6
CONTINUOUS
 62
     3
  5
19F
 10
-5.773494
 20
153.497033
 30
0.0
 11
-2.886741
 21
158.497027
 31
0.0
  0
LINE
  8
LY_1
  6
CONTINUOUS
 62
     3
  5
1A0
 10
2.886749
 20
148.49703
 30
0.0
 11
5.77351
 21
153.497037
 31
0.0
  0
LINE
  8
LY_1
  6
CONTINUOUS
 62
     3
  5
1A1
 10
-2.88675
 20
158.497025
 30
0.0
 11
2.88675
 21
158.497025
 31
0.0
  0
LINE
  8
LY_1
  6
CONTINUOUS
 62
     3
  5
1A2
 10
-2.88675
 20
148.497025
 30
0.0
 11
2.88675
 21
148.497025
 31
0.0
  0
LINE
  8
LY_1
  6
CONTINUOUS
 62
     3
  5
1A3
 10
-9.285996
 20
146.713216
 30
0.0
 11
-11.838352
 21
142.292404
 31
0.0
  0
LINE
  8
LY_1
  6
CONTINUOUS
 62
     3
  5
1A4
 10
-1.231967
 20
142.063188
 30
0.0
 11
-3.78431
 21
137.642413
 31
0.0
  0
LINE
  8
LY_1
  6
CONTINUOUS
 62
     3
  5
1A5
 10
-1.231949
 20
164.930855
 30
0.0
 11
-3.784301
 21
169.351661
 31
0.0
  0
LINE
  8
LY_1
  6
CONTINUOUS
 62
     3
  5
1A6
 10
-9.286004
 20
160.280865
 30
0.0
 11
-11.838356
 21
164.70167
 31
0.0
  0
LINE
  8
LY_1
  6
CONTINUOUS
 62
     3
  5
1A7
 10
10.517957
 20
148.847015
 30
0.0
 11
15.622661
 21
148.847015
 31
0.0
  0
LINE
  8
LY_1
  6
CONTINUOUS
 62
     3
  5
1A8
 10
10.517962
 20
158.147018
 30
0.0
 11
15.622663
 21
158.147018
 31
0.0
  0
LINE
  8
LY_1
  6
CONTINUOUS
 62
     3
  5
1A9
 10
14.760554
 20
168.663048
 30
0.0
 11
15.833855
 21
170.522065
 31
0.0
  0
LINE
  8
LY_1
  6
CONTINUOUS
 62
     3
  5
1AA
 10
20.51442
 20
158.697021
 30
0.0
 11
22.661011
 21
158.697021
 31
0.0
  0
LINE
  8
LY_1
  6
CONTINUOUS
 62
     3
  5
1AB
 10
20.51442
 20
148.297012
 30
0.0
 11
22.661011
 21
148.297012
 31
0.0
  0
LINE
  8
LY_1
  6
CONTINUOUS
 62
     3
  5
1AC
 10
14.760542
 20
138.331003
 30
0.0
 11
15.833845
 21
136.471978
 31
0.0
  0
LINE
  8
LY_1
  6
CONTINUOUS
 62
     3
  5
1AD
 10
5.753886
 20
133.131003
 30
0.0
 11
6.827181
 21
131.272009
 31
0.0
  0
LINE
  8
LY_1
  6
CONTINUOUS
 62
     3
  5
1AE
 10
-5.753879
 20
133.130999
 30
0.0
 11
-6.827183
 21
131.271975
 31
0.0
  0
LINE
  8
LY_1
  6
CONTINUOUS
 62
     3
  5
1AF
 10
-14.760545
 20
138.330999
 30
0.0
 11
-15.833841
 21
136.472005
 31
0.0
  0
LINE
  8
LY_1
  6
CONTINUOUS
 62
     3
  5
1B0
 10
-20.514435
 20
148.297012
 30
0.0
 11
-22.661026
 21
148.297012
 31
0.0
  0
LINE
  8
LY_1
  6
CONTINUOUS
 62
     3
  5
1B1
 10
-20.514435
 20
158.697021
 30
0.0
 11
-22.661011
 21
158.697021
 31
0.0
  0
LINE
  8
LY_1
  6
CONTINUOUS
 62
     3
  5
1B2
 10
-14.760558
 20
168.663074
 30
0.0
 11
-15.833858
 21
170.522074
 31
0.0
  0
LINE
  8
LY_1
  6
CONTINUOUS
 62
     3
  5
1B3
 10
-5.753887
 20
173.863052
 30
0.0
 11
-6.827179
 21
175.722056
 31
0.0
  0
LINE
  8
LY_1
  6
CONTINUOUS
 62
     3
  5
1B4
 10
5.753894
 20
173.863059
 30
0.0
 11
6.8272
 21
175.722073
 31
0.0
  0
LINE
  8
LY_1
  6
CONTINUOUS
 62
     3
  5
1B5
 10
29.999985
 20
86.497031
 30
0.0
 11
29.816269
 21
84.397019
 31
0.0
  0
LINE
  8
LY_1
  6
CONTINUOUS
 62
     3
  5
1B6
 10
-30.0
 20
86.497032
 30
0.0
 11
30.0
 21
86.497032
 31
0.0
  0
LINE
  8
LY_1
  6
CONTINUOUS
 62
     3
  5
1B7
 10
7.0
 20
84.397026
 30
0.0
 11
7.0
 21
80.697029
 31
0.0
  0
LINE
  8
LY_1
  6
CONTINUOUS
 62
     3
  5
1B8
 10
-29.816269
 20
84.397026
 30
0.0
 11
29.816269
 21
84.397026
 31
0.0
  0
LINE
  8
LY_1
  6
CONTINUOUS
 62
     3
  5
1B9
 10
-7.0
 20
80.697029
 30
0.0
 11
7.0
 21
80.697029
 31
0.0
  0
LINE
  8
LY_1
  6
CONTINUOUS
 62
     3
  5
1BA
 10
-4.900005
 20
73.497032
 30
0.0
 11
-4.900005
 21
62.997032
 31
0.0
  0
LINE
  8
LY_1
  6
CONTINUOUS
 62
     3
  5
1BB
 10
4.900004
 20
73.497032
 30
0.0
 11
4.900004
 21
62.997032
 31
0.0
  0
LINE
  8
LY_1
  6
CONTINUOUS
 62
     3
  5
1BC
 10
-3.999998
 20
73.497032
 30
0.0
 11
-3.999998
 21
80.697029
 31
0.0
  0
LINE
  8
LY_1
  6
CONTINUOUS
 62
     3
  5
1BD
 10
4.0
 20
73.497032
 30
0.0
 11
4.0
 21
80.697029
 31
0.0
  0
LINE
  8
LY_1
  6
CONTINUOUS
 62
   110
  5
1BE
 10
7.350007
 20
62.997032
 30
0.0
 11
7.350007
 21
57.997028
 31
0.0
  0
LINE
  8
LY_1
  6
CONTINUOUS
 62
   110
  5
1BF
 10
-7.349993
 20
62.997032
 30
0.0
 11
-7.349993
 21
57.997028
 31
0.0
  0
LINE
  8
LY_1
  6
CONTINUOUS
 62
     3
  5
1C0
 10
-9.799993
 20
73.497032
 30
0.0
 11
-9.799993
 21
62.997032
 31
0.0
  0
LINE
  8
LY_1
  6
CONTINUOUS
 62
     3
  5
1C1
 10
9.800008
 20
73.497032
 30
0.0
 11
9.800008
 21
62.997032
 31
0.0
  0
LINE
  8
LY_1
  6
CONTINUOUS
 62
     3
  5
1C2
 10
-9.799993
 20
62.997032
 30
0.0
 11
9.800008
 21
62.997032
 31
0.0
  0
LINE
  8
LY_1
  6
CONTINUOUS
 62
     3
  5
1C3
 10
-9.799993
 20
73.497032
 30
0.0
 11
9.800008
 21
73.497032
 31
0.0
  0
LINE
  8
LY_1
  6
CONTINUOUS
 62
     3
  5
1C4
 10
-8.0
 20
57.997028
 30
0.0
 11
8.0
 21
57.997028
 31
0.0
  0
LINE
  8
LY_1
  6
CONTINUOUS
 62
     3
  5
1C5
 10
-8.0
 20
62.997032
 30
0.0
 11
-8.0
 21
57.345066
 31
0.0
  0
LINE
  8
LY_1
  6
CONTINUOUS
 62
     3
  5
1C6
 10
-12.050029
 20
43.997032
 30
0.0
 11
-22.0
 21
42.509987
 31
0.0
  0
LINE
  8
LY_1
  6
CONTINUOUS
 62
     3
  5
1C7
 10
-12.049999
 20
50.997028
 30
0.0
 11
-12.049999
 21
43.997028
 31
0.0
  0
LINE
  8
LY_1
  6
CONTINUOUS
 62
     3
  5
1C8
 10
8.0
 20
62.997032
 30
0.0
 11
8.0
 21
57.345066
 31
0.0
  0
LINE
  8
LY_1
  6
CONTINUOUS
 62
     3
  5
1C9
 10
-12.049999
 20
50.997028
 30
0.0
 11
12.049999
 21
50.997028
 31
0.0
  0
LINE
  8
LY_1
  6
CONTINUOUS
 62
     3
  5
1CA
 10
12.050029
 20
43.997032
 30
0.0
 11
22.0
 21
42.509987
 31
0.0
  0
LINE
  8
LY_1
  6
CONTINUOUS
 62
     3
  5
1CB
 10
12.049999
 20
50.997028
 30
0.0
 11
12.049999
 21
43.997028
 31
0.0
  0
LINE
  8
LY_1
  6
CONTINUOUS
 62
     3
  5
1CC
 10
-12.050028
 20
43.997028
 30
0.0
 11
12.049999
 21
43.997028
 31
0.0
  0
LINE
  8
LY_1
  6
CONTINUOUS
 62
     3
  5
1CD
 10
2.035828
 20
5.691971
 30
0.0
 11
1.888
 21
5.691971
 31
0.0
  0
LINE
  8
LY_1
  6
CONTINUOUS
 62
     3
  5
1CE
 10
2.035613
 20
13.143021
 30
0.0
 11
1.887801
 21
13.143021
 31
0.0
  0
LINE
  8
LY_1
  6
CONTINUOUS
 62
     3
  5
1CF
 10
2.035613
 20
13.143021
 30
0.0
 11
2.035613
 21
12.032715
 31
0.0
  0
LINE
  8
LY_1
  6
CONTINUOUS
 62
     3
  5
1D0
 10
1.181426
 20
10.557251
 30
0.0
 11
1.181426
 21
8.935135
 31
0.0
  0
LINE
  8
LY_1
  6
CONTINUOUS
 62
     3
  5
1D1
 10
1.181426
 20
10.557251
 30
0.0
 11
-1.887955
 21
10.557251
 31
0.0
  0
LINE
  8
LY_1
  6
CONTINUOUS
 62
     3
  5
1D2
 10
2.035613
 20
12.032715
 30
0.0
 11
-1.887955
 21
12.032715
 31
0.0
  0
LINE
  8
LY_1
  6
CONTINUOUS
 62
     3
  5
1D3
 10
2.625443
 20
13.880736
 30
0.0
 11
2.625443
 21
8.935135
 31
0.0
  0
LINE
  8
LY_1
  6
CONTINUOUS
 62
     3
  5
1D4
 10
2.035828
 20
5.691971
 30
0.0
 11
2.035828
 21
2.838454
 31
0.0
  0
LINE
  8
LY_1
  6
CONTINUOUS
 62
     3
  5
1D5
 10
-2.62567
 20
6.713837
 30
0.0
 11
-2.62567
 21
1.722046
 31
0.0
  0
LINE
  8
LY_1
  6
CONTINUOUS
 62
     3
  5
1D6
 10
-1.181548
 20
1.722046
 30
0.0
 11
-1.181548
 21
4.482407
 31
0.0
  0
LINE
  8
LY_1
  6
CONTINUOUS
 62
     3
  5
1D7
 10
1.33665
 20
1.281041
 30
0.0
 11
-1.134722
 21
4.498994
 31
0.0
  0
LINE
  8
LY_1
  6
CONTINUOUS
 62
     3
  5
1D8
 10
1.98893
 20
2.821884
 30
0.0
 11
-1.336397
 21
7.151766
 31
0.0
  0
LINE
  8
LY_1
  6
CONTINUOUS
 62
     3
  5
1D9
 10
2.625702
 20
6.429703
 30
0.0
 11
2.625702
 21
1.718932
 31
0.0
  0
LINE
  8
LY_1
  6
CONTINUOUS
 62
     3
  5
1DA
 10
-1.887955
 20
17.14975
 30
0.0
 11
1.888
 21
17.14975
 31
0.0
  0
LINE
  8
LY_1
  6
CONTINUOUS
 62
     3
  5
1DB
 10
1.888
 20
15.674286
 30
0.0
 11
-1.887955
 21
15.674286
 31
0.0
  0
LINE
  8
LY_1
  6
CONTINUOUS
 62
     3
  5
1DC
 10
0.439792
 20
21.087204
 30
0.0
 11
1.504615
 21
19.523819
 31
0.0
  0
LINE
  8
LY_1
  6
CONTINUOUS
 62
     3
  5
1DD
 10
0.439785
 20
21.08722
 30
0.0
 11
-1.304442
 21
18.526352
 31
0.0
  0
LINE
  8
LY_1
  6
CONTINUOUS
 62
     3
  5
1DE
 10
0.021433
 20
22.992906
 30
0.0
 11
2.473872
 21
19.392212
 31
0.0
  0
LINE
  8
LY_1
  6
CONTINUOUS
 62
     3
  5
1DF
 10
-0.021582
 20
22.992859
 30
0.0
 11
-2.506234
 21
19.34491
 31
0.0
  0
LINE
  8
LY_1
  6
CONTINUOUS
 62
     3
  5
1E0
 10
1.888062
 20
23.024689
 30
0.0
 11
-1.88803
 21
23.024689
 31
0.0
  0
LINE
  8
LY_1
  6
CONTINUOUS
 62
     3
  5
1E1
 10
1.888062
 20
24.5
 30
0.0
 11
-1.88803
 21
24.5
 31
0.0
  0
LINE
  8
LY_1
  6
CONTINUOUS
 62
     3
  5
1E2
 10
-14.85
 20
26.5
 30
0.0
 11
-14.85
 21
23.5
 31
0.0
  0
LINE
  8
LY_1
  6
CONTINUOUS
 62
     3
  5
1E3
 10
88.0
 20
26.5
 30
0.0
 11
88.0
 21
21.361942
 31
0.0
  0
LINE
  8
LY_1
  6
CONTINUOUS
 62
     3
  5
1E4
 10
84.0
 20
26.5
 30
0.0
 11
84.0
 21
21.361958
 31
0.0
  0
LINE
  8
LY_1
  6
CONTINUOUS
 62
     3
  5
1E5
 10
-19.0
 20
25.901932
 30
0.0
 11
-19.0
 21
23.5
 31
0.0
  0
LINE
  8
LY_1
  6
CONTINUOUS
 62
     3
  5
1E6
 10
-15.85
 20
25.237953
 30
0.0
 11
-20.0
 21
27.633957
 31
0.0
  0
LINE
  8
LY_1
  6
CONTINUOUS
 62
     3
  5
1E7
 10
19.0
 20
25.901932
 30
0.0
 11
19.0
 21
23.5
 31
0.0
  0
LINE
  8
LY_1
  6
CENTER
 62
   110
  5
1E8
 10
59.383804
 20
0.0
 30
0.0
 11
114.29248
 21
0.0
 31
0.0
  0
LINE
  8
LY_1
  6
CONTINUOUS
 62
     3
  5
1E9
 10
64.5
 20
37.0
 30
0.0
 11
64.5
 21
30.232025
 31
0.0
  0
LINE
  8
LY_1
  6
CONTINUOUS
 62
     3
  5
1EA
 10
66.241727
 20
27.508653
 30
0.0
 11
66.5
 21
-2.085128
 31
0.0
  0
LINE
  8
LY_1
  6
CONTINUOUS
 62
     3
  5
1EB
 10
64.0
 20
42.509998
 30
0.0
 11
64.0
 21
37.0
 31
0.0
  0
LINE
  8
LY_1
  6
CONTINUOUS
 62
     3
  5
1EC
 10
65.69722
 20
28.5
 30
0.0
 11
106.302765
 21
28.5
 31
0.0
  0
LINE
  8
LY_1
  6
CONTINUOUS
 62
     3
  5
1ED
 10
107.5
 20
37.0
 30
0.0
 11
107.5
 21
30.232025
 31
0.0
  0
LINE
  8
LY_1
  6
CONTINUOUS
 62
     3
  5
1EE
 10
108.0
 20
42.509998
 30
0.0
 11
108.0
 21
37.0
 31
0.0
  0
LINE
  8
LY_1
  6
CONTINUOUS
 62
     3
  5
1EF
 10
64.0
 20
37.0
 30
0.0
 11
108.0
 21
37.0
 31
0.0
  0
LINE
  8
LY_1
  6
CONTINUOUS
 62
     3
  5
1F0
 10
105.748996
 20
26.448884
 30
0.0
 11
105.499999
 21
-2.082062
 31
0.0
  0
LINE
  8
LY_1
  6
CENTER
 62
   110
  5
1F1
 10
86.0
 20
99.991196
 30
0.0
 11
86.0
 21
-25.671341
 31
0.0
  0
LINE
  8
LY_1
  6
CONTINUOUS
 62
     3
  5
1F2
 10
-21.5
 20
37.0
 30
0.0
 11
-21.5
 21
30.232025
 31
0.0
  0
LINE
  8
LY_1
  6
CONTINUOUS
 62
     3
  5
1F3
 10
-22.0
 20
42.509998
 30
0.0
 11
-22.0
 21
37.0
 31
0.0
  0
LINE
  8
LY_1
  6
CONTINUOUS
 62
     3
  5
1F4
 10
-25.0
 20
21.5
 30
0.0
 11
-25.0
 21
-21.799999
 31
0.0
  0
LINE
  8
LY_1
  6
CONTINUOUS
 62
     3
  5
1F5
 10
-20.302765
 20
28.5
 30
0.0
 11
20.302765
 21
28.5
 31
0.0
  0
LINE
  8
LY_1
  6
CONTINUOUS
 62
     3
  5
1F6
 10
21.5
 20
37.0
 30
0.0
 11
21.5
 21
30.232025
 31
0.0
  0
LINE
  8
LY_1
  6
CONTINUOUS
 62
     3
  5
1F7
 10
22.0
 20
42.509998
 30
0.0
 11
22.0
 21
37.0
 31
0.0
  0
LINE
  8
LY_1
  6
CONTINUOUS
 62
     3
  5
1F8
 10
-22.0
 20
37.0
 30
0.0
 11
22.0
 21
37.0
 31
0.0
  0
LINE
  8
LY_1
  6
CONTINUOUS
 62
     3
  5
1F9
 10
-22.0
 20
42.509998
 30
0.0
 11
22.0
 21
42.509998
 31
0.0
  0
LINE
  8
LY_1
  6
CONTINUOUS
 62
     3
  5
1FA
 10
-10.859434
 20
-17.850002
 30
0.0
 11
-14.40695
 21
-17.850002
 31
0.0
  0
LINE
  8
LY_1
  6
CONTINUOUS
 62
     3
  5
1FB
 10
-16.338795
 20
-19.332349
 30
0.0
 11
-17.000004
 21
-21.799986
 31
0.0
  0
LINE
  8
LY_1
  6
CONTINUOUS
 62
     3
  5
1FC
 10
10.859426
 20
-17.850002
 30
0.0
 11
14.406942
 21
-17.850002
 31
0.0
  0
LINE
  8
LY_1
  6
CONTINUOUS
 62
     3
  5
1FD
 10
16.338787
 20
-19.332349
 30
0.0
 11
16.999996
 21
-21.799986
 31
0.0
  0
LINE
  8
LY_1
  6
CONTINUOUS
 62
     3
  5
1FE
 10
17.0
 20
21.5
 30
0.0
 11
17.0
 21
-21.799999
 31
0.0
  0
LINE
  8
LY_1
  6
CONTINUOUS
 62
     3
  5
1FF
 10
25.0
 20
21.5
 30
0.0
 11
25.0
 21
-21.799999
 31
0.0
  0
LINE
  8
LY_1
  6
CENTER
 62
   110
  5
200
 10
-30.0
 20
0.0
 30
0.0
 11
30.0
 21
0.0
 31
0.0
  0
LINE
  8
LY_1
  6
CENTER
 62
   110
  5
201
 10
0.0
 20
98.744453
 30
0.0
 11
0.0
 21
-23.5
 31
0.0
  0
ENDSEC
  0
EOF
