  0
SECTION
  2
HEADER
  9
$ACADVER
  1
AC1009
  9
$DWGCODEPAGE
  3
dos932
  9
$INSBASE
 10
0.0
 20
0.0
 30
0.0
  9
$EXTMIN
 10
-30.000015
 20
-61.414706
 30
0.0
  9
$EXTMAX
 10
94.522521
 20
151.030701
 30
0.0
  9
$LIMMIN
 10
-30.000015
 20
-61.414706
  9
$LIMMAX
 10
94.522521
 20
151.030701
  9
$ORTHOMODE
 70
     0
  9
$REGENMODE
 70
     1
  9
$FILLMODE
 70
     1
  9
$QTEXTMODE
 70
     0
  9
$MIRRTEXT
 70
     1
  9
$DRAGMODE
 70
     2
  9
$LTSCALE
 40
1.0
  9
$OSMODE
 70
     0
  9
$ATTMODE
 70
     1
  9
$TEXTSIZE
 40
3.3
  9
$TRACEWID
 40
0.05
  9
$TEXTSTYLE
  7
MX_NOTE_STANDARD
  9
$CLAYER
  8
LY_1
  9
$CELTYPE
  6
CONTINUOUS
  9
$CECOLOR
 62
   256
  9
$DIMSCALE
 40
1.0
  9
$DIMASZ
 40
2.5
  9
$DIMEXO
 40
0.0
  9
$DIMDLI
 40
3.75
  9
$DIMRND
 40
0.0
  9
$DIMDLE
 40
0.0
  9
$DIMEXE
 40
1.1938
  9
$DIMTP
 40
0.0
  9
$DIMTM
 40
0.0
  9
$DIMTXT
 40
3.3
  9
$DIMCEN
 40
2.5
  9
$DIMTSZ
 40
0.0
  9
$DIMTOL
 70
     0
  9
$DIMLIM
 70
     0
  9
$DIMTIH
 70
     0
  9
$DIMTOH
 70
     0
  9
$DIMSE1
 70
     0
  9
$DIMSE2
 70
     0
  9
$DIMTAD
 70
     1
  9
$DIMZIN
 70
     8
  9
$DIMBLK
  1

  9
$DIMASO
 70
     1
  9
$DIMSHO
 70
     1
  9
$DIMPOST
  1

  9
$DIMAPOST
  1

  9
$DIMALT
 70
     0
  9
$DIMALTD
 70
     4
  9
$DIMALTF
 40
0.03937
  9
$DIMLFAC
 40
1.0
  9
$DIMTOFL
 70
     1
  9
$DIMTVP
 40
0.0
  9
$DIMTIX
 70
     0
  9
$DIMSOXD
 70
     0
  9
$DIMSAH
 70
     1
  9
$DIMBLK1
  1
_OPEN30
  9
$DIMBLK2
  1
_OPEN30
  9
$DIMSTYLE
  2
MXDIMSTYLE
  9
$DIMCLRD
 70
     0
  9
$DIMCLRE
 70
     0
  9
$DIMCLRT
 70
     0
  9
$DIMTFAC
 40
1.0
  9
$DIMGAP
 40
1.0
  9
$LUNITS
 70
     2
  9
$LUPREC
 70
     4
  9
$AXISMODE
 70
     0
  9
$AXISUNIT
 10
0.0
 20
0.0
  9
$SKETCHINC
 40
0.1
  9
$FILLETRAD
 40
0.0
  9
$AUNITS
 70
     0
  9
$AUPREC
 70
     0
  9
$MENU
  1
acad
  9
$ELEVATION
 40
0.0
  9
$PELEVATION
 40
0.0
  9
$THICKNESS
 40
0.0
  9
$LIMCHECK
 70
     0
  9
$BLIPMODE
 70
     1
  9
$CHAMFERA
 40
0.0
  9
$CHAMFERB
 40
0.0
  9
$SKPOLY
 70
     0
  9
$TDCREATE
 40
2454901.550173611
  9
$TDUPDATE
 40
2454901.550173611
  9
$TDINDWG
 40
0.0000000000
  9
$TDUSRTIMER
 40
0.0000000000
  9
$USRTIMER
 70
     1
  9
$ANGBASE
 50
0.0
  9
$ANGDIR
 70
     0
  9
$PDMODE
 70
     0
  9
$PDSIZE
 40
0.0
  9
$PLINEWID
 40
0.0
  9
$COORDS
 70
     1
  9
$SPLFRAME
 70
     0
  9
$SPLINETYPE
 70
     6
  9
$SPLINESEGS
 70
     8
  9
$ATTDIA
 70
     0
  9
$ATTREQ
 70
     1
  9
$HANDLING
 70
     1
  9
$HANDSEED
  5
23E
  9
$SURFTAB1
 70
     6
  9
$SURFTAB2
 70
     6
  9
$SURFTYPE
 70
     6
  9
$SURFU
 70
     6
  9
$SURFV
 70
     6
  9
$UCSNAME
  2

  9
$UCSORG
 10
0.0
 20
0.0
 30
0.0
  9
$UCSXDIR
 10
1.0
 20
0.0
 30
0.0
  9
$UCSYDIR
 10
0.0
 20
1.0
 30
0.0
  9
$PUCSNAME
  2

  9
$PUCSORG
 10
0.0
 20
0.0
 30
0.0
  9
$PUCSXDIR
 10
1.0
 20
0.0
 30
0.0
  9
$PUCSYDIR
 10
0.0
 20
1.0
 30
0.0
  9
$USERI1
 70
     0
  9
$USERI2
 70
     0
  9
$USERI3
 70
     0
  9
$USERI4
 70
     0
  9
$USERI5
 70
     0
  9
$USERR1
 40
0.0
  9
$USERR2
 40
0.0
  9
$USERR3
 40
0.0
  9
$USERR4
 40
0.0
  9
$USERR5
 40
0.0
  9
$WORLDVIEW
 70
     1
  9
$SHADEDGE
 70
     3
  9
$SHADEDIF
 70
    70
  9
$TILEMODE
 70
     1
  9
$MAXACTVP
 70
    16
  9
$PINSBASE
 10
0.0
 20
0.0
 30
0.0
  9
$PLIMCHECK
 70
     0
  9
$PEXTMIN
 10
1.000000E+20
 20
1.000000E+20
 30
1.000000E+20
  9
$PEXTMAX
 10
-1.000000E+20
 20
-1.000000E+20
 30
-1.000000E+20
  9
$PLIMMIN
 10
0.0
 20
0.0
  9
$PLIMMAX
 10
12.0
 20
9.0
  9
$UNITMODE
 70
     0
  9
$VISRETAIN
 70
     0
  9
$PLINEGEN
 70
     1
  9
$PSLTSCALE
 70
     0
  9
$TREEDEPTH
 70
  3020
  0
ENDSEC
  0
SECTION
  2
TABLES
  0
TABLE
  2
VPORT
 70
     1
  0
VPORT
  2
*ACTIVE
 70
     0
 10
0.0
 20
0.0
 11
1.0
 21
1.0
 12
32.261253
 22
44.807997
 13
0.0
 23
0.0
 14
1.0
 24
1.0
 15
0.0
 25
0.0
 16
0.0
 26
0.0
 36
1.0
 17
0.0
 27
0.0
 37
0.0
 40
214.569861
 41
1.732051
 42
50.0
 43
0.0
 44
0.0
 50
0.0
 51
0.0
 71
     0
 72
   100
 73
     1
 74
     1
 75
     0
 76
     0
 77
     0
 78
     0
  0
ENDTAB
  0
TABLE
  2
LTYPE
 70
     3
  0
LTYPE
  2
CONTINUOUS
 70
    64
  3
Solid line
 72
    65
 73
     0
 40
0.0
  0
LTYPE
  2
PHANTOM
 70
    64
  3
Phantom ______  __  __  ______  __  __  ______
 72
    65
 73
     6
 40
63.5
 49
31.75
 49
-6.35
 49
6.35
 49
-6.35
 49
6.35
 49
-6.35
  0
LTYPE
  2
CENTER
 70
    64
  3
Center ____ _ ____ _ ____ _ ____ _ ____ _ ____
 72
    65
 73
     4
 40
50.8
 49
31.75
 49
-6.35
 49
6.35
 49
-6.35
  0
ENDTAB
  0
TABLE
  2
LAYER
 70
     3
  0
LAYER
  2
0
 70
     0
 62
     7
  6
CONTINUOUS
  0
LAYER
  2
LY_1
 70
     0
 62
     7
  6
CONTINUOUS
  0
LAYER
  2
DEFPOINTS
 70
     0
 62
     7
  6
CONTINUOUS
  0
ENDTAB
  0
TABLE
  2
STYLE
 70
     2
  0
STYLE
  2
MX_NOTE_STANDARD
 70
     0
 40
0.0
 41
1.0
 50
0.0
 71
     0
 42
3.3
  3
txt.shx
  4
extfont.shx
  0
STYLE
  2
MX_DIMTXSTY_2
 70
     0
 40
0.0
 41
0.85
 50
0.0
 71
     0
 42
3.3
  3
txt.shx
  4
extfont.shx
  0
ENDTAB
  0
TABLE
  2
VIEW
 70
     0
  0
ENDTAB
  0
TABLE
  2
UCS
 70
     0
  0
ENDTAB
  0
TABLE
  2
APPID
 70
     1
  0
APPID
  2
ACAD
 70
     0
  0
ENDTAB
  0
TABLE
  2
DIMSTYLE
 70
     1
  0
DIMSTYLE
  2
MXDIMSTYLE
 70
     0
  3

  4

  5

  6
_OPEN30
  7
_OPEN30
 40
1.0
 41
2.5
 42
0.0
 43
3.75
 44
1.1938
 45
0.0
 46
0.0
 47
0.0
 48
0.0
 71
     0
 72
     0
 73
     0
 74
     0
 75
     0
 76
     0
 77
     1
 78
     8
140
3.3
141
2.5
142
0.0
143
0.03937
144
1.0
145
0.0
146
1.0
147
1.0
170
     0
171
     4
172
     1
173
     1
174
     0
175
     0
176
     0
177
     0
178
     0
  0
ENDTAB
  0
ENDSEC
  0
SECTION
  2
BLOCKS
  0
BLOCK
  8
0
  6
BYBLOCK
 62
     0
  5
20
  2
_OPEN30
 70
     2
 10
0.0
 20
0.0
 30
0.0
  3
_OPEN30
  0
LINE
  8
0
  6
BYBLOCK
 62
     0
  5
21
 10
-1.0
 20
0.267949
 30
0.0
 11
0.0
 21
0.0
 31
0.0
  0
LINE
  8
0
  6
BYBLOCK
 62
     0
  5
22
 10
0.0
 20
0.0
 30
0.0
 11
-1.0
 21
-0.267949
 31
0.0
  0
LINE
  8
0
  6
BYBLOCK
 62
     0
  5
23
 10
0.0
 20
0.0
 30
0.0
 11
-1.0
 21
0.0
 31
0.0
  0
ENDBLK
  8
0
  6
BYBLOCK
 62
     0
  5
24
  0
BLOCK
  8
0
  6
BYBLOCK
 62
     0
  5
26
  2
*D1
 70
     1
 10
0.0
 20
0.0
 30
0.0
  3
*D1
  0
LINE
  8
0
  6
CONTINUOUS
 62
   110
  5
27
 10
-24.999985
 20
83.0
 30
0.0
 11
25.000015
 21
83.0
 31
0.0
  0
LINE
  8
0
  6
CONTINUOUS
 62
   110
  5
28
 10
-24.999985
 20
60.699997
 30
0.0
 11
-24.999985
 21
84.193787
 31
0.0
  0
LINE
  8
0
  6
CONTINUOUS
 62
   110
  5
29
 10
25.000015
 20
60.699997
 30
0.0
 11
25.000015
 21
84.193787
 31
0.0
  0
INSERT
  8
0
  6
CONTINUOUS
 62
   110
  5
30
  2
_OPEN
 10
-24.999985
 20
83.0
 30
0.0
 41
2.19
 42
2.19
 50
180.0
 43
2.19
  0
INSERT
  8
0
  6
CONTINUOUS
 62
   110
  5
31
  2
_OPEN
 10
25.000015
 20
83.0
 30
0.0
 41
2.19
 42
2.19
 43
2.19
  0
TEXT
  8
0
  6
CONTINUOUS
 62
   110
  5
33
 10
-3.607164
 20
84.0
 30
0.0
 40
3.3
  1
%%c50
 41
0.995329
  7
MX_DIMTXSTY_2
 11
-3.607164
 21
85.65
 31
0.0
 73
     2
  0
POINT
  8
DEFPOINTS
  6
CONTINUOUS
 62
     0
  5
34
 10
-24.999985
 20
60.699997
 30
0.0
  0
POINT
  8
DEFPOINTS
  6
CONTINUOUS
 62
     0
  5
35
 10
25.000015
 20
60.699997
 30
0.0
  0
POINT
  8
DEFPOINTS
  6
CONTINUOUS
 62
     0
  5
36
 10
25.000015
 20
83.0
 30
0.0
  0
ENDBLK
  8
0
  6
BYBLOCK
 62
     0
  5
37
  0
BLOCK
  8
0
  6
BYBLOCK
 62
     0
  5
2B
  2
_OPEN
 70
     2
 10
0.0
 20
0.0
 30
0.0
  3
_OPEN
  0
LINE
  8
0
  6
BYBLOCK
 62
     0
  5
2C
 10
-1.0
 20
0.166667
 30
0.0
 11
0.0
 21
0.0
 31
0.0
  0
LINE
  8
0
  6
BYBLOCK
 62
     0
  5
2D
 10
0.0
 20
0.0
 30
0.0
 11
-1.0
 21
-0.166667
 31
0.0
  0
LINE
  8
0
  6
BYBLOCK
 62
     0
  5
2E
 10
0.0
 20
0.0
 30
0.0
 11
-1.0
 21
0.0
 31
0.0
  0
ENDBLK
  8
0
  6
BYBLOCK
 62
     0
  5
2F
  0
BLOCK
  8
0
  6
BYBLOCK
 62
     0
  5
3A
  2
*D3
 70
     1
 10
0.0
 20
0.0
 30
0.0
  3
*D3
  0
LINE
  8
0
  6
CONTINUOUS
 62
   110
  5
3B
 10
33.000015
 20
70.0
 30
0.0
 11
33.000015
 21
0.0
 31
0.0
  0
LINE
  8
0
  6
CONTINUOUS
 62
   110
  5
3C
 10
18.719406
 20
70.0
 30
0.0
 11
34.193802
 21
70.0
 31
0.0
  0
LINE
  8
0
  6
CONTINUOUS
 62
   110
  5
3D
 10
22.5
 20
0.0
 30
0.0
 11
34.193802
 21
0.0
 31
0.0
  0
INSERT
  8
0
  6
CONTINUOUS
 62
   110
  5
3E
  2
_OPEN
 10
33.000015
 20
70.0
 30
0.0
 41
2.19
 42
2.19
 50
90.0
 43
2.19
  0
INSERT
  8
0
  6
CONTINUOUS
 62
   110
  5
3F
  2
_OPEN
 10
33.000015
 20
0.0
 30
0.0
 41
2.19
 42
2.19
 50
270.0
 43
2.19
  0
TEXT
  8
0
  6
CONTINUOUS
 62
   110
  5
40
 10
32.000015
 20
32.822718
 30
0.0
 40
3.3
  1
70
 50
90.0
 41
1.077196
  7
MX_DIMTXSTY_2
 11
30.350015
 21
32.822718
 31
0.0
 73
     2
  0
POINT
  8
DEFPOINTS
  6
CONTINUOUS
 62
     0
  5
41
 10
18.719406
 20
70.0
 30
0.0
  0
POINT
  8
DEFPOINTS
  6
CONTINUOUS
 62
     0
  5
42
 10
22.5
 20
0.0
 30
0.0
  0
POINT
  8
DEFPOINTS
  6
CONTINUOUS
 62
     0
  5
43
 10
33.000015
 20
0.0
 30
0.0
  0
ENDBLK
  8
0
  6
BYBLOCK
 62
     0
  5
44
  0
BLOCK
  8
0
  6
BYBLOCK
 62
     0
  5
47
  2
*D4
 70
     1
 10
0.0
 20
0.0
 30
0.0
  3
*D4
  0
LINE
  8
0
  6
CONTINUOUS
 62
   110
  5
48
 10
17.5
 20
-24.300003
 30
0.0
 11
-17.5
 21
-24.300003
 31
0.0
  0
LINE
  8
0
  6
CONTINUOUS
 62
   110
  5
49
 10
17.5
 20
-10.1
 30
0.0
 11
17.5
 21
-25.49379
 31
0.0
  0
LINE
  8
0
  6
CONTINUOUS
 62
   110
  5
4A
 10
-17.5
 20
-10.1
 30
0.0
 11
-17.5
 21
-25.49379
 31
0.0
  0
INSERT
  8
0
  6
CONTINUOUS
 62
   110
  5
4B
  2
_OPEN
 10
17.5
 20
-24.300003
 30
0.0
 41
2.19
 42
2.19
 43
2.19
  0
INSERT
  8
0
  6
CONTINUOUS
 62
   110
  5
4C
  2
_OPEN
 10
-17.5
 20
-24.300003
 30
0.0
 41
2.19
 42
2.19
 50
180.0
 43
2.19
  0
TEXT
  8
0
  6
CONTINUOUS
 62
   110
  5
4D
 10
-2.226654
 20
-23.300003
 30
0.0
 40
3.3
  1
35
 41
0.98743
  7
MX_DIMTXSTY_2
 11
-2.226654
 21
-21.650003
 31
0.0
 73
     2
  0
POINT
  8
DEFPOINTS
  6
CONTINUOUS
 62
     0
  5
4E
 10
17.5
 20
-10.1
 30
0.0
  0
POINT
  8
DEFPOINTS
  6
CONTINUOUS
 62
     0
  5
4F
 10
-17.5
 20
-10.1
 30
0.0
  0
POINT
  8
DEFPOINTS
  6
CONTINUOUS
 62
     0
  5
50
 10
-17.5
 20
-24.300003
 30
0.0
  0
ENDBLK
  8
0
  6
BYBLOCK
 62
     0
  5
51
  0
ENDSEC
  0
SECTION
  2
ENTITIES
  0
DIMENSION
  8
LY_1
  6
CONTINUOUS
 62
   110
  5
38
  2
*D1
 10
25.000015
 20
83.0
 30
0.0
 11
0.000015
 21
83.0
 31
0.0
 70
   128
  1
%%c<>
 13
-24.999985
 23
60.699997
 33
0.0
 14
25.000015
 24
60.699997
 34
0.0
  3
MXDIMSTYLE
1001
ACAD
1000
DSTYLE
1002
{
1070
     6
1000
_OPEN
1070
     7
1000
_OPEN
1070
    41
1040
2.19
1070
    44
1040
1.193787
1070
   271
1070
     0
1070
   284
1070
     8
1070
   340
1005
32
1070
   343
1005
2A
1070
   344
1005
2A
1002
}
  0
DIMENSION
  8
LY_1
  6
CONTINUOUS
 62
   110
  5
45
  2
*D3
 10
33.000015
 20
0.0
 30
0.0
 11
33.000015
 21
35.0
 31
0.0
 70
   128
  1
<>
 13
18.719406
 23
70.0
 33
0.0
 14
22.5
 24
0.0
 34
0.0
 50
90.0
  3
MXDIMSTYLE
1001
ACAD
1000
DSTYLE
1002
{
1070
     6
1000
_OPEN
1070
     7
1000
_OPEN
1070
    41
1040
2.19
1070
    44
1040
1.193787
1070
   271
1070
     0
1070
   284
1070
     8
1070
   340
1005
32
1070
   343
1005
2A
1070
   344
1005
2A
1002
}
  0
DIMENSION
  8
LY_1
  6
CONTINUOUS
 62
   110
  5
52
  2
*D4
 10
-17.5
 20
-24.300003
 30
0.0
 11
0.0
 21
-24.300003
 31
0.0
 70
   128
  1
<>
 13
17.5
 23
-10.1
 33
0.0
 14
-17.5
 24
-10.1
 34
0.0
  3
MXDIMSTYLE
1001
ACAD
1000
DSTYLE
1002
{
1070
     6
1000
_OPEN
1070
     7
1000
_OPEN
1070
    41
1040
2.19
1070
    44
1040
1.193787
1070
   271
1070
     0
1070
   284
1070
     8
1070
   340
1005
32
1070
   343
1005
2A
1070
   344
1005
2A
1002
}
  0
TEXT
  8
LY_1
  6
CONTINUOUS
 62
   110
  5
53
 10
-26.054843
 20
-44.383594
 30
0.0
 40
4.167181
  1
      GATE VALVE  1/4
 41
0.990528
  7
MX_NOTE_STANDARD
 11
-26.054843
 21
-42.300003
 31
0.0
 73
     2
  0
TEXT
  8
LY_1
  6
CONTINUOUS
 62
   110
  5
54
 10
-26.109046
 20
-60.383594
 30
0.0
 40
4.167181
  1
KITZ
 41
0.912486
  7
MX_NOTE_STANDARD
 11
-26.109046
 21
-58.300003
 31
0.0
 73
     2
  0
TEXT
  8
LY_1
  6
CONTINUOUS
 62
   110
  5
55
 10
-26.043126
 20
-52.383594
 30
0.0
 40
4.167181
  1
FIG   FH1/4
 41
1.007398
  7
MX_NOTE_STANDARD
 11
-26.043126
 21
-50.300003
 31
0.0
 73
     2
  0
TEXT
  8
LY_1
  6
CONTINUOUS
 62
   110
  5
56
 10
-26.109046
 20
-36.383594
 30
0.0
 40
4.167181
  1
NAME  CLASS 125 FORGED BRASS
 41
0.912486
  7
MX_NOTE_STANDARD
 11
-26.109046
 21
-34.300003
 31
0.0
 73
     2
  0
POLYLINE
  8
LY_1
  6
CONTINUOUS
 62
     3
  5
57
 66
     1
 10
0.0
 20
0.0
 30
0.0
  0
VERTEX
  8
LY_1
  6
CONTINUOUS
 62
     3
  5
1F3
 10
-0.709766
 20
3.18871
 30
0.0
  0
VERTEX
  8
LY_1
  6
CONTINUOUS
 62
     3
  5
1F4
 10
-0.711276
 20
3.190423
 30
0.0
  0
VERTEX
  8
LY_1
  6
CONTINUOUS
 62
     3
  5
1F5
 10
-0.713002
 20
3.191909
 30
0.0
  0
VERTEX
  8
LY_1
  6
CONTINUOUS
 62
     3
  5
1F6
 10
-0.714911
 20
3.193138
 30
0.0
  0
VERTEX
  8
LY_1
  6
CONTINUOUS
 62
     3
  5
1F7
 10
-0.716967
 20
3.194089
 30
0.0
  0
VERTEX
  8
LY_1
  6
CONTINUOUS
 62
     3
  5
1F8
 10
-0.719131
 20
3.194742
 30
0.0
  0
VERTEX
  8
LY_1
  6
CONTINUOUS
 62
     3
  5
1F9
 10
-0.721363
 20
3.195085
 30
0.0
  0
VERTEX
  8
LY_1
  6
CONTINUOUS
 62
     3
  5
1FA
 10
-0.723619
 20
3.195113
 30
0.0
  0
VERTEX
  8
LY_1
  6
CONTINUOUS
 62
     3
  5
1FB
 10
-0.725858
 20
3.194824
 30
0.0
  0
VERTEX
  8
LY_1
  6
CONTINUOUS
 62
     3
  5
1FC
 10
-0.728037
 20
3.194224
 30
0.0
  0
VERTEX
  8
LY_1
  6
CONTINUOUS
 62
     3
  5
1FD
 10
-0.730115
 20
3.193324
 30
0.0
  0
VERTEX
  8
LY_1
  6
CONTINUOUS
 62
     3
  5
1FE
 10
-0.732052
 20
3.192142
 30
0.0
  0
VERTEX
  8
LY_1
  6
CONTINUOUS
 62
     3
  5
1FF
 10
-0.733812
 20
3.190699
 30
0.0
  0
VERTEX
  8
LY_1
  6
CONTINUOUS
 62
     3
  5
200
 10
-0.735362
 20
3.189023
 30
0.0
  0
VERTEX
  8
LY_1
  6
CONTINUOUS
 62
     3
  5
201
 10
-0.736672
 20
3.187146
 30
0.0
  0
VERTEX
  8
LY_1
  6
CONTINUOUS
 62
     3
  5
202
 10
-0.737717
 20
3.185102
 30
0.0
  0
VERTEX
  8
LY_1
  6
CONTINUOUS
 62
     3
  5
203
 10
-0.738478
 20
3.182932
 30
0.0
  0
VERTEX
  8
LY_1
  6
CONTINUOUS
 62
     3
  5
204
 10
-0.738941
 20
3.180675
 30
0.0
  0
VERTEX
  8
LY_1
  6
CONTINUOUS
 62
     3
  5
205
 10
-0.739096
 20
3.178375
 30
0.0
  0
VERTEX
  8
LY_1
  6
CONTINUOUS
 62
     3
  5
206
 10
-0.739096
 20
3.178375
 30
0.0
  0
SEQEND
  8
LY_1
  6
CONTINUOUS
 62
     3
  5
207
  0
POLYLINE
  8
LY_1
  6
CONTINUOUS
 62
     3
  5
58
 66
     1
 10
0.0
 20
0.0
 30
0.0
  0
VERTEX
  8
LY_1
  6
CONTINUOUS
 62
     3
  5
208
 10
1.24416
 20
2.139674
 30
0.0
  0
VERTEX
  8
LY_1
  6
CONTINUOUS
 62
     3
  5
209
 10
1.245773
 20
2.137859
 30
0.0
  0
VERTEX
  8
LY_1
  6
CONTINUOUS
 62
     3
  5
20A
 10
1.247629
 20
2.136304
 30
0.0
  0
VERTEX
  8
LY_1
  6
CONTINUOUS
 62
     3
  5
20B
 10
1.249687
 20
2.135042
 30
0.0
  0
VERTEX
  8
LY_1
  6
CONTINUOUS
 62
     3
  5
20C
 10
1.251902
 20
2.134101
 30
0.0
  0
VERTEX
  8
LY_1
  6
CONTINUOUS
 62
     3
  5
20D
 10
1.254229
 20
2.133499
 30
0.0
  0
VERTEX
  8
LY_1
  6
CONTINUOUS
 62
     3
  5
20E
 10
1.256616
 20
2.133251
 30
0.0
  0
VERTEX
  8
LY_1
  6
CONTINUOUS
 62
     3
  5
20F
 10
1.259014
 20
2.133361
 30
0.0
  0
VERTEX
  8
LY_1
  6
CONTINUOUS
 62
     3
  5
210
 10
1.26137
 20
2.133827
 30
0.0
  0
VERTEX
  8
LY_1
  6
CONTINUOUS
 62
     3
  5
211
 10
1.263634
 20
2.13464
 30
0.0
  0
VERTEX
  8
LY_1
  6
CONTINUOUS
 62
     3
  5
212
 10
1.265758
 20
2.135781
 30
0.0
  0
VERTEX
  8
LY_1
  6
CONTINUOUS
 62
     3
  5
213
 10
1.267697
 20
2.137226
 30
0.0
  0
VERTEX
  8
LY_1
  6
CONTINUOUS
 62
     3
  5
214
 10
1.269408
 20
2.138945
 30
0.0
  0
VERTEX
  8
LY_1
  6
CONTINUOUS
 62
     3
  5
215
 10
1.270856
 20
2.1409
 30
0.0
  0
VERTEX
  8
LY_1
  6
CONTINUOUS
 62
     3
  5
216
 10
1.272009
 20
2.14305
 30
0.0
  0
VERTEX
  8
LY_1
  6
CONTINUOUS
 62
     3
  5
217
 10
1.272843
 20
2.145349
 30
0.0
  0
VERTEX
  8
LY_1
  6
CONTINUOUS
 62
     3
  5
218
 10
1.273339
 20
2.147748
 30
0.0
  0
VERTEX
  8
LY_1
  6
CONTINUOUS
 62
     3
  5
219
 10
1.273452
 20
2.148876
 30
0.0
  0
VERTEX
  8
LY_1
  6
CONTINUOUS
 62
     3
  5
21A
 10
1.273489
 20
2.150009
 30
0.0
  0
SEQEND
  8
LY_1
  6
CONTINUOUS
 62
     3
  5
21B
  0
POLYLINE
  8
LY_1
  6
CONTINUOUS
 62
     3
  5
59
 66
     1
 10
0.0
 20
0.0
 30
0.0
  0
VERTEX
  8
LY_1
  6
CONTINUOUS
 62
     3
  5
21C
 10
0.013421
 20
14.757327
 30
0.0
  0
VERTEX
  8
LY_1
  6
CONTINUOUS
 62
     3
  5
21D
 10
0.012008
 20
14.759107
 30
0.0
  0
VERTEX
  8
LY_1
  6
CONTINUOUS
 62
     3
  5
21E
 10
0.01037
 20
14.760673
 30
0.0
  0
VERTEX
  8
LY_1
  6
CONTINUOUS
 62
     3
  5
21F
 10
0.008539
 20
14.761997
 30
0.0
  0
VERTEX
  8
LY_1
  6
CONTINUOUS
 62
     3
  5
220
 10
0.006548
 20
14.763053
 30
0.0
  0
VERTEX
  8
LY_1
  6
CONTINUOUS
 62
     3
  5
221
 10
0.004434
 20
14.763822
 30
0.0
  0
VERTEX
  8
LY_1
  6
CONTINUOUS
 62
     3
  5
222
 10
0.002238
 20
14.764289
 30
0.0
  0
VERTEX
  8
LY_1
  6
CONTINUOUS
 62
     3
  5
223
 10
0.0
 20
14.764445
 30
0.0
  0
VERTEX
  8
LY_1
  6
CONTINUOUS
 62
     3
  5
224
 10
-0.002238
 20
14.764289
 30
0.0
  0
VERTEX
  8
LY_1
  6
CONTINUOUS
 62
     3
  5
225
 10
-0.004434
 20
14.763822
 30
0.0
  0
VERTEX
  8
LY_1
  6
CONTINUOUS
 62
     3
  5
226
 10
-0.006548
 20
14.763053
 30
0.0
  0
VERTEX
  8
LY_1
  6
CONTINUOUS
 62
     3
  5
227
 10
-0.008539
 20
14.761997
 30
0.0
  0
VERTEX
  8
LY_1
  6
CONTINUOUS
 62
     3
  5
228
 10
-0.01037
 20
14.760673
 30
0.0
  0
VERTEX
  8
LY_1
  6
CONTINUOUS
 62
     3
  5
229
 10
-0.012008
 20
14.759107
 30
0.0
  0
VERTEX
  8
LY_1
  6
CONTINUOUS
 62
     3
  5
22A
 10
-0.013421
 20
14.757327
 30
0.0
  0
SEQEND
  8
LY_1
  6
CONTINUOUS
 62
     3
  5
22B
  0
POLYLINE
  8
LY_1
  6
CONTINUOUS
 62
     3
  5
5A
 66
     1
 10
0.0
 20
0.0
 30
0.0
  0
VERTEX
  8
LY_1
  6
CONTINUOUS
 62
     3
  5
22C
 10
-3.432405
 20
129.019294
 30
0.0
  0
VERTEX
  8
LY_1
  6
CONTINUOUS
 62
     3
  5
22D
 10
-3.433373
 20
129.018398
 30
0.0
  0
VERTEX
  8
LY_1
  6
CONTINUOUS
 62
     3
  5
22E
 10
-3.434226
 20
129.017356
 30
0.0
  0
VERTEX
  8
LY_1
  6
CONTINUOUS
 62
     3
  5
22F
 10
-3.434949
 20
129.016186
 30
0.0
  0
VERTEX
  8
LY_1
  6
CONTINUOUS
 62
     3
  5
230
 10
-3.435528
 20
129.014913
 30
0.0
  0
VERTEX
  8
LY_1
  6
CONTINUOUS
 62
     3
  5
231
 10
-3.435951
 20
129.013558
 30
0.0
  0
VERTEX
  8
LY_1
  6
CONTINUOUS
 62
     3
  5
232
 10
-3.436211
 20
129.012149
 30
0.0
  0
VERTEX
  8
LY_1
  6
CONTINUOUS
 62
     3
  5
233
 10
-3.436303
 20
129.010711
 30
0.0
  0
VERTEX
  8
LY_1
  6
CONTINUOUS
 62
     3
  5
234
 10
-3.436226
 20
129.009272
 30
0.0
  0
VERTEX
  8
LY_1
  6
CONTINUOUS
 62
     3
  5
235
 10
-3.435979
 20
129.007859
 30
0.0
  0
VERTEX
  8
LY_1
  6
CONTINUOUS
 62
     3
  5
236
 10
-3.435569
 20
129.006499
 30
0.0
  0
VERTEX
  8
LY_1
  6
CONTINUOUS
 62
     3
  5
237
 10
-3.435003
 20
129.005217
 30
0.0
  0
VERTEX
  8
LY_1
  6
CONTINUOUS
 62
     3
  5
238
 10
-3.434292
 20
129.004039
 30
0.0
  0
VERTEX
  8
LY_1
  6
CONTINUOUS
 62
     3
  5
239
 10
-3.433448
 20
129.002985
 30
0.0
  0
VERTEX
  8
LY_1
  6
CONTINUOUS
 62
     3
  5
23A
 10
-3.432489
 20
129.002076
 30
0.0
  0
VERTEX
  8
LY_1
  6
CONTINUOUS
 62
     3
  5
23B
 10
-3.432489
 20
129.002076
 30
0.0
  0
SEQEND
  8
LY_1
  6
CONTINUOUS
 62
     3
  5
23C
  0
ARC
  8
LY_1
  6
CONTINUOUS
 62
     3
  5
5B
 10
1.192764
 20
1.449722
 30
0.0
 40
0.449697
 50
217.524112
 51
359.999982
  0
ARC
  8
LY_1
  6
CONTINUOUS
 62
     3
  5
5C
 10
-1.190765
 20
1.45166
 30
0.0
 40
0.451672
 50
180.000036
 51
359.999982
  0
ARC
  8
LY_1
  6
CONTINUOUS
 62
     3
  5
5D
 10
-1.192703
 20
4.574188
 30
0.0
 40
0.449774
 50
37.524113
 51
180.000019
  0
ARC
  8
LY_1
  6
CONTINUOUS
 62
     3
  5
5E
 10
1.181
 20
4.396454
 30
0.0
 40
0.461462
 50
359.999982
 51
270.000001
  0
ARC
  8
LY_1
  6
CONTINUOUS
 62
     3
  5
5F
 10
1.190674
 20
5.963684
 30
0.0
 40
0.451653
 50
180.000036
 51
359.999982
  0
ARC
  8
LY_1
  6
CONTINUOUS
 62
     3
  5
60
 10
-1.180969
 20
7.439865
 30
0.0
 40
0.461475
 50
90.000037
 51
270.000001
  0
ARC
  8
LY_1
  6
CONTINUOUS
 62
     3
  5
61
 10
1.180878
 20
9.057312
 30
0.0
 40
0.461436
 50
359.999982
 51
270.000001
  0
ARC
  8
LY_1
  6
CONTINUOUS
 62
     3
  5
62
 10
-1.180969
 20
10.640701
 30
0.0
 40
0.46147
 50
90.000037
 51
270.000001
  0
ARC
  8
LY_1
  6
CONTINUOUS
 62
     3
  5
63
 10
1.181
 20
10.640701
 30
0.0
 40
0.46147
 50
270.000018
 51
90.000037
  0
ARC
  8
LY_1
  6
CONTINUOUS
 62
     3
  5
64
 10
1.095154
 20
12.196808
 30
0.0
 40
0.54734
 50
0.778951
 51
34.259064
  0
ARC
  8
LY_1
  6
CONTINUOUS
 62
     3
  5
65
 10
1.190933
 20
12.211029
 30
0.0
 40
0.451561
 50
123.574515
 51
359.143204
  0
ARC
  8
LY_1
  6
CONTINUOUS
 62
     3
  5
66
 10
-1.191833
 20
12.21936
 30
0.0
 40
0.454775
 50
145.740937
 51
325.740956
  0
ARC
  8
LY_1
  6
CONTINUOUS
 62
     3
  5
67
 10
-1.18103
 20
15.238571
 30
0.0
 40
0.461442
 50
89.999982
 51
270.000001
  0
ARC
  8
LY_1
  6
CONTINUOUS
 62
     3
  5
68
 10
1.181046
 20
15.238571
 30
0.0
 40
0.461442
 50
270.000018
 51
90.000037
  0
ARC
  8
LY_1
  6
CONTINUOUS
 62
     3
  5
69
 10
1.302307
 20
120.201004
 30
0.0
 40
7.571756
 50
318.474707
 51
336.525422
  0
ARC
  8
LY_1
  6
CONTINUOUS
 62
     3
  5
6A
 10
1.263107
 20
120.226013
 30
0.0
 40
6.218242
 50
318.198276
 51
336.801307
  0
ARC
  8
LY_1
  6
CONTINUOUS
 62
     3
  5
6B
 10
-1.302307
 20
120.201004
 30
0.0
 40
7.571756
 50
203.474577
 51
221.525291
  0
ARC
  8
LY_1
  6
CONTINUOUS
 62
     3
  5
6C
 10
-1.263123
 20
120.226013
 30
0.0
 40
6.218242
 50
203.198692
 51
221.801723
  0
ARC
  8
LY_1
  6
PHANTOM
 62
   110
  5
6E
 10
0.0
 20
121.030685
 30
0.0
 40
9.1
 50
226.309046
 51
313.690976
  0
ARC
  8
LY_1
  6
PHANTOM
 62
   110
  5
6F
 10
0.0
 20
121.030685
 30
0.0
 40
7.699997
 50
227.462092
 51
312.53789
  0
ARC
  8
LY_1
  6
CONTINUOUS
 62
     3
  5
70
 10
8.439362
 20
121.378494
 30
0.0
 40
0.889
 50
227.874799
 51
264.434343
  0
ARC
  8
LY_1
  6
CONTINUOUS
 62
     3
  5
71
 10
8.157639
 20
121.066971
 30
0.0
 40
0.469
 50
176.848023
 51
227.874618
  0
ARC
  8
LY_1
  6
CONTINUOUS
 62
     3
  5
72
 10
8.155029
 20
121.037003
 30
0.0
 40
0.469
 50
122.125367
 51
173.171961
  0
ARC
  8
LY_1
  6
CONTINUOUS
 62
     3
  5
73
 10
8.378357
 20
120.68132
 30
0.0
 40
0.889
 50
85.578118
 51
122.125203
  0
ARC
  8
LY_1
  6
CONTINUOUS
 62
     3
  5
74
 10
8.360641
 20
120.682877
 30
0.0
 40
0.889
 50
47.874821
 51
84.431739
  0
ARC
  8
LY_1
  6
CONTINUOUS
 62
     3
  5
75
 10
8.642349
 20
120.99437
 30
0.0
 40
0.469
 50
356.84801
 51
47.874602
  0
ARC
  8
LY_1
  6
CONTINUOUS
 62
     3
  5
76
 10
8.644974
 20
121.024353
 30
0.0
 40
0.469
 50
302.125403
 51
353.171979
  0
ARC
  8
LY_1
  6
CONTINUOUS
 62
     3
  5
77
 10
8.421631
 20
121.380035
 30
0.0
 40
0.889
 50
265.581487
 51
302.125184
  0
ARC
  8
LY_1
  6
CONTINUOUS
 62
     3
  5
78
 10
8.378357
 20
120.68132
 30
0.0
 40
1.05
 50
85.485391
 51
122.125203
  0
ARC
  8
LY_1
  6
CONTINUOUS
 62
     3
  5
79
 10
8.642349
 20
120.99437
 30
0.0
 40
0.63
 50
356.37819
 51
47.874602
  0
ARC
  8
LY_1
  6
CONTINUOUS
 62
     3
  5
7A
 10
8.360641
 20
120.682877
 30
0.0
 40
1.05
 50
47.874821
 51
84.51463
  0
ARC
  8
LY_1
  6
CONTINUOUS
 62
     3
  5
7B
 10
8.157639
 20
121.066971
 30
0.0
 40
0.63
 50
176.378215
 51
227.874618
  0
ARC
  8
LY_1
  6
CONTINUOUS
 62
     3
  5
7C
 10
8.439362
 20
121.378494
 30
0.0
 40
1.05
 50
227.874799
 51
264.514447
  0
ARC
  8
LY_1
  6
CONTINUOUS
 62
     3
  5
7D
 10
8.155029
 20
121.037003
 30
0.0
 40
0.63
 50
122.125367
 51
173.641823
  0
ARC
  8
LY_1
  6
CONTINUOUS
 62
     3
  5
7E
 10
8.644974
 20
121.024353
 30
0.0
 40
0.63
 50
302.125403
 51
353.641797
  0
ARC
  8
LY_1
  6
CONTINUOUS
 62
     3
  5
7F
 10
8.421631
 20
121.380035
 30
0.0
 40
1.05
 50
265.485645
 51
302.125184
  0
ARC
  8
LY_1
  6
CONTINUOUS
 62
     3
  5
80
 10
2.150757
 20
129.78064
 30
0.0
 40
0.28
 50
89.999982
 51
180.000019
  0
ARC
  8
LY_1
  6
CONTINUOUS
 62
     3
  5
81
 10
2.085144
 20
129.763168
 30
0.0
 40
0.28
 50
274.658043
 51
0.0
  0
ARC
  8
LY_1
  6
CONTINUOUS
 62
     3
  5
82
 10
2.129761
 20
129.742172
 30
0.0
 40
0.259
 50
180.000036
 51
265.157141
  0
ARC
  8
LY_1
  6
CONTINUOUS
 62
     3
  5
83
 10
3.320435
 20
129.814285
 30
0.0
 40
0.0105
 50
312.505723
 51
89.998288
  0
ARC
  8
LY_1
  6
CONTINUOUS
 62
     3
  5
84
 10
3.639435
 20
129.762634
 30
0.0
 40
0.298053
 50
312.504463
 51
89.999982
  0
ARC
  8
LY_1
  6
CONTINUOUS
 62
     3
  5
85
 10
2.77153
 20
128.548676
 30
0.0
 40
0.0105
 50
132.505506
 51
269.998635
  0
ARC
  8
LY_1
  6
CONTINUOUS
 62
     3
  5
86
 10
2.079895
 20
128.258774
 30
0.0
 40
0.298095
 50
132.504468
 51
270.000001
  0
ARC
  8
LY_1
  6
CONTINUOUS
 62
     3
  5
87
 10
3.648743
 20
128.24942
 30
0.0
 40
0.288751
 50
270.000018
 51
89.999982
  0
ARC
  8
LY_1
  6
CONTINUOUS
 62
     3
  5
88
 10
-0.3461
 20
129.780579
 30
0.0
 40
0.28
 50
89.999982
 51
180.000019
  0
ARC
  8
LY_1
  6
CONTINUOUS
 62
     3
  5
89
 10
-0.411713
 20
129.763092
 30
0.0
 40
0.28
 50
274.658043
 51
0.0
  0
ARC
  8
LY_1
  6
CONTINUOUS
 62
     3
  5
8A
 10
-0.367111
 20
129.742096
 30
0.0
 40
0.259
 50
180.000036
 51
265.157141
  0
ARC
  8
LY_1
  6
CONTINUOUS
 62
     3
  5
8B
 10
0.487579
 20
128.207886
 30
0.0
 40
0.247217
 50
180.000036
 51
359.999983
  0
ARC
  8
LY_1
  6
CONTINUOUS
 62
     3
  5
8C
 10
1.231613
 20
129.771835
 30
0.0
 40
0.288733
 50
270.000018
 51
89.999982
  0
ARC
  8
LY_1
  6
CONTINUOUS
 62
     3
  5
8D
 10
-1.227188
 20
129.813492
 30
0.0
 40
0.2472
 50
0.0
 51
180.000019
  0
ARC
  8
LY_1
  6
CONTINUOUS
 62
     3
  5
8E
 10
-1.227188
 20
128.207886
 30
0.0
 40
0.2472
 50
179.999964
 51
359.999983
  0
ARC
  8
LY_1
  6
CONTINUOUS
 62
     3
  5
8F
 10
-2.082031
 20
129.846268
 30
0.0
 40
0.21
 50
69.540669
 51
129.103799
  0
ARC
  8
LY_1
  6
CONTINUOUS
 62
     3
  5
90
 10
-2.07579
 20
129.728317
 30
0.0
 40
0.245
 50
211.487864
 51
266.528697
  0
ARC
  8
LY_1
  6
CONTINUOUS
 62
     3
  5
91
 10
-2.106491
 20
129.763321
 30
0.0
 40
0.28
 50
273.248893
 51
0.0
  0
ARC
  8
LY_1
  6
CONTINUOUS
 62
     3
  5
92
 10
-2.106491
 20
129.780685
 30
0.0
 40
0.28
 50
0.0
 51
69.540724
  0
ARC
  8
LY_1
  6
CONTINUOUS
 62
     3
  5
93
 10
-2.07695
 20
128.25206
 30
0.0
 40
0.272962
 50
230.896201
 51
50.89622
  0
ARC
  8
LY_1
  6
CONTINUOUS
 62
     3
  5
94
 10
-3.690308
 20
129.813477
 30
0.0
 40
0.2472
 50
0.0
 51
180.000019
  0
ARC
  8
LY_1
  6
CONTINUOUS
 62
     3
  5
95
 10
-3.690308
 20
128.20787
 30
0.0
 40
0.2472
 50
179.999964
 51
359.999983
  0
CIRCLE
  8
LY_1
  6
CONTINUOUS
 62
     3
  5
96
 10
0.0
 20
121.030685
 30
0.0
 40
6.3
  0
CIRCLE
  8
LY_1
  6
CONTINUOUS
 62
     3
  5
97
 10
0.0
 20
121.030685
 30
0.0
 40
10.5
  0
ARC
  8
LY_1
  6
CONTINUOUS
 62
     3
  5
98
 10
-8.921173
 20
121.858047
 30
0.0
 40
0.105
 50
329.803437
 51
149.803424
  0
ARC
  8
LY_1
  6
CONTINUOUS
 62
     3
  5
99
 10
-7.767303
 20
120.31694
 30
0.0
 40
0.105
 50
154.285886
 51
334.374971
  0
ARC
  8
LY_1
  6
CONTINUOUS
 62
     3
  5
9A
 10
-7.9841
 20
121.453262
 30
0.0
 40
0.205992
 50
18.468446
 51
169.999966
  0
ARC
  8
LY_1
  6
CONTINUOUS
 62
     3
  5
9B
 10
-8.755081
 20
120.504578
 30
0.0
 40
0.178551
 50
202.732326
 51
349.999978
  0
ARC
  8
LY_1
  6
CONTINUOUS
 62
     3
  5
9C
 10
-8.755081
 20
120.504578
 30
0.0
 40
0.388551
 50
202.732326
 51
349.999978
  0
ARC
  8
LY_1
  6
CONTINUOUS
 62
     3
  5
9D
 10
-7.9841
 20
121.453262
 30
0.0
 40
0.415992
 50
18.468446
 51
169.999966
  0
ARC
  8
LY_1
  6
CONTINUOUS
 62
     3
  5
9E
 10
-9.249405
 20
121.030685
 30
0.0
 40
1.54
 50
334.285898
 51
18.46848
  0
ARC
  8
LY_1
  6
CONTINUOUS
 62
     3
  5
9F
 10
-7.499405
 20
121.030685
 30
0.0
 40
1.54
 50
149.803424
 51
202.732309
  0
ARC
  8
LY_1
  6
CONTINUOUS
 62
     3
  5
A0
 10
-7.499405
 20
121.030685
 30
0.0
 40
1.75
 50
149.803424
 51
202.732309
  0
ARC
  8
LY_1
  6
CONTINUOUS
 62
     3
  5
A1
 10
-9.249405
 20
121.030685
 30
0.0
 40
1.75
 50
334.285898
 51
18.46848
  0
ARC
  8
LY_1
  6
CONTINUOUS
 62
     3
  5
A2
 10
59.181885
 20
15.501791
 30
0.0
 40
2.0
 50
0.500006
 51
60.992114
  0
ARC
  8
LY_1
  6
CONTINUOUS
 62
     3
  5
A3
 10
61.121613
 20
19.0
 30
0.0
 40
2.0
 50
180.000019
 51
240.992023
  0
ARC
  8
LY_1
  6
CONTINUOUS
 62
     3
  5
A4
 10
85.06134
 20
15.501791
 30
0.0
 40
2.0
 50
119.007905
 51
179.499994
  0
ARC
  8
LY_1
  6
CONTINUOUS
 62
     3
  5
A5
 10
83.121613
 20
19.0
 30
0.0
 40
2.0
 50
299.007995
 51
0.0
  0
ARC
  8
LY_1
  6
CONTINUOUS
 62
     3
  5
A6
 10
62.121613
 20
34.732056
 30
0.0
 40
2.0
 50
299.999957
 51
0.000019
  0
ARC
  8
LY_1
  6
CONTINUOUS
 62
     3
  5
A7
 10
82.121613
 20
34.732056
 30
0.0
 40
2.0
 50
179.999981
 51
240.000024
  0
ARC
  8
LY_1
  6
CONTINUOUS
 62
     3
  5
A8
 10
72.121613
 20
-0.5
 30
0.0
 40
10.8
 50
179.999981
 51
359.999983
  0
CIRCLE
  8
LY_1
  6
CONTINUOUS
 62
     3
  5
A9
 10
72.121613
 20
0.0
 30
0.0
 40
5.7
  0
CIRCLE
  8
LY_1
  6
CONTINUOUS
 62
   110
  5
AA
 10
72.121613
 20
0.0
 30
0.0
 40
6.575
  0
CIRCLE
  8
LY_1
  6
CONTINUOUS
 62
     3
  5
AB
 10
0.0
 20
121.030685
 30
0.0
 40
3.0
  0
CIRCLE
  8
LY_1
  6
CONTINUOUS
 62
   110
  5
AC
 10
0.0
 20
121.030685
 30
0.0
 40
2.3
  0
ARC
  8
LY_1
  6
CONTINUOUS
 62
     3
  5
AD
 10
0.0
 20
121.030685
 30
0.0
 40
13.2
 50
255.601105
 51
344.398871
  0
ARC
  8
LY_1
  6
CONTINUOUS
 62
     3
  5
AE
 10
0.0
 20
121.030685
 30
0.0
 40
13.2
 50
135.601112
 51
224.398871
  0
ARC
  8
LY_1
  6
CONTINUOUS
 62
     3
  5
AF
 10
0.0
 20
121.030685
 30
0.0
 40
13.2
 50
15.600606
 51
104.398895
  0
ARC
  8
LY_1
  6
CONTINUOUS
 62
     3
  5
B0
 10
3.185254
 20
103.619675
 30
0.0
 40
1.3
 50
27.201133
 51
100.367663
  0
ARC
  8
LY_1
  6
CONTINUOUS
 62
     3
  5
B1
 10
-3.185244
 20
103.619659
 30
0.0
 40
1.3
 50
79.632738
 51
152.799145
  0
ARC
  8
LY_1
  6
CONTINUOUS
 62
     3
  5
B2
 10
0.0
 20
121.030701
 30
0.0
 40
16.399994
 50
259.63272
 51
280.367316
  0
ARC
  8
LY_1
  6
CONTINUOUS
 62
     3
  5
B3
 10
0.0
 20
121.030701
 30
0.0
 40
19.399994
 50
254.172721
 51
285.827315
  0
ARC
  8
LY_1
  6
CONTINUOUS
 62
     3
  5
B4
 10
3.185254
 20
138.441696
 30
0.0
 40
1.3
 50
259.632337
 51
332.798867
  0
ARC
  8
LY_1
  6
CONTINUOUS
 62
     3
  5
B5
 10
-3.185244
 20
138.441711
 30
0.0
 40
1.3
 50
207.200855
 51
280.367262
  0
ARC
  8
LY_1
  6
CONTINUOUS
 62
     3
  5
B6
 10
0.0
 20
121.03067
 30
0.0
 40
16.399994
 50
79.632684
 51
100.36728
  0
ARC
  8
LY_1
  6
CONTINUOUS
 62
     3
  5
B7
 10
0.0
 20
121.03067
 30
0.0
 40
19.399994
 50
74.172685
 51
105.827279
  0
ARC
  8
LY_1
  6
CONTINUOUS
 62
     3
  5
B8
 10
16.671021
 20
115.083679
 30
0.0
 40
1.3
 50
87.201134
 51
160.367651
  0
ARC
  8
LY_1
  6
CONTINUOUS
 62
     3
  5
B9
 10
13.485768
 20
109.566666
 30
0.0
 40
1.3
 50
139.632781
 51
212.799188
  0
ARC
  8
LY_1
  6
CONTINUOUS
 62
     3
  5
BA
 10
-0.000009
 20
121.030685
 30
0.0
 40
16.399994
 50
319.632728
 51
340.367325
  0
ARC
  8
LY_1
  6
CONTINUOUS
 62
     3
  5
BB
 10
-0.000009
 20
121.030685
 30
0.0
 40
19.399994
 50
314.17273
 51
345.827323
  0
ARC
  8
LY_1
  6
CONTINUOUS
 62
     3
  5
BC
 10
16.671021
 20
126.977692
 30
0.0
 40
1.3
 50
199.632349
 51
272.798866
  0
ARC
  8
LY_1
  6
CONTINUOUS
 62
     3
  5
BD
 10
13.485768
 20
132.494705
 30
0.0
 40
1.3
 50
147.200849
 51
220.367256
  0
ARC
  8
LY_1
  6
CONTINUOUS
 62
     3
  5
BE
 10
-0.000009
 20
121.030685
 30
0.0
 40
16.399994
 50
19.632679
 51
40.367275
  0
ARC
  8
LY_1
  6
CONTINUOUS
 62
     3
  5
BF
 10
-0.000009
 20
121.030685
 30
0.0
 40
19.399994
 50
14.17268
 51
45.827274
  0
ARC
  8
LY_1
  6
CONTINUOUS
 62
     3
  5
C0
 10
-16.671005
 20
115.083679
 30
0.0
 40
1.3
 50
19.632324
 51
92.798884
  0
ARC
  8
LY_1
  6
CONTINUOUS
 62
     3
  5
C1
 10
-13.485767
 20
109.566666
 30
0.0
 40
1.3
 50
327.200827
 51
40.367238
  0
ARC
  8
LY_1
  6
CONTINUOUS
 62
     3
  5
C2
 10
0.000009
 20
121.030685
 30
0.0
 40
16.399994
 50
199.632677
 51
220.367274
  0
ARC
  8
LY_1
  6
CONTINUOUS
 62
     3
  5
C3
 10
0.000009
 20
121.030685
 30
0.0
 40
19.399994
 50
194.172678
 51
225.827272
  0
ARC
  8
LY_1
  6
CONTINUOUS
 62
     3
  5
C4
 10
-16.671005
 20
126.977692
 30
0.0
 40
1.3
 50
267.201116
 51
340.367676
  0
ARC
  8
LY_1
  6
CONTINUOUS
 62
     3
  5
C5
 10
-13.485767
 20
132.494705
 30
0.0
 40
1.3
 50
319.632762
 51
32.799173
  0
ARC
  8
LY_1
  6
CONTINUOUS
 62
     3
  5
C6
 10
0.000009
 20
121.030685
 30
0.0
 40
16.399994
 50
139.632726
 51
160.367323
  0
ARC
  8
LY_1
  6
CONTINUOUS
 62
     3
  5
C7
 10
0.000009
 20
121.030685
 30
0.0
 40
19.399994
 50
134.172728
 51
165.827322
  0
ARC
  8
LY_1
  6
CONTINUOUS
 62
     3
  5
C8
 10
-19.399994
 20
121.030685
 30
0.0
 40
5.6
 50
134.23256
 51
225.767477
  0
ARC
  8
LY_1
  6
CONTINUOUS
 62
     3
  5
C9
 10
19.400009
 20
121.030685
 30
0.0
 40
5.6
 50
314.232525
 51
45.767458
  0
ARC
  8
LY_1
  6
CONTINUOUS
 62
     3
  5
CA
 10
-28.310669
 20
99.509338
 30
0.0
 40
13.6
 50
14.232513
 51
25.44129
  0
ARC
  8
LY_1
  6
CONTINUOUS
 62
     3
  5
CB
 10
-9.700006
 20
104.229797
 30
0.0
 40
5.6
 50
194.1694
 51
285.767428
  0
ARC
  8
LY_1
  6
CONTINUOUS
 62
     3
  5
CC
 10
-9.700006
 20
137.831573
 30
0.0
 40
5.6
 50
74.232572
 51
165.8306
  0
ARC
  8
LY_1
  6
CONTINUOUS
 62
     3
  5
CD
 10
-32.793381
 20
107.273605
 30
0.0
 40
13.6
 50
34.558718
 51
45.767441
  0
ARC
  8
LY_1
  6
CONTINUOUS
 62
     3
  5
CE
 10
-79.241318
 20
75.28067
 30
0.0
 40
70.0
 50
25.44129
 51
34.558718
  0
ARC
  8
LY_1
  6
CONTINUOUS
 62
     3
  5
CF
 10
-28.310669
 20
142.552032
 30
0.0
 40
13.6
 50
334.558713
 51
345.767491
  0
ARC
  8
LY_1
  6
CONTINUOUS
 62
     3
  5
D0
 10
-32.793381
 20
134.787766
 30
0.0
 40
13.6
 50
314.232562
 51
325.441285
  0
ARC
  8
LY_1
  6
CONTINUOUS
 62
     3
  5
D1
 10
-79.241318
 20
166.780701
 30
0.0
 40
70.0
 50
325.441285
 51
334.558713
  0
ARC
  8
LY_1
  6
CONTINUOUS
 62
     3
  5
D2
 10
28.310684
 20
99.509338
 30
0.0
 40
13.6
 50
154.558711
 51
165.767489
  0
ARC
  8
LY_1
  6
CONTINUOUS
 62
     3
  5
D3
 10
9.700006
 20
104.229797
 30
0.0
 40
5.6
 50
254.232554
 51
345.830598
  0
ARC
  8
LY_1
  6
CONTINUOUS
 62
     3
  5
D4
 10
-4.482689
 20
85.752258
 30
0.0
 40
13.6
 50
94.558723
 51
105.767501
  0
ARC
  8
LY_1
  6
CONTINUOUS
 62
     3
  5
D5
 10
4.482719
 20
85.752243
 30
0.0
 40
13.6
 50
74.232572
 51
85.441295
  0
ARC
  8
LY_1
  6
CONTINUOUS
 62
     3
  5
D6
 10
-0.000008
 20
29.530746
 30
0.0
 40
70.0
 50
85.441295
 51
94.558723
  0
ARC
  8
LY_1
  6
CONTINUOUS
 62
     3
  5
D7
 10
9.700006
 20
137.831573
 30
0.0
 40
5.6
 50
14.169402
 51
105.767446
  0
ARC
  8
LY_1
  6
CONTINUOUS
 62
     3
  5
D8
 10
32.793396
 20
107.273605
 30
0.0
 40
13.6
 50
134.23256
 51
145.441283
  0
ARC
  8
LY_1
  6
CONTINUOUS
 62
     3
  5
D9
 10
79.241333
 20
75.28067
 30
0.0
 40
70.0
 50
145.441283
 51
154.558711
  0
ARC
  8
LY_1
  6
CONTINUOUS
 62
     3
  5
DA
 10
-4.482689
 20
156.309113
 30
0.0
 40
13.6
 50
254.232499
 51
265.441277
  0
ARC
  8
LY_1
  6
CONTINUOUS
 62
     3
  5
DB
 10
4.482719
 20
156.309128
 30
0.0
 40
13.6
 50
274.558705
 51
285.767428
  0
ARC
  8
LY_1
  6
CONTINUOUS
 62
     3
  5
DC
 10
-0.000008
 20
212.530624
 30
0.0
 40
70.0
 50
265.441277
 51
274.558705
  0
ARC
  8
LY_1
  6
CONTINUOUS
 62
     3
  5
DD
 10
28.310684
 20
142.552032
 30
0.0
 40
13.6
 50
194.232511
 51
205.441289
  0
ARC
  8
LY_1
  6
CONTINUOUS
 62
     3
  5
DE
 10
32.793396
 20
134.787766
 30
0.0
 40
13.6
 50
214.558717
 51
225.76744
  0
ARC
  8
LY_1
  6
CONTINUOUS
 62
     3
  5
DF
 10
79.241333
 20
166.780701
 30
0.0
 40
70.0
 50
205.441289
 51
214.558717
  0
ARC
  8
LY_1
  6
CONTINUOUS
 62
     3
  5
E0
 10
66.121613
 20
63.900009
 30
0.0
 40
1.0
 50
270.000018
 51
359.999981
  0
ARC
  8
LY_1
  6
CONTINUOUS
 62
     3
  5
E1
 10
72.121613
 20
65.0
 30
0.0
 40
5.0
 50
359.999981
 51
180.000019
  0
ARC
  8
LY_1
  6
CONTINUOUS
 62
     3
  5
E2
 10
56.91124
 20
63.900009
 30
0.0
 40
1.0
 50
180.000019
 51
270.000001
  0
ARC
  8
LY_1
  6
CONTINUOUS
 62
     3
  5
E3
 10
57.91124
 20
64.300003
 30
0.0
 40
2.0
 50
90.000037
 51
180.000019
  0
ARC
  8
LY_1
  6
CONTINUOUS
 62
     3
  5
E4
 10
56.001328
 20
65.0
 30
0.0
 40
5.0
 50
38.316251
 51
135.596904
  0
ARC
  8
LY_1
  6
CONTINUOUS
 62
     3
  5
E5
 10
57.783798
 20
63.247055
 30
0.0
 40
7.5
 50
135.399539
 51
166.921572
  0
ARC
  8
LY_1
  6
CONTINUOUS
 62
     3
  5
E6
 10
84.489899
 20
56.687012
 30
0.0
 40
35.0
 50
166.065777
 51
173.416153
  0
ARC
  8
LY_1
  6
CONTINUOUS
 62
     3
  5
E7
 10
78.121613
 20
63.900009
 30
0.0
 40
1.0
 50
180.000019
 51
270.000001
  0
ARC
  8
LY_1
  6
CONTINUOUS
 62
     3
  5
E8
 10
87.331985
 20
63.900009
 30
0.0
 40
1.0
 50
270.000018
 51
0.0
  0
ARC
  8
LY_1
  6
CONTINUOUS
 62
     3
  5
E9
 10
86.331985
 20
64.300003
 30
0.0
 40
2.0
 50
0.0
 51
89.999982
  0
ARC
  8
LY_1
  6
CONTINUOUS
 62
     3
  5
EA
 10
88.241898
 20
65.0
 30
0.0
 40
5.0
 50
44.403111
 51
141.68375
  0
ARC
  8
LY_1
  6
CONTINUOUS
 62
     3
  5
EB
 10
86.459427
 20
63.247055
 30
0.0
 40
7.5
 50
13.078436
 51
44.600442
  0
ARC
  8
LY_1
  6
CONTINUOUS
 62
     3
  5
EC
 10
59.753326
 20
56.687012
 30
0.0
 40
35.0
 50
6.583824
 51
13.934245
  0
ARC
  8
LY_1
  6
CONTINUOUS
 62
     3
  5
ED
 10
-17.809479
 20
63.900009
 30
0.0
 40
1.0
 50
179.999981
 51
269.999963
  0
ARC
  8
LY_1
  6
CONTINUOUS
 62
     3
  5
EE
 10
-16.809479
 20
64.300003
 30
0.0
 40
2.0
 50
90.000037
 51
180.000019
  0
ARC
  8
LY_1
  6
CONTINUOUS
 62
     3
  5
EF
 10
-8.790092
 20
63.900009
 30
0.0
 40
1.0
 50
179.999981
 51
269.999963
  0
ARC
  8
LY_1
  6
CONTINUOUS
 62
     3
  5
F0
 10
-7.790092
 20
64.300003
 30
0.0
 40
2.0
 50
90.000037
 51
180.000019
  0
ARC
  8
LY_1
  6
CONTINUOUS
 62
     3
  5
F1
 10
-9.700006
 20
65.0
 30
0.0
 40
5.0
 50
38.316251
 51
135.596904
  0
ARC
  8
LY_1
  6
CONTINUOUS
 62
     3
  5
F2
 10
-7.917535
 20
63.247055
 30
0.0
 40
7.5
 50
135.399539
 51
166.921572
  0
ARC
  8
LY_1
  6
CONTINUOUS
 62
     3
  5
F3
 10
18.788574
 20
56.687012
 30
0.0
 40
35.0
 50
166.065777
 51
173.416153
  0
ARC
  8
LY_1
  6
CONTINUOUS
 62
     3
  5
F4
 10
-18.719391
 20
65.0
 30
0.0
 40
5.0
 50
38.316251
 51
135.596904
  0
ARC
  8
LY_1
  6
CONTINUOUS
 62
     3
  5
F5
 10
-16.93692
 20
63.247055
 30
0.0
 40
7.5
 50
135.399539
 51
166.921572
  0
ARC
  8
LY_1
  6
CONTINUOUS
 62
     3
  5
F6
 10
9.769172
 20
56.687012
 30
0.0
 40
35.0
 50
166.065777
 51
173.416153
  0
ARC
  8
LY_1
  6
CONTINUOUS
 62
     3
  5
F7
 10
17.809494
 20
63.900009
 30
0.0
 40
1.0
 50
270.000018
 51
0.0
  0
ARC
  8
LY_1
  6
CONTINUOUS
 62
     3
  5
F8
 10
16.809494
 20
64.300003
 30
0.0
 40
2.0
 50
0.0
 51
89.999982
  0
ARC
  8
LY_1
  6
CONTINUOUS
 62
     3
  5
F9
 10
8.790091
 20
63.900009
 30
0.0
 40
1.0
 50
270.000018
 51
0.0
  0
ARC
  8
LY_1
  6
CONTINUOUS
 62
     3
  5
FA
 10
7.790091
 20
64.300003
 30
0.0
 40
2.0
 50
0.0
 51
89.999982
  0
ARC
  8
LY_1
  6
CONTINUOUS
 62
     3
  5
FB
 10
9.700005
 20
65.0
 30
0.0
 40
5.0
 50
44.403111
 51
141.68375
  0
ARC
  8
LY_1
  6
CONTINUOUS
 62
     3
  5
FC
 10
7.917534
 20
63.247055
 30
0.0
 40
7.5
 50
13.078436
 51
44.600442
  0
ARC
  8
LY_1
  6
CONTINUOUS
 62
     3
  5
FD
 10
-18.788559
 20
56.687012
 30
0.0
 40
35.0
 50
6.583824
 51
13.934245
  0
ARC
  8
LY_1
  6
CONTINUOUS
 62
     3
  5
FE
 10
18.719406
 20
65.0
 30
0.0
 40
5.0
 50
44.403111
 51
141.68375
  0
ARC
  8
LY_1
  6
CONTINUOUS
 62
     3
  5
FF
 10
16.936935
 20
63.247055
 30
0.0
 40
7.5
 50
13.078436
 51
44.600442
  0
ARC
  8
LY_1
  6
CONTINUOUS
 62
     3
  5
100
 10
-9.769173
 20
56.687012
 30
0.0
 40
35.0
 50
6.583824
 51
13.934245
  0
ARC
  8
LY_1
  6
CONTINUOUS
 62
     3
  5
101
 10
-10.0
 20
35.0
 30
0.0
 40
2.0
 50
269.999963
 51
0.000019
  0
ARC
  8
LY_1
  6
CONTINUOUS
 62
     3
  5
102
 10
10.0
 20
35.0
 30
0.0
 40
2.0
 50
179.999981
 51
270.000018
  0
ARC
  8
LY_1
  6
CONTINUOUS
 62
     3
  5
103
 10
-12.5
 20
12.1
 30
0.0
 40
2.0
 50
270.000018
 51
359.999981
  0
ARC
  8
LY_1
  6
CONTINUOUS
 62
     3
  5
104
 10
-12.5
 20
14.401924
 30
0.0
 40
2.0
 50
359.999981
 51
59.999988
  0
ARC
  8
LY_1
  6
CONTINUOUS
 62
     3
  5
105
 10
-11.0
 20
18.154694
 30
0.0
 40
2.0
 50
180.0002
 51
240.000024
  0
ARC
  8
LY_1
  6
CONTINUOUS
 62
     3
  5
106
 10
-6.184243
 20
-9.3
 30
0.0
 40
2.0
 50
197.457617
 51
269.999963
  0
ARC
  8
LY_1
  6
CONTINUOUS
 62
     3
  5
107
 10
-10.0
 20
-10.5
 30
0.0
 40
2.0
 50
17.457619
 51
88.776176
  0
ARC
  8
LY_1
  6
CONTINUOUS
 62
     3
  5
108
 10
-9.920291
 20
-10.0
 30
0.0
 40
1.5
 50
91.413175
 51
164.999994
  0
ARC
  8
LY_1
  6
CONTINUOUS
 62
     3
  5
109
 10
12.5
 20
12.1
 30
0.0
 40
2.0
 50
180.000019
 51
270.000001
  0
ARC
  8
LY_1
  6
CONTINUOUS
 62
     3
  5
10A
 10
12.5
 20
14.401924
 30
0.0
 40
2.0
 50
120.000031
 51
180.000019
  0
ARC
  8
LY_1
  6
CONTINUOUS
 62
     3
  5
10B
 10
11.0
 20
18.154694
 30
0.0
 40
2.0
 50
299.999903
 51
359.999783
  0
ARC
  8
LY_1
  6
CONTINUOUS
 62
     3
  5
10C
 10
6.184243
 20
-9.3
 30
0.0
 40
2.0
 50
270.000018
 51
342.542398
  0
ARC
  8
LY_1
  6
CONTINUOUS
 62
     3
  5
10D
 10
10.0
 20
-10.5
 30
0.0
 40
2.0
 50
91.223843
 51
162.542383
  0
ARC
  8
LY_1
  6
CONTINUOUS
 62
     3
  5
10E
 10
9.920291
 20
-10.0
 30
0.0
 40
1.5
 50
15.0
 51
88.586843
  0
LINE
  8
LY_1
  6
CONTINUOUS
 62
     3
  5
10F
 10
1.273468
 20
3.934982
 30
0.0
 11
1.181
 21
3.934982
 31
0.0
  0
LINE
  8
LY_1
  6
CONTINUOUS
 62
     3
  5
110
 10
1.273346
 20
8.595856
 30
0.0
 11
1.180878
 21
8.595856
 31
0.0
  0
LINE
  8
LY_1
  6
CONTINUOUS
 62
     3
  5
111
 10
1.273346
 20
8.595856
 30
0.0
 11
1.273346
 21
7.901321
 31
0.0
  0
LINE
  8
LY_1
  6
CONTINUOUS
 62
     3
  5
112
 10
0.739014
 20
6.978363
 30
0.0
 11
0.739014
 21
5.963684
 31
0.0
  0
LINE
  8
LY_1
  6
CONTINUOUS
 62
     3
  5
113
 10
0.739014
 20
6.978363
 30
0.0
 11
-1.180969
 21
6.978363
 31
0.0
  0
LINE
  8
LY_1
  6
CONTINUOUS
 62
     3
  5
114
 10
1.273346
 20
7.901321
 30
0.0
 11
-1.180969
 21
7.901321
 31
0.0
  0
LINE
  8
LY_1
  6
CONTINUOUS
 62
     3
  5
115
 10
1.642303
 20
9.057312
 30
0.0
 11
1.642303
 21
5.963684
 31
0.0
  0
LINE
  8
LY_1
  6
CONTINUOUS
 62
     3
  5
116
 10
1.273468
 20
3.934982
 30
0.0
 11
1.273468
 21
2.150009
 31
0.0
  0
LINE
  8
LY_1
  6
CONTINUOUS
 62
     3
  5
117
 10
-1.642441
 20
4.574188
 30
0.0
 11
-1.642441
 21
1.45166
 31
0.0
  0
LINE
  8
LY_1
  6
CONTINUOUS
 62
     3
  5
118
 10
-0.73909
 20
1.45166
 30
0.0
 11
-0.73909
 21
3.17836
 31
0.0
  0
LINE
  8
LY_1
  6
CONTINUOUS
 62
     3
  5
119
 10
0.836114
 20
1.175794
 30
0.0
 11
-0.709813
 21
3.188731
 31
0.0
  0
LINE
  8
LY_1
  6
CONTINUOUS
 62
     3
  5
11A
 10
1.244136
 20
2.13964
 30
0.0
 11
-0.835966
 21
4.848123
 31
0.0
  0
LINE
  8
LY_1
  6
CONTINUOUS
 62
     3
  5
11B
 10
1.642471
 20
4.396454
 30
0.0
 11
1.642471
 21
1.449722
 31
0.0
  0
LINE
  8
LY_1
  6
CONTINUOUS
 62
     3
  5
11C
 10
-1.180969
 20
11.102188
 30
0.0
 11
1.181
 21
11.102188
 31
0.0
  0
LINE
  8
LY_1
  6
CONTINUOUS
 62
     3
  5
11D
 10
1.181
 20
10.17923
 30
0.0
 11
-1.180969
 21
10.17923
 31
0.0
  0
LINE
  8
LY_1
  6
CONTINUOUS
 62
     3
  5
11E
 10
0.275114
 20
13.56519
 30
0.0
 11
0.941194
 21
12.587251
 31
0.0
  0
LINE
  8
LY_1
  6
CONTINUOUS
 62
     3
  5
11F
 10
0.27509
 20
13.565196
 30
0.0
 11
-0.815975
 21
11.963296
 31
0.0
  0
LINE
  8
LY_1
  6
CONTINUOUS
 62
     3
  5
120
 10
0.013409
 20
14.757258
 30
0.0
 11
1.547488
 21
12.504924
 31
0.0
  0
LINE
  8
LY_1
  6
CONTINUOUS
 62
     3
  5
121
 10
-0.01351
 20
14.757248
 30
0.0
 11
-1.567741
 21
12.475329
 31
0.0
  0
LINE
  8
LY_1
  6
CONTINUOUS
 62
     3
  5
122
 10
1.181046
 20
14.777145
 30
0.0
 11
-1.18103
 21
14.777145
 31
0.0
  0
LINE
  8
LY_1
  6
CONTINUOUS
 62
     3
  5
123
 10
1.181046
 20
15.700012
 30
0.0
 11
-1.18103
 21
15.700012
 31
0.0
  0
LINE
  8
LY_1
  6
CONTINUOUS
 62
     3
  5
124
 10
5.898535
 20
116.081208
 30
0.0
 11
6.971001
 21
115.181296
 31
0.0
  0
LINE
  8
LY_1
  6
CONTINUOUS
 62
     3
  5
125
 10
6.344149
 20
118.07235
 30
0.0
 11
6.97856
 21
117.776516
 31
0.0
  0
LINE
  8
LY_1
  6
CONTINUOUS
 62
     3
  5
126
 10
8.881816
 20
116.889022
 30
0.0
 11
8.24739
 21
117.184862
 31
0.0
  0
LINE
  8
LY_1
  6
CONTINUOUS
 62
     3
  5
127
 10
8.272392
 20
119.572031
 30
0.0
 11
6.34416
 21
118.072358
 31
0.0
  0
LINE
  8
LY_1
  6
CONTINUOUS
 62
     3
  5
128
 10
8.272388
 20
119.572025
 30
0.0
 11
8.881809
 21
116.889025
 31
0.0
  0
LINE
  8
LY_1
  6
CONTINUOUS
 62
     3
  5
129
 10
-5.898535
 20
116.081208
 30
0.0
 11
-6.971001
 21
115.181296
 31
0.0
  0
LINE
  8
LY_1
  6
CONTINUOUS
 62
     3
  5
12A
 10
-6.344169
 20
118.072357
 30
0.0
 11
-6.978581
 21
117.776523
 31
0.0
  0
LINE
  8
LY_1
  6
CONTINUOUS
 62
     3
  5
12B
 10
-8.881816
 20
116.889022
 30
0.0
 11
-8.247404
 21
117.184856
 31
0.0
  0
LINE
  8
LY_1
  6
CONTINUOUS
 62
     3
  5
12C
 10
-8.272392
 20
119.572031
 30
0.0
 11
-6.34416
 21
118.072358
 31
0.0
  0
LINE
  8
LY_1
  6
CONTINUOUS
 62
     3
  5
12D
 10
-8.272388
 20
119.572025
 30
0.0
 11
-8.881809
 21
116.889025
 31
0.0
  0
LINE
  8
LY_1
  6
CONTINUOUS
 62
     3
  5
12E
 10
1.870743
 20
129.78064
 30
0.0
 11
1.870743
 21
129.742172
 31
0.0
  0
LINE
  8
LY_1
  6
CONTINUOUS
 62
     3
  5
12F
 10
2.365143
 20
129.824753
 30
0.0
 11
2.365143
 21
129.763168
 31
0.0
  0
LINE
  8
LY_1
  6
CONTINUOUS
 62
     3
  5
130
 10
-0.131714
 20
129.824692
 30
0.0
 11
-0.131714
 21
129.763092
 31
0.0
  0
LINE
  8
LY_1
  6
CONTINUOUS
 62
     3
  5
131
 10
-0.626099
 20
129.780579
 30
0.0
 11
-0.626099
 21
129.742096
 31
0.0
  0
LINE
  8
LY_1
  6
CONTINUOUS
 62
     3
  5
132
 10
-0.979996
 20
129.813492
 30
0.0
 11
-0.979996
 21
128.207886
 31
0.0
  0
LINE
  8
LY_1
  6
CONTINUOUS
 62
     3
  5
133
 10
-1.47438
 20
129.813492
 30
0.0
 11
-1.47438
 21
128.207886
 31
0.0
  0
LINE
  8
LY_1
  6
CONTINUOUS
 62
     3
  5
134
 10
-1.826492
 20
129.780685
 30
0.0
 11
-1.826492
 21
129.763321
 31
0.0
  0
LINE
  8
LY_1
  6
CONTINUOUS
 62
     3
  5
135
 10
-0.131714
 20
129.824692
 30
0.0
 11
0.240372
 21
129.824692
 31
0.0
  0
LINE
  8
LY_1
  6
CONTINUOUS
 62
     3
  5
136
 10
0.734802
 20
129.483109
 30
0.0
 11
1.231613
 21
129.483109
 31
0.0
  0
LINE
  8
LY_1
  6
CONTINUOUS
 62
     3
  5
137
 10
0.734802
 20
129.483109
 30
0.0
 11
0.734802
 21
128.207886
 31
0.0
  0
LINE
  8
LY_1
  6
CONTINUOUS
 62
     3
  5
138
 10
0.240372
 20
129.824692
 30
0.0
 11
0.240372
 21
128.207886
 31
0.0
  0
LINE
  8
LY_1
  6
CONTINUOUS
 62
     3
  5
139
 10
-0.3461
 20
130.060562
 30
0.0
 11
1.231613
 21
130.060562
 31
0.0
  0
LINE
  8
LY_1
  6
CONTINUOUS
 62
     3
  5
13A
 10
2.365143
 20
129.824783
 30
0.0
 11
3.320435
 21
129.824783
 31
0.0
  0
LINE
  8
LY_1
  6
CONTINUOUS
 62
     3
  5
13B
 10
2.079895
 20
127.960678
 30
0.0
 11
3.648743
 21
127.960678
 31
0.0
  0
LINE
  8
LY_1
  6
CONTINUOUS
 62
     3
  5
13C
 10
3.648743
 20
128.538177
 30
0.0
 11
2.77153
 21
128.538177
 31
0.0
  0
LINE
  8
LY_1
  6
CONTINUOUS
 62
     3
  5
13D
 10
3.840814
 20
129.542884
 30
0.0
 11
2.76445
 21
128.556424
 31
0.0
  0
LINE
  8
LY_1
  6
CONTINUOUS
 62
     3
  5
13E
 10
3.32753
 20
129.806534
 30
0.0
 11
1.876423
 21
128.476631
 31
0.0
  0
LINE
  8
LY_1
  6
CONTINUOUS
 62
     3
  5
13F
 10
2.150757
 20
130.060669
 30
0.0
 11
3.639435
 21
130.060669
 31
0.0
  0
LINE
  8
LY_1
  6
CONTINUOUS
 62
     3
  5
140
 10
-2.793853
 20
129.186521
 30
0.0
 11
-2.284706
 21
129.600349
 31
0.0
  0
LINE
  8
LY_1
  6
CONTINUOUS
 62
     3
  5
141
 10
-2.793881
 20
129.186517
 30
0.0
 11
-1.904795
 21
128.46388
 31
0.0
  0
LINE
  8
LY_1
  6
CONTINUOUS
 62
     3
  5
142
 10
-3.432453
 20
129.019251
 30
0.0
 11
-2.214463
 21
130.009218
 31
0.0
  0
LINE
  8
LY_1
  6
CONTINUOUS
 62
     3
  5
143
 10
-3.432461
 20
129.002055
 30
0.0
 11
-2.249118
 21
128.040248
 31
0.0
  0
LINE
  8
LY_1
  6
CONTINUOUS
 62
     3
  5
144
 10
-3.443115
 20
129.813477
 30
0.0
 11
-3.443115
 21
128.20787
 31
0.0
  0
LINE
  8
LY_1
  6
CONTINUOUS
 62
     3
  5
145
 10
-3.937515
 20
129.813477
 30
0.0
 11
-3.937515
 21
128.20787
 31
0.0
  0
LINE
  8
LY_1
  6
CONTINUOUS
 62
     3
  5
146
 10
-8.393782
 20
121.525487
 30
0.0
 11
-8.579266
 21
120.473554
 31
0.0
  0
LINE
  8
LY_1
  6
CONTINUOUS
 62
     3
  5
147
 10
-8.186966
 20
121.48902
 30
0.0
 11
-8.37245
 21
120.437087
 31
0.0
  0
LINE
  8
LY_1
  6
CONTINUOUS
 62
     3
  5
148
 10
-13.709834
 20
112.030685
 30
0.0
 11
-17.186022
 21
112.030685
 31
0.0
  0
LINE
  8
LY_1
  6
CONTINUOUS
 62
     3
  5
149
 10
-17.500003
 20
116.344696
 30
0.0
 11
-17.500003
 21
112.657547
 31
0.0
  0
LINE
  8
LY_1
  6
CONTINUOUS
 62
     3
  5
14A
 10
-13.709834
 20
130.030685
 30
0.0
 11
-17.186022
 21
130.030685
 31
0.0
  0
LINE
  8
LY_1
  6
CONTINUOUS
 62
     3
  5
14B
 10
-17.500001
 20
125.716675
 30
0.0
 11
-17.500001
 21
129.403824
 31
0.0
  0
LINE
  8
LY_1
  6
CONTINUOUS
 62
     3
  5
14C
 10
13.709834
 20
112.030685
 30
0.0
 11
17.18602
 21
112.030685
 31
0.0
  0
LINE
  8
LY_1
  6
CONTINUOUS
 62
     3
  5
14D
 10
17.500001
 20
116.344696
 30
0.0
 11
17.500001
 21
112.657547
 31
0.0
  0
LINE
  8
LY_1
  6
CONTINUOUS
 62
     3
  5
14E
 10
13.709834
 20
130.030685
 30
0.0
 11
17.18602
 21
130.030685
 31
0.0
  0
LINE
  8
LY_1
  6
CONTINUOUS
 62
     3
  5
14F
 10
17.499999
 20
125.716675
 30
0.0
 11
17.499999
 21
129.403824
 31
0.0
  0
LINE
  8
LY_1
  6
CONTINUOUS
 62
     3
  5
150
 10
72.121613
 20
33.0
 30
0.0
 11
72.121613
 21
28.5
 31
0.0
  0
LINE
  8
LY_1
  6
CONTINUOUS
 62
     3
  5
151
 10
72.121613
 20
50.5
 30
0.0
 11
72.121613
 21
40.0
 31
0.0
  0
LINE
  8
LY_1
  6
CONTINUOUS
 62
     3
  5
152
 10
58.621612
 20
28.106295
 30
0.0
 11
85.621612
 21
28.106311
 31
0.0
  0
LINE
  8
LY_1
  6
CONTINUOUS
 62
     3
  5
153
 10
-13.5
 20
28.193787
 30
0.0
 11
13.5
 21
28.193787
 31
0.0
  0
LINE
  8
LY_1
  6
CONTINUOUS
 62
     3
  5
154
 10
61.181795
 20
15.519236
 30
0.0
 11
61.321593
 21
-0.500001
 31
0.0
  0
LINE
  8
LY_1
  6
CONTINUOUS
 62
     3
  5
155
 10
59.121613
 20
23.5
 30
0.0
 11
59.121613
 21
19.0
 31
0.0
  0
LINE
  8
LY_1
  6
CONTINUOUS
 62
     3
  5
156
 10
-11.5
 20
-5.196153
 30
0.0
 11
-17.5
 21
-5.196153
 31
0.0
  0
LINE
  8
LY_1
  6
CONTINUOUS
 62
     3
  5
157
 10
11.5
 20
-5.196153
 30
0.0
 11
17.5
 21
-5.196153
 31
0.0
  0
LINE
  8
LY_1
  6
CONTINUOUS
 62
     3
  5
158
 10
-11.5
 20
5.196153
 30
0.0
 11
-17.5
 21
5.196153
 31
0.0
  0
LINE
  8
LY_1
  6
CONTINUOUS
 62
     3
  5
159
 10
11.5
 20
5.196153
 30
0.0
 11
17.5
 21
5.196153
 31
0.0
  0
LINE
  8
LY_1
  6
CONTINUOUS
 62
     3
  5
15A
 10
63.121616
 20
28.500001
 30
0.0
 11
58.621608
 21
28.106301
 31
0.0
  0
LINE
  8
LY_1
  6
CONTINUOUS
 62
     3
  5
15B
 10
63.121613
 20
33.0
 30
0.0
 11
63.121613
 21
28.5
 31
0.0
  0
LINE
  8
LY_1
  6
CONTINUOUS
 62
     3
  5
15C
 10
64.121613
 20
40.0
 30
0.0
 11
64.121613
 21
34.732056
 31
0.0
  0
LINE
  8
LY_1
  6
CONTINUOUS
 62
     3
  5
15D
 10
58.621613
 20
28.106293
 30
0.0
 11
58.621613
 21
23.5
 31
0.0
  0
LINE
  8
LY_1
  6
CONTINUOUS
 62
     3
  5
15E
 10
81.121614
 20
28.500013
 30
0.0
 11
85.621621
 21
28.106313
 31
0.0
  0
LINE
  8
LY_1
  6
CONTINUOUS
 62
     3
  5
15F
 10
81.121613
 20
33.0
 30
0.0
 11
81.121613
 21
28.5
 31
0.0
  0
LINE
  8
LY_1
  6
CONTINUOUS
 62
     3
  5
160
 10
83.061397
 20
15.519222
 30
0.0
 11
82.921599
 21
-0.5
 31
0.0
  0
LINE
  8
LY_1
  6
CONTINUOUS
 62
   110
  5
161
 10
64.771606
 20
40.0
 30
0.0
 11
64.771606
 21
35.0
 31
0.0
  0
LINE
  8
LY_1
  6
CONTINUOUS
 62
   110
  5
162
 10
79.471619
 20
40.0
 30
0.0
 11
79.471619
 21
35.0
 31
0.0
  0
LINE
  8
LY_1
  6
CONTINUOUS
 62
     3
  5
163
 10
64.121613
 20
35.0
 30
0.0
 11
80.121613
 21
35.0
 31
0.0
  0
LINE
  8
LY_1
  6
CONTINUOUS
 62
     3
  5
164
 10
80.121613
 20
40.0
 30
0.0
 11
80.121613
 21
34.732056
 31
0.0
  0
LINE
  8
LY_1
  6
CONTINUOUS
 62
     3
  5
165
 10
63.121613
 20
33.0
 30
0.0
 11
81.121613
 21
33.0
 31
0.0
  0
LINE
  8
LY_1
  6
CONTINUOUS
 62
     3
  5
166
 10
63.121613
 20
28.5
 30
0.0
 11
81.121613
 21
28.5
 31
0.0
  0
LINE
  8
LY_1
  6
CONTINUOUS
 62
     3
  5
167
 10
61.168884
 20
17.0
 30
0.0
 11
83.074341
 21
17.0
 31
0.0
  0
LINE
  8
LY_1
  6
CONTINUOUS
 62
     3
  5
168
 10
58.621613
 20
23.5
 30
0.0
 11
85.621613
 21
23.5
 31
0.0
  0
LINE
  8
LY_1
  6
CONTINUOUS
 62
     3
  5
169
 10
85.621613
 20
28.106308
 30
0.0
 11
85.621613
 21
23.5
 31
0.0
  0
LINE
  8
LY_1
  6
CONTINUOUS
 62
     3
  5
16A
 10
85.121613
 20
23.5
 30
0.0
 11
85.121613
 21
19.0
 31
0.0
  0
LINE
  8
LY_1
  6
CONTINUOUS
 62
     3
  5
16B
 10
58.621613
 20
26.0
 30
0.0
 11
85.621613
 21
26.0
 31
0.0
  0
LINE
  8
LY_1
  6
CONTINUOUS
 62
     3
  5
16C
 10
63.121615
 20
5.196155
 30
0.0
 11
72.121614
 21
10.392307
 31
0.0
  0
LINE
  8
LY_1
  6
CONTINUOUS
 62
     3
  5
16D
 10
72.121615
 20
-10.392302
 30
0.0
 11
81.121614
 21
-5.19615
 31
0.0
  0
LINE
  8
LY_1
  6
CONTINUOUS
 62
     3
  5
16E
 10
72.121615
 20
10.392302
 30
0.0
 11
81.121614
 21
5.19615
 31
0.0
  0
LINE
  8
LY_1
  6
CONTINUOUS
 62
     3
  5
16F
 10
63.121615
 20
-5.196155
 30
0.0
 11
72.121614
 21
-10.392307
 31
0.0
  0
LINE
  8
LY_1
  6
CONTINUOUS
 62
     3
  5
170
 10
81.121613
 20
5.196153
 30
0.0
 11
81.121613
 21
-5.196153
 31
0.0
  0
LINE
  8
LY_1
  6
CONTINUOUS
 62
     3
  5
171
 10
63.121613
 20
5.196153
 30
0.0
 11
63.121613
 21
-5.196153
 31
0.0
  0
LINE
  8
LY_1
  6
CENTER
 62
   110
  5
173
 10
72.121613
 20
75.0
 30
0.0
 11
72.121613
 21
-16.300003
 31
0.0
  0
LINE
  8
LY_1
  6
CONTINUOUS
 62
   110
  5
174
 10
-7.35
 20
40.0
 30
0.0
 11
-7.35
 21
35.0
 31
0.0
  0
LINE
  8
LY_1
  6
CONTINUOUS
 62
   110
  5
175
 10
7.35
 20
40.0
 30
0.0
 11
7.35
 21
35.0
 31
0.0
  0
LINE
  8
LY_1
  6
CONTINUOUS
 62
     3
  5
176
 10
-15.814385
 20
58.799991
 30
0.0
 11
-15.980614
 21
60.69999
 31
0.0
  0
LINE
  8
LY_1
  6
CENTER
 62
   110
  5
177
 10
0.0
 20
91.03067
 30
0.0
 11
0.0
 21
151.030701
 31
0.0
  0
LINE
  8
LY_1
  6
CONTINUOUS
 62
     3
  5
178
 10
-5.499922
 20
121.03076
 30
0.0
 11
-2.74991
 21
116.26761
 31
0.0
  0
LINE
  8
LY_1
  6
CONTINUOUS
 62
     3
  5
179
 10
5.499936
 20
121.030752
 30
0.0
 11
2.749923
 21
116.267603
 31
0.0
  0
LINE
  8
LY_1
  6
CONTINUOUS
 62
     3
  5
17A
 10
-2.750003
 20
116.267548
 30
0.0
 11
2.749994
 21
116.267548
 31
0.0
  0
LINE
  8
LY_1
  6
CONTINUOUS
 62
     3
  5
17B
 10
-5.500076
 20
121.030736
 30
0.0
 11
-2.750063
 21
125.793886
 31
0.0
  0
LINE
  8
LY_1
  6
CONTINUOUS
 62
     3
  5
17C
 10
5.50009
 20
121.030744
 30
0.0
 11
2.750077
 21
125.793894
 31
0.0
  0
LINE
  8
LY_1
  6
CONTINUOUS
 62
     3
  5
17D
 10
-2.750003
 20
125.793823
 30
0.0
 11
2.749994
 21
125.793823
 31
0.0
  0
LINE
  8
LY_1
  6
CONTINUOUS
 62
     3
  5
17E
 10
-3.282499
 20
108.245464
 30
0.0
 11
-1.658466
 21
110.662618
 31
0.0
  0
LINE
  8
LY_1
  6
CONTINUOUS
 62
     3
  5
17F
 10
12.713685
 20
117.480578
 30
0.0
 11
9.808367
 21
117.282703
 31
0.0
  0
LINE
  8
LY_1
  6
CONTINUOUS
 62
     3
  5
180
 10
-9.431155
 20
130.266207
 30
0.0
 11
-8.149855
 21
127.651176
 31
0.0
  0
LINE
  8
LY_1
  6
CONTINUOUS
 62
     3
  5
181
 10
-9.431253
 20
111.795495
 30
0.0
 11
-8.149966
 21
114.410498
 31
0.0
  0
LINE
  8
LY_1
  6
CONTINUOUS
 62
     3
  5
182
 10
12.713644
 20
124.580573
 30
0.0
 11
9.808331
 21
124.778448
 31
0.0
  0
LINE
  8
LY_1
  6
CONTINUOUS
 62
     3
  5
183
 10
-3.282425
 20
133.816153
 30
0.0
 11
-1.658401
 21
131.399012
 31
0.0
  0
LINE
  8
LY_1
  6
CONTINUOUS
 62
     3
  5
184
 10
-5.291275
 20
102.366128
 30
0.0
 11
-4.34164
 21
104.213848
 31
0.0
  0
LINE
  8
LY_1
  6
CONTINUOUS
 62
     3
  5
185
 10
5.291342
 20
102.366136
 30
0.0
 11
4.341699
 21
104.213869
 31
0.0
  0
LINE
  8
LY_1
  6
CONTINUOUS
 62
     3
  5
186
 10
-5.290968
 20
139.695124
 30
0.0
 11
-4.341333
 21
137.847403
 31
0.0
  0
LINE
  8
LY_1
  6
CONTINUOUS
 62
     3
  5
187
 10
5.290933
 20
139.695119
 30
0.0
 11
4.34129
 21
137.847386
 31
0.0
  0
LINE
  8
LY_1
  6
CONTINUOUS
 62
     3
  5
188
 10
13.518389
 20
107.116007
 30
0.0
 11
12.393034
 21
108.862275
 31
0.0
  0
LINE
  8
LY_1
  6
CONTINUOUS
 62
     3
  5
189
 10
18.809493
 20
116.280705
 30
0.0
 11
16.734488
 21
116.382157
 31
0.0
  0
LINE
  8
LY_1
  6
CONTINUOUS
 62
     3
  5
18A
 10
13.518369
 20
134.945001
 30
0.0
 11
12.393014
 21
133.198733
 31
0.0
  0
LINE
  8
LY_1
  6
CONTINUOUS
 62
     3
  5
18B
 10
18.809472
 20
125.780692
 30
0.0
 11
16.734466
 21
125.67924
 31
0.0
  0
LINE
  8
LY_1
  6
CONTINUOUS
 62
     3
  5
18C
 10
-13.518397
 20
107.115994
 30
0.0
 11
-12.393042
 21
108.862262
 31
0.0
  0
LINE
  8
LY_1
  6
CONTINUOUS
 62
     3
  5
18D
 10
-18.809493
 20
116.280705
 30
0.0
 11
-16.734487
 21
116.382157
 31
0.0
  0
LINE
  8
LY_1
  6
CONTINUOUS
 62
     3
  5
18E
 10
-13.518369
 20
134.945001
 30
0.0
 11
-12.393014
 21
133.198733
 31
0.0
  0
LINE
  8
LY_1
  6
CONTINUOUS
 62
     3
  5
18F
 10
-18.809474
 20
125.780691
 30
0.0
 11
-16.734468
 21
125.679239
 31
0.0
  0
LINE
  8
LY_1
  6
CENTER
 62
   110
  5
190
 10
-30.000015
 20
121.030685
 30
0.0
 11
30.000015
 21
121.030685
 31
0.0
  0
LINE
  8
LY_1
  6
CONTINUOUS
 62
     3
  5
191
 10
67.121613
 20
65.0
 30
0.0
 11
67.121613
 21
63.900009
 31
0.0
  0
LINE
  8
LY_1
  6
CONTINUOUS
 62
     3
  5
192
 10
66.121613
 20
62.900009
 30
0.0
 11
56.91124
 21
62.900009
 31
0.0
  0
LINE
  8
LY_1
  6
CONTINUOUS
 62
     3
  5
193
 10
67.10141
 20
63.699997
 30
0.0
 11
56.003357
 21
63.699997
 31
0.0
  0
LINE
  8
LY_1
  6
CONTINUOUS
 62
     3
  5
194
 10
67.293564
 20
66.300003
 30
0.0
 11
57.91124
 21
66.300003
 31
0.0
  0
LINE
  8
LY_1
  6
CONTINUOUS
 62
     3
  5
195
 10
55.91124
 20
64.300003
 30
0.0
 11
55.91124
 21
63.900009
 31
0.0
  0
LINE
  8
LY_1
  6
CONTINUOUS
 62
     3
  5
196
 10
68.198608
 20
68.100006
 30
0.0
 11
59.924332
 21
68.100006
 31
0.0
  0
LINE
  8
LY_1
  6
CONTINUOUS
 62
     3
  5
197
 10
49.886956
 20
58.800011
 30
0.0
 11
49.720726
 21
60.700011
 31
0.0
  0
LINE
  8
LY_1
  6
CONTINUOUS
 62
     3
  5
198
 10
77.121613
 20
65.0
 30
0.0
 11
77.121613
 21
63.900009
 31
0.0
  0
LINE
  8
LY_1
  6
CONTINUOUS
 62
     3
  5
199
 10
78.121613
 20
62.900009
 30
0.0
 11
87.331985
 21
62.900009
 31
0.0
  0
LINE
  8
LY_1
  6
CONTINUOUS
 62
     3
  5
19A
 10
77.141815
 20
63.699997
 30
0.0
 11
88.239868
 21
63.699997
 31
0.0
  0
LINE
  8
LY_1
  6
CONTINUOUS
 62
     3
  5
19B
 10
76.949661
 20
66.300003
 30
0.0
 11
86.331985
 21
66.300003
 31
0.0
  0
LINE
  8
LY_1
  6
CONTINUOUS
 62
     3
  5
19C
 10
88.331985
 20
64.300003
 30
0.0
 11
88.331985
 21
63.900009
 31
0.0
  0
LINE
  8
LY_1
  6
CONTINUOUS
 62
     3
  5
19D
 10
76.044617
 20
68.100006
 30
0.0
 11
84.318893
 21
68.100006
 31
0.0
  0
LINE
  8
LY_1
  6
CONTINUOUS
 62
     3
  5
19E
 10
94.356292
 20
58.799958
 30
0.0
 11
94.522521
 21
60.699957
 31
0.0
  0
LINE
  8
LY_1
  6
CONTINUOUS
 62
     3
  5
19F
 10
68.121612
 20
50.500001
 30
0.0
 11
68.121612
 21
55.000001
 31
0.0
  0
LINE
  8
LY_1
  6
CONTINUOUS
 62
     3
  5
1A0
 10
76.121612
 20
50.500001
 30
0.0
 11
76.121612
 21
55.000001
 31
0.0
  0
LINE
  8
LY_1
  6
CONTINUOUS
 62
     3
  5
1A1
 10
65.016805
 20
56.999953
 30
0.0
 11
61.899109
 21
58.799956
 31
0.0
  0
LINE
  8
LY_1
  6
CONTINUOUS
 62
     3
  5
1A2
 10
79.226475
 20
57.000021
 30
0.0
 11
82.344172
 21
58.800024
 31
0.0
  0
LINE
  8
LY_1
  6
CONTINUOUS
 62
     3
  5
1A3
 10
49.720718
 20
60.699997
 30
0.0
 11
94.522507
 21
60.699997
 31
0.0
  0
LINE
  8
LY_1
  6
CONTINUOUS
 62
     3
  5
1A4
 10
64.922445
 20
58.800016
 30
0.0
 11
65.121594
 21
55.000024
 31
0.0
  0
LINE
  8
LY_1
  6
CONTINUOUS
 62
     3
  5
1A5
 10
79.320762
 20
58.799981
 30
0.0
 11
79.121613
 21
54.99999
 31
0.0
  0
LINE
  8
LY_1
  6
CONTINUOUS
 62
     3
  5
1A6
 10
49.886948
 20
58.800003
 30
0.0
 11
94.356277
 21
58.800003
 31
0.0
  0
LINE
  8
LY_1
  6
CONTINUOUS
 62
     3
  5
1A7
 10
65.121628
 20
55.0
 30
0.0
 11
79.121628
 21
55.0
 31
0.0
  0
LINE
  8
LY_1
  6
CONTINUOUS
 62
     3
  5
1A8
 10
81.121613
 20
50.5
 30
0.0
 11
81.121613
 21
40.0
 31
0.0
  0
LINE
  8
LY_1
  6
CONTINUOUS
 62
     3
  5
1A9
 10
63.121613
 20
50.5
 30
0.0
 11
63.121613
 21
40.0
 31
0.0
  0
LINE
  8
LY_1
  6
CONTINUOUS
 62
     3
  5
1AA
 10
63.121613
 20
40.0
 30
0.0
 11
81.121613
 21
40.0
 31
0.0
  0
LINE
  8
LY_1
  6
CONTINUOUS
 62
     3
  5
1AB
 10
63.121613
 20
50.5
 30
0.0
 11
81.121613
 21
50.5
 31
0.0
  0
LINE
  8
LY_1
  6
CONTINUOUS
 62
     3
  5
1AC
 10
-15.655567
 20
62.900009
 30
0.0
 11
-17.809495
 21
62.900009
 31
0.0
  0
LINE
  8
LY_1
  6
CONTINUOUS
 62
     3
  5
1AD
 10
-15.501632
 20
63.699997
 30
0.0
 11
-18.717378
 21
63.699997
 31
0.0
  0
LINE
  8
LY_1
  6
CONTINUOUS
 62
     3
  5
1AE
 10
-14.768041
 20
66.300003
 30
0.0
 11
-16.809495
 21
66.300003
 31
0.0
  0
LINE
  8
LY_1
  6
CONTINUOUS
 62
     3
  5
1AF
 10
-18.809495
 20
64.300003
 30
0.0
 11
-18.809495
 21
63.900009
 31
0.0
  0
LINE
  8
LY_1
  6
CONTINUOUS
 62
     3
  5
1B0
 10
-9.790092
 20
64.300003
 30
0.0
 11
-9.790092
 21
63.900009
 31
0.0
  0
LINE
  8
LY_1
  6
CONTINUOUS
 62
     3
  5
1B1
 10
-13.635827
 20
68.100006
 30
0.0
 11
-14.796395
 21
68.100006
 31
0.0
  0
LINE
  8
LY_1
  6
CONTINUOUS
 62
     3
  5
1B2
 10
15.655566
 20
62.900009
 30
0.0
 11
17.809494
 21
62.900009
 31
0.0
  0
LINE
  8
LY_1
  6
CONTINUOUS
 62
     3
  5
1B3
 10
15.501631
 20
63.699997
 30
0.0
 11
18.717377
 21
63.699997
 31
0.0
  0
LINE
  8
LY_1
  6
CONTINUOUS
 62
     3
  5
1B4
 10
14.76804
 20
66.300003
 30
0.0
 11
16.809494
 21
66.300003
 31
0.0
  0
LINE
  8
LY_1
  6
CONTINUOUS
 62
     3
  5
1B5
 10
18.809494
 20
64.300003
 30
0.0
 11
18.809494
 21
63.900009
 31
0.0
  0
LINE
  8
LY_1
  6
CONTINUOUS
 62
     3
  5
1B6
 10
-8.790092
 20
62.900009
 30
0.0
 11
8.790091
 21
62.900009
 31
0.0
  0
LINE
  8
LY_1
  6
CONTINUOUS
 62
     3
  5
1B7
 10
-9.790092
 20
63.699997
 30
0.0
 11
9.697973
 21
63.699997
 31
0.0
  0
LINE
  8
LY_1
  6
CONTINUOUS
 62
     3
  5
1B8
 10
-7.790092
 20
66.300003
 30
0.0
 11
7.790091
 21
66.300003
 31
0.0
  0
LINE
  8
LY_1
  6
CONTINUOUS
 62
     3
  5
1B9
 10
9.790091
 20
64.300003
 30
0.0
 11
9.790091
 21
63.900009
 31
0.0
  0
LINE
  8
LY_1
  6
CONTINUOUS
 62
     3
  5
1BA
 10
13.635826
 20
68.100006
 30
0.0
 11
14.796394
 21
68.100006
 31
0.0
  0
LINE
  8
LY_1
  6
CONTINUOUS
 62
     3
  5
1BB
 10
-5.777001
 20
68.100006
 30
0.0
 11
5.777
 21
68.100006
 31
0.0
  0
LINE
  8
LY_1
  6
CONTINUOUS
 62
     3
  5
1BC
 10
15.814384
 20
58.799991
 30
0.0
 11
15.980614
 21
60.69999
 31
0.0
  0
LINE
  8
LY_1
  6
CONTINUOUS
 62
     3
  5
1BD
 10
24.833785
 20
58.799994
 30
0.0
 11
25.000015
 21
60.699994
 31
0.0
  0
LINE
  8
LY_1
  6
CONTINUOUS
 62
     3
  5
1BE
 10
-4.900006
 20
50.5
 30
0.0
 11
-4.900006
 21
40.0
 31
0.0
  0
LINE
  8
LY_1
  6
CONTINUOUS
 62
     3
  5
1BF
 10
4.900005
 20
50.5
 30
0.0
 11
4.900005
 21
40.0
 31
0.0
  0
LINE
  8
LY_1
  6
CONTINUOUS
 62
     3
  5
1C0
 10
-4.0
 20
50.5
 30
0.0
 11
-4.0
 21
55.0
 31
0.0
  0
LINE
  8
LY_1
  6
CONTINUOUS
 62
     3
  5
1C1
 10
4.0
 20
50.5
 30
0.0
 11
4.0
 21
55.0
 31
0.0
  0
LINE
  8
LY_1
  6
CONTINUOUS
 62
     3
  5
1C2
 10
-7.104862
 20
56.999985
 30
0.0
 11
-10.222559
 21
58.799988
 31
0.0
  0
LINE
  8
LY_1
  6
CONTINUOUS
 62
     3
  5
1C3
 10
7.104849
 20
56.999978
 30
0.0
 11
10.222546
 21
58.799981
 31
0.0
  0
LINE
  8
LY_1
  6
CONTINUOUS
 62
     3
  5
1C4
 10
-25.000003
 20
60.699977
 30
0.0
 11
-24.833774
 21
58.799978
 31
0.0
  0
LINE
  8
LY_1
  6
CONTINUOUS
 62
     3
  5
1C5
 10
-24.999985
 20
60.699997
 30
0.0
 11
25.000015
 21
60.699997
 31
0.0
  0
LINE
  8
LY_1
  6
CONTINUOUS
 62
     3
  5
1C6
 10
-7.199143
 20
58.799999
 30
0.0
 11
-6.999993
 21
55.000008
 31
0.0
  0
LINE
  8
LY_1
  6
CONTINUOUS
 62
     3
  5
1C7
 10
7.199158
 20
58.799999
 30
0.0
 11
7.000009
 21
55.000007
 31
0.0
  0
LINE
  8
LY_1
  6
CONTINUOUS
 62
     3
  5
1C8
 10
-24.833755
 20
58.800003
 30
0.0
 11
24.833786
 21
58.800003
 31
0.0
  0
LINE
  8
LY_1
  6
CONTINUOUS
 62
     3
  5
1C9
 10
-6.999992
 20
55.0
 30
0.0
 11
7.000008
 21
55.0
 31
0.0
  0
LINE
  8
LY_1
  6
CONTINUOUS
 62
     3
  5
1CA
 10
-9.799993
 20
50.5
 30
0.0
 11
-9.799993
 21
40.0
 31
0.0
  0
LINE
  8
LY_1
  6
CONTINUOUS
 62
     3
  5
1CB
 10
9.800008
 20
50.5
 30
0.0
 11
9.800008
 21
40.0
 31
0.0
  0
LINE
  8
LY_1
  6
CONTINUOUS
 62
     3
  5
1CC
 10
-9.799993
 20
40.0
 30
0.0
 11
9.800008
 21
40.0
 31
0.0
  0
LINE
  8
LY_1
  6
CONTINUOUS
 62
     3
  5
1CD
 10
-9.799993
 20
50.5
 30
0.0
 11
9.800008
 21
50.5
 31
0.0
  0
LINE
  8
LY_1
  6
CONTINUOUS
 62
     3
  5
1CE
 10
-5.196153
 20
33.0
 30
0.0
 11
-5.196153
 21
28.5
 31
0.0
  0
LINE
  8
LY_1
  6
CONTINUOUS
 62
     3
  5
1CF
 10
5.196153
 20
33.0
 30
0.0
 11
5.196153
 21
28.5
 31
0.0
  0
LINE
  8
LY_1
  6
CONTINUOUS
 62
     3
  5
1D0
 10
-10.000001
 20
28.500002
 30
0.0
 11
-13.500001
 21
28.193791
 31
0.0
  0
LINE
  8
LY_1
  6
CONTINUOUS
 62
     3
  5
1D1
 10
-10.0
 20
33.0
 30
0.0
 11
-10.0
 21
28.5
 31
0.0
  0
LINE
  8
LY_1
  6
CONTINUOUS
 62
     3
  5
1D2
 10
-8.0
 20
40.0
 30
0.0
 11
-8.0
 21
35.0
 31
0.0
  0
LINE
  8
LY_1
  6
CONTINUOUS
 62
     3
  5
1D3
 10
-13.5
 20
28.193787
 30
0.0
 11
-13.5
 21
23.5
 31
0.0
  0
LINE
  8
LY_1
  6
CONTINUOUS
 62
     3
  5
1D4
 10
-8.0
 20
35.0
 30
0.0
 11
8.0
 21
35.0
 31
0.0
  0
LINE
  8
LY_1
  6
CONTINUOUS
 62
     3
  5
1D5
 10
10.000001
 20
28.500002
 30
0.0
 11
13.500001
 21
28.193791
 31
0.0
  0
LINE
  8
LY_1
  6
CONTINUOUS
 62
     3
  5
1D6
 10
10.0
 20
33.0
 30
0.0
 11
10.0
 21
28.5
 31
0.0
  0
LINE
  8
LY_1
  6
CONTINUOUS
 62
     3
  5
1D7
 10
8.0
 20
40.0
 30
0.0
 11
8.0
 21
35.0
 31
0.0
  0
LINE
  8
LY_1
  6
CONTINUOUS
 62
     3
  5
1D8
 10
-10.0
 20
33.0
 30
0.0
 11
10.0
 21
33.0
 31
0.0
  0
LINE
  8
LY_1
  6
CONTINUOUS
 62
     3
  5
1D9
 10
-10.0
 20
28.5
 30
0.0
 11
10.0
 21
28.5
 31
0.0
  0
LINE
  8
LY_1
  6
CENTER
 62
   110
  5
1DA
 10
56.329529
 20
0.0
 30
0.0
 11
87.913696
 21
0.0
 31
0.0
  0
LINE
  8
LY_1
  6
CONTINUOUS
 62
     3
  5
1DB
 10
-10.5
 20
14.401924
 30
0.0
 11
-10.5
 21
6.566154
 31
0.0
  0
LINE
  8
LY_1
  6
CONTINUOUS
 62
     3
  5
1DC
 10
-11.499996
 20
16.133973
 30
0.0
 11
-11.999993
 21
16.422646
 31
0.0
  0
LINE
  8
LY_1
  6
CONTINUOUS
 62
     3
  5
1DD
 10
-13.0
 20
23.5
 30
0.0
 11
-13.0
 21
18.154694
 31
0.0
  0
LINE
  8
LY_1
  6
CONTINUOUS
 62
     3
  5
1DE
 10
-12.5
 20
10.1
 30
0.0
 11
-17.5
 21
10.1
 31
0.0
  0
LINE
  8
LY_1
  6
CONTINUOUS
 62
     3
  5
1DF
 10
-11.369179
 20
-9.611771
 30
0.0
 11
-11.5
 21
-10.1
 31
0.0
  0
LINE
  8
LY_1
  6
CONTINUOUS
 62
     3
  5
1E0
 10
-11.5
 20
-10.1
 30
0.0
 11
-17.5
 21
-10.1
 31
0.0
  0
LINE
  8
LY_1
  6
CONTINUOUS
 62
     3
  5
1E1
 10
-11.5
 20
10.1
 30
0.0
 11
-11.5
 21
-10.1
 31
0.0
  0
LINE
  8
LY_1
  6
CONTINUOUS
 62
     3
  5
1E2
 10
-17.5
 20
10.1
 30
0.0
 11
-17.5
 21
-10.1
 31
0.0
  0
LINE
  8
LY_1
  6
CONTINUOUS
 62
     3
  5
1E3
 10
10.5
 20
14.401924
 30
0.0
 11
10.5
 21
6.566154
 31
0.0
  0
LINE
  8
LY_1
  6
CONTINUOUS
 62
     3
  5
1E4
 10
11.499996
 20
16.133973
 30
0.0
 11
11.999993
 21
16.422646
 31
0.0
  0
LINE
  8
LY_1
  6
CONTINUOUS
 62
     3
  5
1E5
 10
-10.999999
 20
17.0
 30
0.0
 11
10.999999
 21
17.0
 31
0.0
  0
LINE
  8
LY_1
  6
CONTINUOUS
 62
     3
  5
1E6
 10
-13.5
 20
23.5
 30
0.0
 11
13.5
 21
23.5
 31
0.0
  0
LINE
  8
LY_1
  6
CONTINUOUS
 62
     3
  5
1E7
 10
13.5
 20
28.193787
 30
0.0
 11
13.5
 21
23.5
 31
0.0
  0
LINE
  8
LY_1
  6
CONTINUOUS
 62
     3
  5
1E8
 10
13.0
 20
23.5
 30
0.0
 11
13.0
 21
18.154694
 31
0.0
  0
LINE
  8
LY_1
  6
CONTINUOUS
 62
     3
  5
1E9
 10
-13.5
 20
26.0
 30
0.0
 11
13.5
 21
26.0
 31
0.0
  0
LINE
  8
LY_1
  6
CONTINUOUS
 62
     3
  5
1EA
 10
12.5
 20
10.1
 30
0.0
 11
17.5
 21
10.1
 31
0.0
  0
LINE
  8
LY_1
  6
CONTINUOUS
 62
     3
  5
1EB
 10
-6.184243
 20
-11.3
 30
0.0
 11
6.184243
 21
-11.3
 31
0.0
  0
LINE
  8
LY_1
  6
CONTINUOUS
 62
     3
  5
1EC
 10
11.369179
 20
-9.611771
 30
0.0
 11
11.5
 21
-10.1
 31
0.0
  0
LINE
  8
LY_1
  6
CONTINUOUS
 62
     3
  5
1ED
 10
11.5
 20
-10.1
 30
0.0
 11
17.5
 21
-10.1
 31
0.0
  0
LINE
  8
LY_1
  6
CONTINUOUS
 62
     3
  5
1EE
 10
11.5
 20
10.1
 30
0.0
 11
11.5
 21
-10.1
 31
0.0
  0
LINE
  8
LY_1
  6
CONTINUOUS
 62
     3
  5
1EF
 10
17.5
 20
10.1
 30
0.0
 11
17.5
 21
-10.1
 31
0.0
  0
LINE
  8
LY_1
  6
CENTER
 62
   110
  5
1F0
 10
0.0
 20
75.0
 30
0.0
 11
0.0
 21
-16.300003
 31
0.0
  0
LINE
  8
LY_1
  6
CENTER
 62
   110
  5
1F1
 10
-22.5
 20
0.0
 30
0.0
 11
22.5
 21
0.0
 31
0.0
  0
ENDSEC
  0
EOF
