  0
SECTION
  2
HEADER
  9
$ACADVER
  1
AC1009
  9
$DWGCODEPAGE
  3
dos932
  9
$INSBASE
 10
0.0
 20
0.0
 30
0.0
  9
$EXTMIN
 10
-30.000015
 20
-65.864703
 30
0.0
  9
$EXTMAX
 10
104.522518
 20
163.030701
 30
0.0
  9
$LIMMIN
 10
-30.000015
 20
-65.864703
  9
$LIMMAX
 10
104.522518
 20
163.030701
  9
$ORTHOMODE
 70
     0
  9
$REGENMODE
 70
     1
  9
$FILLMODE
 70
     1
  9
$QTEXTMODE
 70
     0
  9
$MIRRTEXT
 70
     1
  9
$DRAGMODE
 70
     2
  9
$LTSCALE
 40
1.0
  9
$OSMODE
 70
     0
  9
$ATTMODE
 70
     1
  9
$TEXTSIZE
 40
3.3
  9
$TRACEWID
 40
0.05
  9
$TEXTSTYLE
  7
MX_NOTE_STANDARD
  9
$CLAYER
  8
LY_1
  9
$CELTYPE
  6
CONTINUOUS
  9
$CECOLOR
 62
   256
  9
$DIMSCALE
 40
1.0
  9
$DIMASZ
 40
2.5
  9
$DIMEXO
 40
0.0
  9
$DIMDLI
 40
3.75
  9
$DIMRND
 40
0.0
  9
$DIMDLE
 40
0.0
  9
$DIMEXE
 40
1.1938
  9
$DIMTP
 40
0.0
  9
$DIMTM
 40
0.0
  9
$DIMTXT
 40
3.3
  9
$DIMCEN
 40
2.5
  9
$DIMTSZ
 40
0.0
  9
$DIMTOL
 70
     0
  9
$DIMLIM
 70
     0
  9
$DIMTIH
 70
     0
  9
$DIMTOH
 70
     0
  9
$DIMSE1
 70
     0
  9
$DIMSE2
 70
     0
  9
$DIMTAD
 70
     1
  9
$DIMZIN
 70
     8
  9
$DIMBLK
  1

  9
$DIMASO
 70
     1
  9
$DIMSHO
 70
     1
  9
$DIMPOST
  1

  9
$DIMAPOST
  1

  9
$DIMALT
 70
     0
  9
$DIMALTD
 70
     4
  9
$DIMALTF
 40
0.03937
  9
$DIMLFAC
 40
1.0
  9
$DIMTOFL
 70
     1
  9
$DIMTVP
 40
0.0
  9
$DIMTIX
 70
     0
  9
$DIMSOXD
 70
     0
  9
$DIMSAH
 70
     1
  9
$DIMBLK1
  1
_OPEN30
  9
$DIMBLK2
  1
_OPEN30
  9
$DIMSTYLE
  2
MXDIMSTYLE
  9
$DIMCLRD
 70
     0
  9
$DIMCLRE
 70
     0
  9
$DIMCLRT
 70
     0
  9
$DIMTFAC
 40
1.0
  9
$DIMGAP
 40
1.0
  9
$LUNITS
 70
     2
  9
$LUPREC
 70
     4
  9
$AXISMODE
 70
     0
  9
$AXISUNIT
 10
0.0
 20
0.0
  9
$SKETCHINC
 40
0.1
  9
$FILLETRAD
 40
0.0
  9
$AUNITS
 70
     0
  9
$AUPREC
 70
     0
  9
$MENU
  1
acad
  9
$ELEVATION
 40
0.0
  9
$PELEVATION
 40
0.0
  9
$THICKNESS
 40
0.0
  9
$LIMCHECK
 70
     0
  9
$BLIPMODE
 70
     1
  9
$CHAMFERA
 40
0.0
  9
$CHAMFERB
 40
0.0
  9
$SKPOLY
 70
     0
  9
$TDCREATE
 40
2454342.389594907
  9
$TDUPDATE
 40
2454342.389594907
  9
$TDINDWG
 40
0.0000000000
  9
$TDUSRTIMER
 40
0.0000000000
  9
$USRTIMER
 70
     1
  9
$ANGBASE
 50
0.0
  9
$ANGDIR
 70
     0
  9
$PDMODE
 70
     0
  9
$PDSIZE
 40
0.0
  9
$PLINEWID
 40
0.0
  9
$COORDS
 70
     1
  9
$SPLFRAME
 70
     0
  9
$SPLINETYPE
 70
     6
  9
$SPLINESEGS
 70
     8
  9
$ATTDIA
 70
     0
  9
$ATTREQ
 70
     1
  9
$HANDLING
 70
     1
  9
$HANDSEED
  5
256
  9
$SURFTAB1
 70
     6
  9
$SURFTAB2
 70
     6
  9
$SURFTYPE
 70
     6
  9
$SURFU
 70
     6
  9
$SURFV
 70
     6
  9
$UCSNAME
  2

  9
$UCSORG
 10
0.0
 20
0.0
 30
0.0
  9
$UCSXDIR
 10
1.0
 20
0.0
 30
0.0
  9
$UCSYDIR
 10
0.0
 20
1.0
 30
0.0
  9
$PUCSNAME
  2

  9
$PUCSORG
 10
0.0
 20
0.0
 30
0.0
  9
$PUCSXDIR
 10
1.0
 20
0.0
 30
0.0
  9
$PUCSYDIR
 10
0.0
 20
1.0
 30
0.0
  9
$USERI1
 70
     0
  9
$USERI2
 70
     0
  9
$USERI3
 70
     0
  9
$USERI4
 70
     0
  9
$USERI5
 70
     0
  9
$USERR1
 40
0.0
  9
$USERR2
 40
0.0
  9
$USERR3
 40
0.0
  9
$USERR4
 40
0.0
  9
$USERR5
 40
0.0
  9
$WORLDVIEW
 70
     1
  9
$SHADEDGE
 70
     3
  9
$SHADEDIF
 70
    70
  9
$TILEMODE
 70
     1
  9
$MAXACTVP
 70
    16
  9
$PINSBASE
 10
0.0
 20
0.0
 30
0.0
  9
$PLIMCHECK
 70
     0
  9
$PEXTMIN
 10
1.000000E+20
 20
1.000000E+20
 30
1.000000E+20
  9
$PEXTMAX
 10
-1.000000E+20
 20
-1.000000E+20
 30
-1.000000E+20
  9
$PLIMMIN
 10
0.0
 20
0.0
  9
$PLIMMAX
 10
12.0
 20
9.0
  9
$UNITMODE
 70
     0
  9
$VISRETAIN
 70
     0
  9
$PLINEGEN
 70
     1
  9
$PSLTSCALE
 70
     0
  9
$TREEDEPTH
 70
  3020
  0
ENDSEC
  0
SECTION
  2
TABLES
  0
TABLE
  2
VPORT
 70
     1
  0
VPORT
  2
*ACTIVE
 70
     0
 10
0.0
 20
0.0
 11
1.0
 21
1.0
 12
37.261252
 22
48.582999
 13
0.0
 23
0.0
 14
1.0
 24
1.0
 15
0.0
 25
0.0
 16
0.0
 26
0.0
 36
1.0
 17
0.0
 27
0.0
 37
0.0
 40
231.184357
 41
1.732051
 42
50.0
 43
0.0
 44
0.0
 50
0.0
 51
0.0
 71
     0
 72
   100
 73
     1
 74
     1
 75
     0
 76
     0
 77
     0
 78
     0
  0
ENDTAB
  0
TABLE
  2
LTYPE
 70
     3
  0
LTYPE
  2
CONTINUOUS
 70
    64
  3
Solid line
 72
    65
 73
     0
 40
0.0
  0
LTYPE
  2
PHANTOM
 70
    64
  3
Phantom ______  __  __  ______  __  __  ______
 72
    65
 73
     6
 40
63.5
 49
31.75
 49
-6.35
 49
6.35
 49
-6.35
 49
6.35
 49
-6.35
  0
LTYPE
  2
CENTER
 70
    64
  3
Center ____ _ ____ _ ____ _ ____ _ ____ _ ____
 72
    65
 73
     4
 40
50.8
 49
31.75
 49
-6.35
 49
6.35
 49
-6.35
  0
ENDTAB
  0
TABLE
  2
LAYER
 70
     3
  0
LAYER
  2
0
 70
     0
 62
     7
  6
CONTINUOUS
  0
LAYER
  2
LY_1
 70
     0
 62
     7
  6
CONTINUOUS
  0
LAYER
  2
DEFPOINTS
 70
     0
 62
     7
  6
CONTINUOUS
  0
ENDTAB
  0
TABLE
  2
STYLE
 70
     2
  0
STYLE
  2
MX_NOTE_STANDARD
 70
     0
 40
0.0
 41
1.0
 50
0.0
 71
     0
 42
3.3
  3
txt.shx
  4
extfont.shx
  0
STYLE
  2
MX_DIMTXSTY_2
 70
     0
 40
0.0
 41
0.85
 50
0.0
 71
     0
 42
3.3
  3
txt.shx
  4
extfont.shx
  0
ENDTAB
  0
TABLE
  2
VIEW
 70
     0
  0
ENDTAB
  0
TABLE
  2
UCS
 70
     0
  0
ENDTAB
  0
TABLE
  2
APPID
 70
     1
  0
APPID
  2
ACAD
 70
     0
  0
ENDTAB
  0
TABLE
  2
DIMSTYLE
 70
     1
  0
DIMSTYLE
  2
MXDIMSTYLE
 70
     0
  3

  4

  5

  6
_OPEN30
  7
_OPEN30
 40
1.0
 41
2.5
 42
0.0
 43
3.75
 44
1.1938
 45
0.0
 46
0.0
 47
0.0
 48
0.0
 71
     0
 72
     0
 73
     0
 74
     0
 75
     0
 76
     0
 77
     1
 78
     8
140
3.3
141
2.5
142
0.0
143
0.03937
144
1.0
145
0.0
146
1.0
147
1.0
170
     0
171
     4
172
     1
173
     1
174
     0
175
     0
176
     0
177
     0
178
     0
  0
ENDTAB
  0
ENDSEC
  0
SECTION
  2
BLOCKS
  0
BLOCK
  8
0
  6
BYBLOCK
 62
     0
  5
20
  2
_OPEN30
 70
     2
 10
0.0
 20
0.0
 30
0.0
  3
_OPEN30
  0
LINE
  8
0
  6
BYBLOCK
 62
     0
  5
21
 10
-1.0
 20
0.267949
 30
0.0
 11
0.0
 21
0.0
 31
0.0
  0
LINE
  8
0
  6
BYBLOCK
 62
     0
  5
22
 10
0.0
 20
0.0
 30
0.0
 11
-1.0
 21
-0.267949
 31
0.0
  0
LINE
  8
0
  6
BYBLOCK
 62
     0
  5
23
 10
0.0
 20
0.0
 30
0.0
 11
-1.0
 21
0.0
 31
0.0
  0
ENDBLK
  8
0
  6
BYBLOCK
 62
     0
  5
24
  0
BLOCK
  8
0
  6
BYBLOCK
 62
     0
  5
26
  2
*D1
 70
     1
 10
0.0
 20
0.0
 30
0.0
  3
*D1
  0
LINE
  8
0
  6
CONTINUOUS
 62
     7
  5
27
 10
-24.999985
 20
92.0
 30
0.0
 11
25.000015
 21
92.0
 31
0.0
  0
LINE
  8
0
  6
CONTINUOUS
 62
     7
  5
28
 10
-24.999985
 20
69.699997
 30
0.0
 11
-24.999985
 21
93.193787
 31
0.0
  0
LINE
  8
0
  6
CONTINUOUS
 62
     7
  5
29
 10
25.000015
 20
69.699997
 30
0.0
 11
25.000015
 21
93.193787
 31
0.0
  0
INSERT
  8
0
  6
CONTINUOUS
 62
     7
  5
30
  2
_OPEN
 10
-24.999985
 20
92.0
 30
0.0
 41
2.19
 42
2.19
 50
180.0
 43
2.19
  0
INSERT
  8
0
  6
CONTINUOUS
 62
     7
  5
31
  2
_OPEN
 10
25.000015
 20
92.0
 30
0.0
 41
2.19
 42
2.19
 43
2.19
  0
TEXT
  8
0
  6
CONTINUOUS
 62
     7
  5
33
 10
-3.607164
 20
93.0
 30
0.0
 40
3.3
  1
%%c50
 41
0.995329
  7
MX_DIMTXSTY_2
 11
-3.607164
 21
94.65
 31
0.0
 73
     2
  0
POINT
  8
DEFPOINTS
  6
CONTINUOUS
 62
     0
  5
34
 10
-24.999985
 20
69.699997
 30
0.0
  0
POINT
  8
DEFPOINTS
  6
CONTINUOUS
 62
     0
  5
35
 10
25.000015
 20
69.699997
 30
0.0
  0
POINT
  8
DEFPOINTS
  6
CONTINUOUS
 62
     0
  5
36
 10
25.000015
 20
92.0
 30
0.0
  0
ENDBLK
  8
0
  6
BYBLOCK
 62
     0
  5
37
  0
BLOCK
  8
0
  6
BYBLOCK
 62
     0
  5
2B
  2
_OPEN
 70
     2
 10
0.0
 20
0.0
 30
0.0
  3
_OPEN
  0
LINE
  8
0
  6
BYBLOCK
 62
     0
  5
2C
 10
-1.0
 20
0.166667
 30
0.0
 11
0.0
 21
0.0
 31
0.0
  0
LINE
  8
0
  6
BYBLOCK
 62
     0
  5
2D
 10
0.0
 20
0.0
 30
0.0
 11
-1.0
 21
-0.166667
 31
0.0
  0
LINE
  8
0
  6
BYBLOCK
 62
     0
  5
2E
 10
0.0
 20
0.0
 30
0.0
 11
-1.0
 21
0.0
 31
0.0
  0
ENDBLK
  8
0
  6
BYBLOCK
 62
     0
  5
2F
  0
BLOCK
  8
0
  6
BYBLOCK
 62
     0
  5
3A
  2
*D3
 70
     1
 10
0.0
 20
0.0
 30
0.0
  3
*D3
  0
LINE
  8
0
  6
CONTINUOUS
 62
     7
  5
3B
 10
34.0
 20
79.0
 30
0.0
 11
34.0
 21
0.0
 31
0.0
  0
LINE
  8
0
  6
CONTINUOUS
 62
     7
  5
3C
 10
18.719406
 20
79.0
 30
0.0
 11
35.193787
 21
79.0
 31
0.0
  0
LINE
  8
0
  6
CONTINUOUS
 62
     7
  5
3D
 10
26.0
 20
0.0
 30
0.0
 11
35.193787
 21
0.0
 31
0.0
  0
INSERT
  8
0
  6
CONTINUOUS
 62
     7
  5
3E
  2
_OPEN
 10
34.0
 20
79.0
 30
0.0
 41
2.19
 42
2.19
 50
90.0
 43
2.19
  0
INSERT
  8
0
  6
CONTINUOUS
 62
     7
  5
3F
  2
_OPEN
 10
34.0
 20
0.0
 30
0.0
 41
2.19
 42
2.19
 50
270.0
 43
2.19
  0
TEXT
  8
0
  6
CONTINUOUS
 62
     7
  5
40
 10
33.0
 20
37.273346
 30
0.0
 40
3.3
  1
73
 50
90.0
 41
0.98743
  7
MX_DIMTXSTY_2
 11
31.35
 21
37.273346
 31
0.0
 73
     2
  0
POINT
  8
DEFPOINTS
  6
CONTINUOUS
 62
     0
  5
41
 10
18.719406
 20
79.0
 30
0.0
  0
POINT
  8
DEFPOINTS
  6
CONTINUOUS
 62
     0
  5
42
 10
26.0
 20
0.0
 30
0.0
  0
POINT
  8
DEFPOINTS
  6
CONTINUOUS
 62
     0
  5
43
 10
34.0
 20
0.0
 30
0.0
  0
ENDBLK
  8
0
  6
BYBLOCK
 62
     0
  5
44
  0
BLOCK
  8
0
  6
BYBLOCK
 62
     0
  5
47
  2
*D4
 70
     1
 10
0.0
 20
0.0
 30
0.0
  3
*D4
  0
LINE
  8
0
  6
CONTINUOUS
 62
     7
  5
48
 10
21.0
 20
-28.75
 30
0.0
 11
-21.0
 21
-28.75
 31
0.0
  0
LINE
  8
0
  6
CONTINUOUS
 62
     7
  5
49
 10
21.0
 20
-15.7
 30
0.0
 11
21.0
 21
-29.943787
 31
0.0
  0
LINE
  8
0
  6
CONTINUOUS
 62
     7
  5
4A
 10
-21.0
 20
-15.7
 30
0.0
 11
-21.0
 21
-29.943787
 31
0.0
  0
INSERT
  8
0
  6
CONTINUOUS
 62
     7
  5
4B
  2
_OPEN
 10
21.0
 20
-28.75
 30
0.0
 41
2.19
 42
2.19
 43
2.19
  0
INSERT
  8
0
  6
CONTINUOUS
 62
     7
  5
4C
  2
_OPEN
 10
-21.0
 20
-28.75
 30
0.0
 41
2.19
 42
2.19
 50
180.0
 43
2.19
  0
TEXT
  8
0
  6
CONTINUOUS
 62
     7
  5
4D
 10
-2.226654
 20
-27.75
 30
0.0
 40
3.3
  1
42
 41
0.98743
  7
MX_DIMTXSTY_2
 11
-2.226654
 21
-26.1
 31
0.0
 73
     2
  0
POINT
  8
DEFPOINTS
  6
CONTINUOUS
 62
     0
  5
4E
 10
21.0
 20
-15.7
 30
0.0
  0
POINT
  8
DEFPOINTS
  6
CONTINUOUS
 62
     0
  5
4F
 10
-21.0
 20
-15.7
 30
0.0
  0
POINT
  8
DEFPOINTS
  6
CONTINUOUS
 62
     0
  5
50
 10
-21.0
 20
-28.75
 30
0.0
  0
ENDBLK
  8
0
  6
BYBLOCK
 62
     0
  5
51
  0
ENDSEC
  0
SECTION
  2
ENTITIES
  0
DIMENSION
  8
LY_1
  6
CONTINUOUS
 62
     7
  5
38
  2
*D1
 10
25.000015
 20
92.0
 30
0.0
 11
0.000015
 21
92.0
 31
0.0
 70
   128
  1
%%c<>
 13
-24.999985
 23
69.699997
 33
0.0
 14
25.000015
 24
69.699997
 34
0.0
  3
MXDIMSTYLE
1001
ACAD
1000
DSTYLE
1002
{
1070
     6
1000
_OPEN
1070
     7
1000
_OPEN
1070
    41
1040
2.19
1070
    44
1040
1.193787
1070
   271
1070
     0
1070
   284
1070
     8
1070
   340
1005
32
1002
}
  0
DIMENSION
  8
LY_1
  6
CONTINUOUS
 62
     7
  5
45
  2
*D3
 10
34.0
 20
0.0
 30
0.0
 11
34.0
 21
39.5
 31
0.0
 70
   128
  1
73
 13
18.719406
 23
79.0
 33
0.0
 14
26.0
 24
0.0
 34
0.0
 50
90.0
  3
MXDIMSTYLE
1001
ACAD
1000
DSTYLE
1002
{
1070
     6
1000
_OPEN
1070
     7
1000
_OPEN
1070
    41
1040
2.19
1070
    44
1040
1.193787
1070
    78
1070
     0
1070
   271
1070
     0
1070
   340
1005
32
1002
}
  0
DIMENSION
  8
LY_1
  6
CONTINUOUS
 62
     7
  5
52
  2
*D4
 10
-21.0
 20
-28.75
 30
0.0
 11
0.0
 21
-28.75
 31
0.0
 70
   128
  1
<>
 13
21.0
 23
-15.7
 33
0.0
 14
-21.0
 24
-15.7
 34
0.0
  3
MXDIMSTYLE
1001
ACAD
1000
DSTYLE
1002
{
1070
     6
1000
_OPEN
1070
     7
1000
_OPEN
1070
    41
1040
2.19
1070
    44
1040
1.193787
1070
   271
1070
     0
1070
   284
1070
     8
1070
   340
1005
32
1002
}
  0
TEXT
  8
LY_1
  6
CONTINUOUS
 62
     7
  5
53
 10
-27.054859
 20
-48.833591
 30
0.0
 40
4.167181
  1
      GATE VALVE  1/2
 41
0.990528
  7
MX_NOTE_STANDARD
 11
-27.054859
 21
-46.75
 31
0.0
 73
     2
  0
TEXT
  8
LY_1
  6
CONTINUOUS
 62
     7
  5
54
 10
-27.109061
 20
-64.833591
 30
0.0
 40
4.167181
  1
KITZ
 41
0.912486
  7
MX_NOTE_STANDARD
 11
-27.109061
 21
-62.75
 31
0.0
 73
     2
  0
TEXT
  8
LY_1
  6
CONTINUOUS
 62
     7
  5
55
 10
-27.043142
 20
-56.833591
 30
0.0
 40
4.167181
  1
FIG   FH1/2
 41
1.007398
  7
MX_NOTE_STANDARD
 11
-27.043142
 21
-54.75
 31
0.0
 73
     2
  0
TEXT
  8
LY_1
  6
CONTINUOUS
 62
     7
  5
56
 10
-27.109061
 20
-40.833591
 30
0.0
 40
4.167181
  1
NAME  CLASS 125 FORGED BRASS
 41
0.912486
  7
MX_NOTE_STANDARD
 11
-27.109061
 21
-38.75
 31
0.0
 73
     2
  0
POLYLINE
  8
LY_1
  6
CONTINUOUS
 62
     7
  5
57
 66
     1
 10
0.0
 20
0.0
 30
0.0
  0
VERTEX
  8
LY_1
  6
CONTINUOUS
 62
     7
  5
20B
 10
-0.772527
 20
1.382266
 30
0.0
  0
VERTEX
  8
LY_1
  6
CONTINUOUS
 62
     7
  5
20C
 10
-0.774171
 20
1.384131
 30
0.0
  0
VERTEX
  8
LY_1
  6
CONTINUOUS
 62
     7
  5
20D
 10
-0.776049
 20
1.385748
 30
0.0
  0
VERTEX
  8
LY_1
  6
CONTINUOUS
 62
     7
  5
20E
 10
-0.778127
 20
1.387086
 30
0.0
  0
VERTEX
  8
LY_1
  6
CONTINUOUS
 62
     7
  5
20F
 10
-0.780365
 20
1.38812
 30
0.0
  0
VERTEX
  8
LY_1
  6
CONTINUOUS
 62
     7
  5
210
 10
-0.782721
 20
1.388831
 30
0.0
  0
VERTEX
  8
LY_1
  6
CONTINUOUS
 62
     7
  5
211
 10
-0.785149
 20
1.389205
 30
0.0
  0
VERTEX
  8
LY_1
  6
CONTINUOUS
 62
     7
  5
212
 10
-0.787606
 20
1.389235
 30
0.0
  0
VERTEX
  8
LY_1
  6
CONTINUOUS
 62
     7
  5
213
 10
-0.790042
 20
1.388921
 30
0.0
  0
VERTEX
  8
LY_1
  6
CONTINUOUS
 62
     7
  5
214
 10
-0.792414
 20
1.388268
 30
0.0
  0
VERTEX
  8
LY_1
  6
CONTINUOUS
 62
     7
  5
215
 10
-0.794675
 20
1.387288
 30
0.0
  0
VERTEX
  8
LY_1
  6
CONTINUOUS
 62
     7
  5
216
 10
-0.796784
 20
1.386001
 30
0.0
  0
VERTEX
  8
LY_1
  6
CONTINUOUS
 62
     7
  5
217
 10
-0.7987
 20
1.384431
 30
0.0
  0
VERTEX
  8
LY_1
  6
CONTINUOUS
 62
     7
  5
218
 10
-0.800386
 20
1.382607
 30
0.0
  0
VERTEX
  8
LY_1
  6
CONTINUOUS
 62
     7
  5
219
 10
-0.801812
 20
1.380563
 30
0.0
  0
VERTEX
  8
LY_1
  6
CONTINUOUS
 62
     7
  5
21A
 10
-0.80295
 20
1.378339
 30
0.0
  0
VERTEX
  8
LY_1
  6
CONTINUOUS
 62
     7
  5
21B
 10
-0.803779
 20
1.375977
 30
0.0
  0
VERTEX
  8
LY_1
  6
CONTINUOUS
 62
     7
  5
21C
 10
-0.804282
 20
1.373521
 30
0.0
  0
VERTEX
  8
LY_1
  6
CONTINUOUS
 62
     7
  5
21D
 10
-0.804451
 20
1.371017
 30
0.0
  0
VERTEX
  8
LY_1
  6
CONTINUOUS
 62
     7
  5
21E
 10
-0.804451
 20
1.371017
 30
0.0
  0
SEQEND
  8
LY_1
  6
CONTINUOUS
 62
     7
  5
21F
  0
POLYLINE
  8
LY_1
  6
CONTINUOUS
 62
     7
  5
58
 66
     1
 10
0.0
 20
0.0
 30
0.0
  0
VERTEX
  8
LY_1
  6
CONTINUOUS
 62
     7
  5
220
 10
1.354193
 20
0.24046
 30
0.0
  0
VERTEX
  8
LY_1
  6
CONTINUOUS
 62
     7
  5
221
 10
1.355949
 20
0.238485
 30
0.0
  0
VERTEX
  8
LY_1
  6
CONTINUOUS
 62
     7
  5
222
 10
1.357969
 20
0.236792
 30
0.0
  0
VERTEX
  8
LY_1
  6
CONTINUOUS
 62
     7
  5
223
 10
1.360208
 20
0.235419
 30
0.0
  0
VERTEX
  8
LY_1
  6
CONTINUOUS
 62
     7
  5
224
 10
1.36262
 20
0.234394
 30
0.0
  0
VERTEX
  8
LY_1
  6
CONTINUOUS
 62
     7
  5
225
 10
1.365152
 20
0.233739
 30
0.0
  0
VERTEX
  8
LY_1
  6
CONTINUOUS
 62
     7
  5
226
 10
1.367751
 20
0.233469
 30
0.0
  0
VERTEX
  8
LY_1
  6
CONTINUOUS
 62
     7
  5
227
 10
1.37036
 20
0.233589
 30
0.0
  0
VERTEX
  8
LY_1
  6
CONTINUOUS
 62
     7
  5
228
 10
1.372925
 20
0.234096
 30
0.0
  0
VERTEX
  8
LY_1
  6
CONTINUOUS
 62
     7
  5
229
 10
1.375389
 20
0.23498
 30
0.0
  0
VERTEX
  8
LY_1
  6
CONTINUOUS
 62
     7
  5
22A
 10
1.377701
 20
0.236222
 30
0.0
  0
VERTEX
  8
LY_1
  6
CONTINUOUS
 62
     7
  5
22B
 10
1.379811
 20
0.237795
 30
0.0
  0
VERTEX
  8
LY_1
  6
CONTINUOUS
 62
     7
  5
22C
 10
1.381674
 20
0.239666
 30
0.0
  0
VERTEX
  8
LY_1
  6
CONTINUOUS
 62
     7
  5
22D
 10
1.38325
 20
0.241794
 30
0.0
  0
VERTEX
  8
LY_1
  6
CONTINUOUS
 62
     7
  5
22E
 10
1.384505
 20
0.244135
 30
0.0
  0
VERTEX
  8
LY_1
  6
CONTINUOUS
 62
     7
  5
22F
 10
1.385412
 20
0.246637
 30
0.0
  0
VERTEX
  8
LY_1
  6
CONTINUOUS
 62
     7
  5
230
 10
1.385953
 20
0.249248
 30
0.0
  0
VERTEX
  8
LY_1
  6
CONTINUOUS
 62
     7
  5
231
 10
1.386075
 20
0.250476
 30
0.0
  0
VERTEX
  8
LY_1
  6
CONTINUOUS
 62
     7
  5
232
 10
1.386116
 20
0.251709
 30
0.0
  0
SEQEND
  8
LY_1
  6
CONTINUOUS
 62
     7
  5
233
  0
POLYLINE
  8
LY_1
  6
CONTINUOUS
 62
     7
  5
59
 66
     1
 10
0.0
 20
0.0
 30
0.0
  0
VERTEX
  8
LY_1
  6
CONTINUOUS
 62
     7
  5
234
 10
0.014608
 20
13.973955
 30
0.0
  0
VERTEX
  8
LY_1
  6
CONTINUOUS
 62
     7
  5
235
 10
0.01307
 20
13.975892
 30
0.0
  0
VERTEX
  8
LY_1
  6
CONTINUOUS
 62
     7
  5
236
 10
0.011287
 20
13.977597
 30
0.0
  0
VERTEX
  8
LY_1
  6
CONTINUOUS
 62
     7
  5
237
 10
0.009294
 20
13.979038
 30
0.0
  0
VERTEX
  8
LY_1
  6
CONTINUOUS
 62
     7
  5
238
 10
0.007127
 20
13.980187
 30
0.0
  0
VERTEX
  8
LY_1
  6
CONTINUOUS
 62
     7
  5
239
 10
0.004826
 20
13.981024
 30
0.0
  0
VERTEX
  8
LY_1
  6
CONTINUOUS
 62
     7
  5
23A
 10
0.002436
 20
13.981532
 30
0.0
  0
VERTEX
  8
LY_1
  6
CONTINUOUS
 62
     7
  5
23B
 10
0.0
 20
13.981703
 30
0.0
  0
VERTEX
  8
LY_1
  6
CONTINUOUS
 62
     7
  5
23C
 10
-0.002436
 20
13.981532
 30
0.0
  0
VERTEX
  8
LY_1
  6
CONTINUOUS
 62
     7
  5
23D
 10
-0.004826
 20
13.981024
 30
0.0
  0
VERTEX
  8
LY_1
  6
CONTINUOUS
 62
     7
  5
23E
 10
-0.007127
 20
13.980187
 30
0.0
  0
VERTEX
  8
LY_1
  6
CONTINUOUS
 62
     7
  5
23F
 10
-0.009294
 20
13.979038
 30
0.0
  0
VERTEX
  8
LY_1
  6
CONTINUOUS
 62
     7
  5
240
 10
-0.011287
 20
13.977597
 30
0.0
  0
VERTEX
  8
LY_1
  6
CONTINUOUS
 62
     7
  5
241
 10
-0.013069
 20
13.975892
 30
0.0
  0
VERTEX
  8
LY_1
  6
CONTINUOUS
 62
     7
  5
242
 10
-0.014608
 20
13.973955
 30
0.0
  0
SEQEND
  8
LY_1
  6
CONTINUOUS
 62
     7
  5
243
  0
POLYLINE
  8
LY_1
  6
CONTINUOUS
 62
     7
  5
5A
 66
     1
 10
0.0
 20
0.0
 30
0.0
  0
VERTEX
  8
LY_1
  6
CONTINUOUS
 62
     7
  5
244
 10
-3.432405
 20
141.019294
 30
0.0
  0
VERTEX
  8
LY_1
  6
CONTINUOUS
 62
     7
  5
245
 10
-3.433373
 20
141.018398
 30
0.0
  0
VERTEX
  8
LY_1
  6
CONTINUOUS
 62
     7
  5
246
 10
-3.434226
 20
141.017356
 30
0.0
  0
VERTEX
  8
LY_1
  6
CONTINUOUS
 62
     7
  5
247
 10
-3.434949
 20
141.016186
 30
0.0
  0
VERTEX
  8
LY_1
  6
CONTINUOUS
 62
     7
  5
248
 10
-3.435528
 20
141.014913
 30
0.0
  0
VERTEX
  8
LY_1
  6
CONTINUOUS
 62
     7
  5
249
 10
-3.435951
 20
141.013558
 30
0.0
  0
VERTEX
  8
LY_1
  6
CONTINUOUS
 62
     7
  5
24A
 10
-3.436211
 20
141.012149
 30
0.0
  0
VERTEX
  8
LY_1
  6
CONTINUOUS
 62
     7
  5
24B
 10
-3.436303
 20
141.010711
 30
0.0
  0
VERTEX
  8
LY_1
  6
CONTINUOUS
 62
     7
  5
24C
 10
-3.436226
 20
141.009272
 30
0.0
  0
VERTEX
  8
LY_1
  6
CONTINUOUS
 62
     7
  5
24D
 10
-3.435979
 20
141.007859
 30
0.0
  0
VERTEX
  8
LY_1
  6
CONTINUOUS
 62
     7
  5
24E
 10
-3.435569
 20
141.006499
 30
0.0
  0
VERTEX
  8
LY_1
  6
CONTINUOUS
 62
     7
  5
24F
 10
-3.435003
 20
141.005217
 30
0.0
  0
VERTEX
  8
LY_1
  6
CONTINUOUS
 62
     7
  5
250
 10
-3.434292
 20
141.004039
 30
0.0
  0
VERTEX
  8
LY_1
  6
CONTINUOUS
 62
     7
  5
251
 10
-3.433448
 20
141.002985
 30
0.0
  0
VERTEX
  8
LY_1
  6
CONTINUOUS
 62
     7
  5
252
 10
-3.432489
 20
141.002076
 30
0.0
  0
VERTEX
  8
LY_1
  6
CONTINUOUS
 62
     7
  5
253
 10
-3.432489
 20
141.002076
 30
0.0
  0
SEQEND
  8
LY_1
  6
CONTINUOUS
 62
     7
  5
254
  0
ARC
  8
LY_1
  6
CONTINUOUS
 62
     7
  5
5B
 10
1.298248
 20
-0.510513
 30
0.0
 40
0.489466
 50
217.524112
 51
359.999982
  0
ARC
  8
LY_1
  6
CONTINUOUS
 62
     7
  5
5C
 10
-1.296066
 20
-0.508392
 30
0.0
 40
0.491616
 50
180.000036
 51
359.999982
  0
ARC
  8
LY_1
  6
CONTINUOUS
 62
     7
  5
5D
 10
-1.298187
 20
2.890274
 30
0.0
 40
0.48955
 50
37.524113
 51
180.000019
  0
ARC
  8
LY_1
  6
CONTINUOUS
 62
     7
  5
5E
 10
1.285446
 20
2.696823
 30
0.0
 40
0.502272
 50
359.999982
 51
270.000001
  0
ARC
  8
LY_1
  6
CONTINUOUS
 62
     7
  5
5F
 10
1.295975
 20
4.402649
 30
0.0
 40
0.491595
 50
180.000036
 51
359.999982
  0
ARC
  8
LY_1
  6
CONTINUOUS
 62
     7
  5
60
 10
-1.285416
 20
6.009384
 30
0.0
 40
0.502286
 50
90.000037
 51
270.000001
  0
ARC
  8
LY_1
  6
CONTINUOUS
 62
     7
  5
61
 10
1.285309
 20
7.769867
 30
0.0
 40
0.502243
 50
359.999982
 51
270.000001
  0
ARC
  8
LY_1
  6
CONTINUOUS
 62
     7
  5
62
 10
-1.285416
 20
9.493286
 30
0.0
 40
0.50228
 50
90.000037
 51
270.000001
  0
ARC
  8
LY_1
  6
CONTINUOUS
 62
     7
  5
63
 10
1.285446
 20
9.493286
 30
0.0
 40
0.50228
 50
270.000018
 51
90.000037
  0
ARC
  8
LY_1
  6
CONTINUOUS
 62
     7
  5
64
 10
1.192001
 20
11.186996
 30
0.0
 40
0.595744
 50
0.778951
 51
34.259064
  0
ARC
  8
LY_1
  6
CONTINUOUS
 62
     7
  5
65
 10
1.296249
 20
11.202484
 30
0.0
 40
0.491495
 50
123.574515
 51
359.143204
  0
ARC
  8
LY_1
  6
CONTINUOUS
 62
     7
  5
66
 10
-1.297241
 20
11.211548
 30
0.0
 40
0.494993
 50
145.740937
 51
325.740956
  0
ARC
  8
LY_1
  6
CONTINUOUS
 62
     7
  5
67
 10
-1.285477
 20
14.497772
 30
0.0
 40
0.50225
 50
89.999982
 51
270.000001
  0
ARC
  8
LY_1
  6
CONTINUOUS
 62
     7
  5
68
 10
1.285492
 20
14.497772
 30
0.0
 40
0.50225
 50
270.000018
 51
90.000037
  0
ARC
  8
LY_1
  6
CONTINUOUS
 62
     7
  5
69
 10
1.302307
 20
132.201004
 30
0.0
 40
7.571756
 50
318.474707
 51
336.525422
  0
ARC
  8
LY_1
  6
CONTINUOUS
 62
     7
  5
6A
 10
1.263107
 20
132.226013
 30
0.0
 40
6.218242
 50
318.198276
 51
336.801307
  0
ARC
  8
LY_1
  6
CONTINUOUS
 62
     7
  5
6B
 10
-1.302307
 20
132.201004
 30
0.0
 40
7.571756
 50
203.474577
 51
221.525291
  0
ARC
  8
LY_1
  6
CONTINUOUS
 62
     7
  5
6C
 10
-1.263123
 20
132.226013
 30
0.0
 40
6.218242
 50
203.198692
 51
221.801723
  0
ARC
  8
LY_1
  6
PHANTOM
 62
     7
  5
6E
 10
0.0
 20
133.030685
 30
0.0
 40
9.1
 50
226.309046
 51
313.690976
  0
ARC
  8
LY_1
  6
PHANTOM
 62
     7
  5
6F
 10
0.0
 20
133.030685
 30
0.0
 40
7.699997
 50
227.462092
 51
312.53789
  0
ARC
  8
LY_1
  6
CONTINUOUS
 62
     7
  5
70
 10
8.439362
 20
133.378494
 30
0.0
 40
0.889
 50
227.874799
 51
264.434343
  0
ARC
  8
LY_1
  6
CONTINUOUS
 62
     7
  5
71
 10
8.157639
 20
133.066971
 30
0.0
 40
0.469
 50
176.848023
 51
227.874618
  0
ARC
  8
LY_1
  6
CONTINUOUS
 62
     7
  5
72
 10
8.155029
 20
133.037003
 30
0.0
 40
0.469
 50
122.125367
 51
173.171961
  0
ARC
  8
LY_1
  6
CONTINUOUS
 62
     7
  5
73
 10
8.378357
 20
132.68132
 30
0.0
 40
0.889
 50
85.578118
 51
122.125203
  0
ARC
  8
LY_1
  6
CONTINUOUS
 62
     7
  5
74
 10
8.360641
 20
132.682877
 30
0.0
 40
0.889
 50
47.874821
 51
84.431739
  0
ARC
  8
LY_1
  6
CONTINUOUS
 62
     7
  5
75
 10
8.642349
 20
132.99437
 30
0.0
 40
0.469
 50
356.84801
 51
47.874602
  0
ARC
  8
LY_1
  6
CONTINUOUS
 62
     7
  5
76
 10
8.644974
 20
133.024353
 30
0.0
 40
0.469
 50
302.125403
 51
353.171979
  0
ARC
  8
LY_1
  6
CONTINUOUS
 62
     7
  5
77
 10
8.421631
 20
133.380035
 30
0.0
 40
0.889
 50
265.581487
 51
302.125184
  0
ARC
  8
LY_1
  6
CONTINUOUS
 62
     7
  5
78
 10
8.378357
 20
132.68132
 30
0.0
 40
1.05
 50
85.485391
 51
122.125203
  0
ARC
  8
LY_1
  6
CONTINUOUS
 62
     7
  5
79
 10
8.642349
 20
132.99437
 30
0.0
 40
0.63
 50
356.37819
 51
47.874602
  0
ARC
  8
LY_1
  6
CONTINUOUS
 62
     7
  5
7A
 10
8.360641
 20
132.682877
 30
0.0
 40
1.05
 50
47.874821
 51
84.51463
  0
ARC
  8
LY_1
  6
CONTINUOUS
 62
     7
  5
7B
 10
8.157639
 20
133.066971
 30
0.0
 40
0.63
 50
176.378215
 51
227.874618
  0
ARC
  8
LY_1
  6
CONTINUOUS
 62
     7
  5
7C
 10
8.439362
 20
133.378494
 30
0.0
 40
1.05
 50
227.874799
 51
264.514447
  0
ARC
  8
LY_1
  6
CONTINUOUS
 62
     7
  5
7D
 10
8.155029
 20
133.037003
 30
0.0
 40
0.63
 50
122.125367
 51
173.641823
  0
ARC
  8
LY_1
  6
CONTINUOUS
 62
     7
  5
7E
 10
8.644974
 20
133.024353
 30
0.0
 40
0.63
 50
302.125403
 51
353.641797
  0
ARC
  8
LY_1
  6
CONTINUOUS
 62
     7
  5
7F
 10
8.421631
 20
133.380035
 30
0.0
 40
1.05
 50
265.485645
 51
302.125184
  0
ARC
  8
LY_1
  6
CONTINUOUS
 62
     7
  5
80
 10
2.150757
 20
141.78064
 30
0.0
 40
0.28
 50
89.999982
 51
180.000019
  0
ARC
  8
LY_1
  6
CONTINUOUS
 62
     7
  5
81
 10
2.085144
 20
141.763168
 30
0.0
 40
0.28
 50
274.658043
 51
0.0
  0
ARC
  8
LY_1
  6
CONTINUOUS
 62
     7
  5
82
 10
2.129761
 20
141.742172
 30
0.0
 40
0.259
 50
180.000036
 51
265.157141
  0
ARC
  8
LY_1
  6
CONTINUOUS
 62
     7
  5
83
 10
3.320435
 20
141.814285
 30
0.0
 40
0.0105
 50
312.505723
 51
89.998288
  0
ARC
  8
LY_1
  6
CONTINUOUS
 62
     7
  5
84
 10
3.639435
 20
141.762634
 30
0.0
 40
0.298053
 50
312.504463
 51
89.999982
  0
ARC
  8
LY_1
  6
CONTINUOUS
 62
     7
  5
85
 10
2.77153
 20
140.548676
 30
0.0
 40
0.0105
 50
132.505506
 51
269.998635
  0
ARC
  8
LY_1
  6
CONTINUOUS
 62
     7
  5
86
 10
2.079895
 20
140.258774
 30
0.0
 40
0.298095
 50
132.504468
 51
270.000001
  0
ARC
  8
LY_1
  6
CONTINUOUS
 62
     7
  5
87
 10
3.648743
 20
140.24942
 30
0.0
 40
0.288751
 50
270.000018
 51
89.999982
  0
ARC
  8
LY_1
  6
CONTINUOUS
 62
     7
  5
88
 10
-0.3461
 20
141.780579
 30
0.0
 40
0.28
 50
89.999982
 51
180.000019
  0
ARC
  8
LY_1
  6
CONTINUOUS
 62
     7
  5
89
 10
-0.411713
 20
141.763092
 30
0.0
 40
0.28
 50
274.658043
 51
0.0
  0
ARC
  8
LY_1
  6
CONTINUOUS
 62
     7
  5
8A
 10
-0.367111
 20
141.742096
 30
0.0
 40
0.259
 50
180.000036
 51
265.157141
  0
ARC
  8
LY_1
  6
CONTINUOUS
 62
     7
  5
8B
 10
0.487579
 20
140.207886
 30
0.0
 40
0.247217
 50
180.000036
 51
359.999983
  0
ARC
  8
LY_1
  6
CONTINUOUS
 62
     7
  5
8C
 10
1.231613
 20
141.771835
 30
0.0
 40
0.288733
 50
270.000018
 51
89.999982
  0
ARC
  8
LY_1
  6
CONTINUOUS
 62
     7
  5
8D
 10
-1.227188
 20
141.813492
 30
0.0
 40
0.2472
 50
0.0
 51
180.000019
  0
ARC
  8
LY_1
  6
CONTINUOUS
 62
     7
  5
8E
 10
-1.227188
 20
140.207886
 30
0.0
 40
0.2472
 50
179.999964
 51
359.999983
  0
ARC
  8
LY_1
  6
CONTINUOUS
 62
     7
  5
8F
 10
-2.082031
 20
141.846268
 30
0.0
 40
0.21
 50
69.540669
 51
129.103799
  0
ARC
  8
LY_1
  6
CONTINUOUS
 62
     7
  5
90
 10
-2.07579
 20
141.728317
 30
0.0
 40
0.245
 50
211.487864
 51
266.528697
  0
ARC
  8
LY_1
  6
CONTINUOUS
 62
     7
  5
91
 10
-2.106491
 20
141.763321
 30
0.0
 40
0.28
 50
273.248893
 51
0.0
  0
ARC
  8
LY_1
  6
CONTINUOUS
 62
     7
  5
92
 10
-2.106491
 20
141.780685
 30
0.0
 40
0.28
 50
0.0
 51
69.540724
  0
ARC
  8
LY_1
  6
CONTINUOUS
 62
     7
  5
93
 10
-2.07695
 20
140.25206
 30
0.0
 40
0.272962
 50
230.896201
 51
50.89622
  0
ARC
  8
LY_1
  6
CONTINUOUS
 62
     7
  5
94
 10
-3.690308
 20
141.813477
 30
0.0
 40
0.2472
 50
0.0
 51
180.000019
  0
ARC
  8
LY_1
  6
CONTINUOUS
 62
     7
  5
95
 10
-3.690308
 20
140.20787
 30
0.0
 40
0.2472
 50
179.999964
 51
359.999983
  0
CIRCLE
  8
LY_1
  6
CONTINUOUS
 62
     7
  5
96
 10
0.0
 20
133.030685
 30
0.0
 40
6.3
  0
CIRCLE
  8
LY_1
  6
CONTINUOUS
 62
     7
  5
97
 10
0.0
 20
133.030685
 30
0.0
 40
10.5
  0
ARC
  8
LY_1
  6
CONTINUOUS
 62
     7
  5
98
 10
-8.921173
 20
133.858047
 30
0.0
 40
0.105
 50
329.803437
 51
149.803424
  0
ARC
  8
LY_1
  6
CONTINUOUS
 62
     7
  5
99
 10
-7.767303
 20
132.31694
 30
0.0
 40
0.105
 50
154.285886
 51
334.374971
  0
ARC
  8
LY_1
  6
CONTINUOUS
 62
     7
  5
9A
 10
-7.9841
 20
133.453262
 30
0.0
 40
0.205992
 50
18.468446
 51
169.999966
  0
ARC
  8
LY_1
  6
CONTINUOUS
 62
     7
  5
9B
 10
-8.755081
 20
132.504578
 30
0.0
 40
0.178551
 50
202.732326
 51
349.999978
  0
ARC
  8
LY_1
  6
CONTINUOUS
 62
     7
  5
9C
 10
-8.755081
 20
132.504578
 30
0.0
 40
0.388551
 50
202.732326
 51
349.999978
  0
ARC
  8
LY_1
  6
CONTINUOUS
 62
     7
  5
9D
 10
-7.9841
 20
133.453262
 30
0.0
 40
0.415992
 50
18.468446
 51
169.999966
  0
ARC
  8
LY_1
  6
CONTINUOUS
 62
     7
  5
9E
 10
-9.249405
 20
133.030685
 30
0.0
 40
1.54
 50
334.285898
 51
18.46848
  0
ARC
  8
LY_1
  6
CONTINUOUS
 62
     7
  5
9F
 10
-7.499405
 20
133.030685
 30
0.0
 40
1.54
 50
149.803424
 51
202.732309
  0
ARC
  8
LY_1
  6
CONTINUOUS
 62
     7
  5
A0
 10
-7.499405
 20
133.030685
 30
0.0
 40
1.75
 50
149.803424
 51
202.732309
  0
ARC
  8
LY_1
  6
CONTINUOUS
 62
     7
  5
A1
 10
-9.249405
 20
133.030685
 30
0.0
 40
1.75
 50
334.285898
 51
18.46848
  0
ARC
  8
LY_1
  6
CONTINUOUS
 62
     7
  5
A2
 10
-12.241883
 20
148.030685
 30
0.0
 40
2.0
 50
221.071712
 51
246.653229
  0
ARC
  8
LY_1
  6
CONTINUOUS
 62
     7
  5
A3
 10
-12.241883
 20
118.030685
 30
0.0
 40
2.0
 50
113.346771
 51
138.928288
  0
ARC
  8
LY_1
  6
CONTINUOUS
 62
     7
  5
A4
 10
12.241883
 20
148.030685
 30
0.0
 40
2.0
 50
293.346752
 51
318.928263
  0
ARC
  8
LY_1
  6
CONTINUOUS
 62
     7
  5
A5
 10
12.241883
 20
118.030685
 30
0.0
 40
2.0
 50
41.071737
 51
66.653248
  0
ARC
  8
LY_1
  6
CONTINUOUS
 62
     7
  5
A6
 10
70.121613
 20
40.322495
 30
0.0
 40
4.0
 50
308.682183
 51
0.000019
  0
ARC
  8
LY_1
  6
CONTINUOUS
 62
     7
  5
A7
 10
94.121613
 20
40.322495
 30
0.0
 40
4.0
 50
179.999981
 51
231.317815
  0
ARC
  8
LY_1
  6
CONTINUOUS
 62
     7
  5
A8
 10
78.621613
 20
16.5
 30
0.0
 40
2.0
 50
359.999981
 51
90.000037
  0
ARC
  8
LY_1
  6
CONTINUOUS
 62
     7
  5
A9
 10
69.121613
 20
20.5
 30
0.0
 40
2.0
 50
180.000019
 51
270.000001
  0
ARC
  8
LY_1
  6
CONTINUOUS
 62
     7
  5
AA
 10
66.665314
 20
17.343002
 30
0.0
 40
2.0
 50
0.499787
 51
52.115201
  0
ARC
  8
LY_1
  6
CONTINUOUS
 62
     7
  5
AB
 10
95.121613
 20
20.5
 30
0.0
 40
2.0
 50
270.000018
 51
0.0
  0
ARC
  8
LY_1
  6
CONTINUOUS
 62
     7
  5
AC
 10
85.621613
 20
16.5
 30
0.0
 40
2.0
 50
89.999982
 51
180.000019
  0
ARC
  8
LY_1
  6
CONTINUOUS
 62
     7
  5
AD
 10
97.577911
 20
17.343002
 30
0.0
 40
2.0
 50
127.884801
 51
179.500213
  0
CIRCLE
  8
LY_1
  6
CONTINUOUS
 62
     7
  5
AE
 10
82.121613
 20
0.0
 30
0.0
 40
9.3
  0
CIRCLE
  8
LY_1
  6
CONTINUOUS
 62
     7
  5
AF
 10
82.121613
 20
0.0
 30
0.0
 40
10.5
  0
CIRCLE
  8
LY_1
  6
CONTINUOUS
 62
     7
  5
B0
 10
0.0
 20
133.030685
 30
0.0
 40
3.0
  0
CIRCLE
  8
LY_1
  6
CONTINUOUS
 62
     7
  5
B1
 10
0.0
 20
133.030685
 30
0.0
 40
2.3
  0
ARC
  8
LY_1
  6
CONTINUOUS
 62
     7
  5
B2
 10
0.0
 20
133.030685
 30
0.0
 40
13.2
 50
255.601105
 51
344.398871
  0
ARC
  8
LY_1
  6
CONTINUOUS
 62
     7
  5
B3
 10
0.0
 20
133.030685
 30
0.0
 40
13.2
 50
135.601112
 51
224.398871
  0
ARC
  8
LY_1
  6
CONTINUOUS
 62
     7
  5
B4
 10
0.0
 20
133.030685
 30
0.0
 40
13.2
 50
15.601108
 51
104.398895
  0
ARC
  8
LY_1
  6
CONTINUOUS
 62
     7
  5
B5
 10
3.185254
 20
115.619675
 30
0.0
 40
1.3
 50
27.201133
 51
100.367663
  0
ARC
  8
LY_1
  6
CONTINUOUS
 62
     7
  5
B6
 10
-3.185244
 20
115.619659
 30
0.0
 40
1.3
 50
79.632738
 51
152.799145
  0
ARC
  8
LY_1
  6
CONTINUOUS
 62
     7
  5
B7
 10
0.0
 20
133.030701
 30
0.0
 40
16.399994
 50
259.63272
 51
280.367316
  0
ARC
  8
LY_1
  6
CONTINUOUS
 62
     7
  5
B8
 10
0.0
 20
133.030701
 30
0.0
 40
19.399994
 50
254.172721
 51
285.827315
  0
ARC
  8
LY_1
  6
CONTINUOUS
 62
     7
  5
B9
 10
3.185254
 20
150.441696
 30
0.0
 40
1.3
 50
259.632337
 51
332.798867
  0
ARC
  8
LY_1
  6
CONTINUOUS
 62
     7
  5
BA
 10
-3.185244
 20
150.441711
 30
0.0
 40
1.3
 50
207.200855
 51
280.367262
  0
ARC
  8
LY_1
  6
CONTINUOUS
 62
     7
  5
BB
 10
0.0
 20
133.03067
 30
0.0
 40
16.399994
 50
79.632684
 51
100.36728
  0
ARC
  8
LY_1
  6
CONTINUOUS
 62
     7
  5
BC
 10
0.0
 20
133.03067
 30
0.0
 40
19.399994
 50
74.172685
 51
105.827279
  0
ARC
  8
LY_1
  6
CONTINUOUS
 62
     7
  5
BD
 10
16.671021
 20
127.083679
 30
0.0
 40
1.3
 50
87.201134
 51
160.367651
  0
ARC
  8
LY_1
  6
CONTINUOUS
 62
     7
  5
BE
 10
13.485768
 20
121.566666
 30
0.0
 40
1.3
 50
139.632781
 51
212.799188
  0
ARC
  8
LY_1
  6
CONTINUOUS
 62
     7
  5
BF
 10
-0.000009
 20
133.030685
 30
0.0
 40
16.399994
 50
319.632728
 51
340.367325
  0
ARC
  8
LY_1
  6
CONTINUOUS
 62
     7
  5
C0
 10
-0.000009
 20
133.030685
 30
0.0
 40
19.399994
 50
314.17273
 51
345.827323
  0
ARC
  8
LY_1
  6
CONTINUOUS
 62
     7
  5
C1
 10
16.671021
 20
138.977692
 30
0.0
 40
1.3
 50
199.632349
 51
272.798866
  0
ARC
  8
LY_1
  6
CONTINUOUS
 62
     7
  5
C2
 10
13.485768
 20
144.494705
 30
0.0
 40
1.3
 50
147.200849
 51
220.367256
  0
ARC
  8
LY_1
  6
CONTINUOUS
 62
     7
  5
C3
 10
-0.000009
 20
133.030685
 30
0.0
 40
16.399994
 50
19.632679
 51
40.367275
  0
ARC
  8
LY_1
  6
CONTINUOUS
 62
     7
  5
C4
 10
-0.000009
 20
133.030685
 30
0.0
 40
19.399994
 50
14.17268
 51
45.827274
  0
ARC
  8
LY_1
  6
CONTINUOUS
 62
     7
  5
C5
 10
-16.671005
 20
127.083679
 30
0.0
 40
1.3
 50
19.632324
 51
92.798884
  0
ARC
  8
LY_1
  6
CONTINUOUS
 62
     7
  5
C6
 10
-13.485767
 20
121.566666
 30
0.0
 40
1.3
 50
327.200827
 51
40.367238
  0
ARC
  8
LY_1
  6
CONTINUOUS
 62
     7
  5
C7
 10
0.000009
 20
133.030685
 30
0.0
 40
16.399994
 50
199.632677
 51
220.367274
  0
ARC
  8
LY_1
  6
CONTINUOUS
 62
     7
  5
C8
 10
0.000009
 20
133.030685
 30
0.0
 40
19.399994
 50
194.172678
 51
225.827272
  0
ARC
  8
LY_1
  6
CONTINUOUS
 62
     7
  5
C9
 10
-16.671005
 20
138.977692
 30
0.0
 40
1.3
 50
267.201116
 51
340.367676
  0
ARC
  8
LY_1
  6
CONTINUOUS
 62
     7
  5
CA
 10
-13.485767
 20
144.494705
 30
0.0
 40
1.3
 50
319.632762
 51
32.799173
  0
ARC
  8
LY_1
  6
CONTINUOUS
 62
     7
  5
CB
 10
0.000009
 20
133.030685
 30
0.0
 40
16.399994
 50
139.632726
 51
160.367323
  0
ARC
  8
LY_1
  6
CONTINUOUS
 62
     7
  5
CC
 10
0.000009
 20
133.030685
 30
0.0
 40
19.399994
 50
134.172728
 51
165.827322
  0
ARC
  8
LY_1
  6
CONTINUOUS
 62
     7
  5
CD
 10
-19.399994
 20
133.030685
 30
0.0
 40
5.6
 50
134.23256
 51
225.767477
  0
ARC
  8
LY_1
  6
CONTINUOUS
 62
     7
  5
CE
 10
19.400009
 20
133.030685
 30
0.0
 40
5.6
 50
314.232525
 51
45.767458
  0
ARC
  8
LY_1
  6
CONTINUOUS
 62
     7
  5
CF
 10
-28.310669
 20
111.509338
 30
0.0
 40
13.6
 50
14.232513
 51
25.44129
  0
ARC
  8
LY_1
  6
CONTINUOUS
 62
     7
  5
D0
 10
-9.700006
 20
116.229797
 30
0.0
 40
5.6
 50
194.1694
 51
285.767428
  0
ARC
  8
LY_1
  6
CONTINUOUS
 62
     7
  5
D1
 10
-9.700006
 20
149.831573
 30
0.0
 40
5.6
 50
74.232572
 51
165.8306
  0
ARC
  8
LY_1
  6
CONTINUOUS
 62
     7
  5
D2
 10
-32.793381
 20
119.273605
 30
0.0
 40
13.6
 50
34.558718
 51
45.767441
  0
ARC
  8
LY_1
  6
CONTINUOUS
 62
     7
  5
D3
 10
-79.241318
 20
87.28067
 30
0.0
 40
70.0
 50
25.44129
 51
34.558718
  0
ARC
  8
LY_1
  6
CONTINUOUS
 62
     7
  5
D4
 10
-28.310669
 20
154.552032
 30
0.0
 40
13.6
 50
334.558713
 51
345.767491
  0
ARC
  8
LY_1
  6
CONTINUOUS
 62
     7
  5
D5
 10
-32.793381
 20
146.787766
 30
0.0
 40
13.6
 50
314.232562
 51
325.441285
  0
ARC
  8
LY_1
  6
CONTINUOUS
 62
     7
  5
D6
 10
-79.241318
 20
178.780701
 30
0.0
 40
70.0
 50
325.441285
 51
334.558713
  0
ARC
  8
LY_1
  6
CONTINUOUS
 62
     7
  5
D7
 10
28.310684
 20
111.509338
 30
0.0
 40
13.6
 50
154.558711
 51
165.767489
  0
ARC
  8
LY_1
  6
CONTINUOUS
 62
     7
  5
D8
 10
9.700006
 20
116.229797
 30
0.0
 40
5.6
 50
254.232554
 51
345.830598
  0
ARC
  8
LY_1
  6
CONTINUOUS
 62
     7
  5
D9
 10
-4.482689
 20
97.752258
 30
0.0
 40
13.6
 50
94.558723
 51
105.767501
  0
ARC
  8
LY_1
  6
CONTINUOUS
 62
     7
  5
DA
 10
4.482719
 20
97.752243
 30
0.0
 40
13.6
 50
74.232572
 51
85.441295
  0
ARC
  8
LY_1
  6
CONTINUOUS
 62
     7
  5
DB
 10
-0.000008
 20
41.530746
 30
0.0
 40
70.0
 50
85.441295
 51
94.558723
  0
ARC
  8
LY_1
  6
CONTINUOUS
 62
     7
  5
DC
 10
9.700006
 20
149.831573
 30
0.0
 40
5.6
 50
14.169402
 51
105.767446
  0
ARC
  8
LY_1
  6
CONTINUOUS
 62
     7
  5
DD
 10
32.793396
 20
119.273605
 30
0.0
 40
13.6
 50
134.23256
 51
145.441283
  0
ARC
  8
LY_1
  6
CONTINUOUS
 62
     7
  5
DE
 10
79.241333
 20
87.28067
 30
0.0
 40
70.0
 50
145.441283
 51
154.558711
  0
ARC
  8
LY_1
  6
CONTINUOUS
 62
     7
  5
DF
 10
-4.482689
 20
168.309113
 30
0.0
 40
13.6
 50
254.232499
 51
265.441277
  0
ARC
  8
LY_1
  6
CONTINUOUS
 62
     7
  5
E0
 10
4.482719
 20
168.309128
 30
0.0
 40
13.6
 50
274.558705
 51
285.767428
  0
ARC
  8
LY_1
  6
CONTINUOUS
 62
     7
  5
E1
 10
-0.000008
 20
224.530624
 30
0.0
 40
70.0
 50
265.441277
 51
274.558705
  0
ARC
  8
LY_1
  6
CONTINUOUS
 62
     7
  5
E2
 10
28.310684
 20
154.552032
 30
0.0
 40
13.6
 50
194.232511
 51
205.441289
  0
ARC
  8
LY_1
  6
CONTINUOUS
 62
     7
  5
E3
 10
32.793396
 20
146.787766
 30
0.0
 40
13.6
 50
214.558717
 51
225.76744
  0
ARC
  8
LY_1
  6
CONTINUOUS
 62
     7
  5
E4
 10
79.241333
 20
178.780701
 30
0.0
 40
70.0
 50
205.441289
 51
214.558717
  0
ARC
  8
LY_1
  6
CONTINUOUS
 62
     7
  5
E5
 10
76.121613
 20
72.900009
 30
0.0
 40
1.0
 50
270.000018
 51
359.999981
  0
ARC
  8
LY_1
  6
CONTINUOUS
 62
     7
  5
E6
 10
82.121613
 20
74.0
 30
0.0
 40
5.0
 50
359.999981
 51
180.000019
  0
ARC
  8
LY_1
  6
CONTINUOUS
 62
     7
  5
E7
 10
66.91124
 20
72.900009
 30
0.0
 40
1.0
 50
180.000019
 51
270.000001
  0
ARC
  8
LY_1
  6
CONTINUOUS
 62
     7
  5
E8
 10
67.91124
 20
73.300003
 30
0.0
 40
2.0
 50
90.000037
 51
180.000019
  0
ARC
  8
LY_1
  6
CONTINUOUS
 62
     7
  5
E9
 10
66.001328
 20
74.0
 30
0.0
 40
5.0
 50
38.316251
 51
135.596904
  0
ARC
  8
LY_1
  6
CONTINUOUS
 62
     7
  5
EA
 10
67.783798
 20
72.247055
 30
0.0
 40
7.5
 50
135.399539
 51
166.921572
  0
ARC
  8
LY_1
  6
CONTINUOUS
 62
     7
  5
EB
 10
94.489899
 20
65.687012
 30
0.0
 40
35.0
 50
166.065777
 51
173.416153
  0
ARC
  8
LY_1
  6
CONTINUOUS
 62
     7
  5
EC
 10
88.121613
 20
72.900009
 30
0.0
 40
1.0
 50
180.000019
 51
270.000001
  0
ARC
  8
LY_1
  6
CONTINUOUS
 62
     7
  5
ED
 10
97.331985
 20
72.900009
 30
0.0
 40
1.0
 50
270.000018
 51
0.0
  0
ARC
  8
LY_1
  6
CONTINUOUS
 62
     7
  5
EE
 10
96.331985
 20
73.300003
 30
0.0
 40
2.0
 50
0.0
 51
89.999982
  0
ARC
  8
LY_1
  6
CONTINUOUS
 62
     7
  5
EF
 10
98.241898
 20
74.0
 30
0.0
 40
5.0
 50
44.403111
 51
141.68375
  0
ARC
  8
LY_1
  6
CONTINUOUS
 62
     7
  5
F0
 10
96.459427
 20
72.247055
 30
0.0
 40
7.5
 50
13.078436
 51
44.600442
  0
ARC
  8
LY_1
  6
CONTINUOUS
 62
     7
  5
F1
 10
69.753326
 20
65.687012
 30
0.0
 40
35.0
 50
6.583824
 51
13.934245
  0
ARC
  8
LY_1
  6
CONTINUOUS
 62
     7
  5
F2
 10
-17.809479
 20
72.900009
 30
0.0
 40
1.0
 50
179.999981
 51
269.999963
  0
ARC
  8
LY_1
  6
CONTINUOUS
 62
     7
  5
F3
 10
-16.809479
 20
73.300003
 30
0.0
 40
2.0
 50
90.000037
 51
180.000019
  0
ARC
  8
LY_1
  6
CONTINUOUS
 62
     7
  5
F4
 10
-8.790092
 20
72.900009
 30
0.0
 40
1.0
 50
179.999981
 51
269.999963
  0
ARC
  8
LY_1
  6
CONTINUOUS
 62
     7
  5
F5
 10
-7.790092
 20
73.300003
 30
0.0
 40
2.0
 50
90.000037
 51
180.000019
  0
ARC
  8
LY_1
  6
CONTINUOUS
 62
     7
  5
F6
 10
-9.700006
 20
74.0
 30
0.0
 40
5.0
 50
38.316251
 51
135.596904
  0
ARC
  8
LY_1
  6
CONTINUOUS
 62
     7
  5
F7
 10
-7.917535
 20
72.247055
 30
0.0
 40
7.5
 50
135.399539
 51
166.921572
  0
ARC
  8
LY_1
  6
CONTINUOUS
 62
     7
  5
F8
 10
18.788574
 20
65.687012
 30
0.0
 40
35.0
 50
166.065777
 51
173.416153
  0
ARC
  8
LY_1
  6
CONTINUOUS
 62
     7
  5
F9
 10
-18.719391
 20
74.0
 30
0.0
 40
5.0
 50
38.316251
 51
135.596904
  0
ARC
  8
LY_1
  6
CONTINUOUS
 62
     7
  5
FA
 10
-16.93692
 20
72.247055
 30
0.0
 40
7.5
 50
135.399539
 51
166.921572
  0
ARC
  8
LY_1
  6
CONTINUOUS
 62
     7
  5
FB
 10
9.769172
 20
65.687012
 30
0.0
 40
35.0
 50
166.065777
 51
173.416153
  0
ARC
  8
LY_1
  6
CONTINUOUS
 62
     7
  5
FC
 10
17.809494
 20
72.900009
 30
0.0
 40
1.0
 50
270.000018
 51
0.0
  0
ARC
  8
LY_1
  6
CONTINUOUS
 62
     7
  5
FD
 10
16.809494
 20
73.300003
 30
0.0
 40
2.0
 50
0.0
 51
89.999982
  0
ARC
  8
LY_1
  6
CONTINUOUS
 62
     7
  5
FE
 10
8.790091
 20
72.900009
 30
0.0
 40
1.0
 50
270.000018
 51
0.0
  0
ARC
  8
LY_1
  6
CONTINUOUS
 62
     7
  5
FF
 10
7.790091
 20
73.300003
 30
0.0
 40
2.0
 50
0.0
 51
89.999982
  0
ARC
  8
LY_1
  6
CONTINUOUS
 62
     7
  5
100
 10
9.700005
 20
74.0
 30
0.0
 40
5.0
 50
44.403111
 51
141.68375
  0
ARC
  8
LY_1
  6
CONTINUOUS
 62
     7
  5
101
 10
7.917534
 20
72.247055
 30
0.0
 40
7.5
 50
13.078436
 51
44.600442
  0
ARC
  8
LY_1
  6
CONTINUOUS
 62
     7
  5
102
 10
-18.788559
 20
65.687012
 30
0.0
 40
35.0
 50
6.583824
 51
13.934245
  0
ARC
  8
LY_1
  6
CONTINUOUS
 62
     7
  5
103
 10
18.719406
 20
74.0
 30
0.0
 40
5.0
 50
44.403111
 51
141.68375
  0
ARC
  8
LY_1
  6
CONTINUOUS
 62
     7
  5
104
 10
16.936935
 20
72.247055
 30
0.0
 40
7.5
 50
13.078436
 51
44.600442
  0
ARC
  8
LY_1
  6
CONTINUOUS
 62
     7
  5
105
 10
-9.769173
 20
65.687012
 30
0.0
 40
35.0
 50
6.583824
 51
13.934245
  0
ARC
  8
LY_1
  6
CONTINUOUS
 62
     7
  5
106
 10
-12.0
 20
40.965302
 30
0.0
 40
4.0
 50
289.724621
 51
0.000019
  0
ARC
  8
LY_1
  6
CONTINUOUS
 62
     7
  5
107
 10
12.0
 20
40.965302
 30
0.0
 40
4.0
 50
179.999981
 51
250.275361
  0
ARC
  8
LY_1
  6
CONTINUOUS
 62
     7
  5
108
 10
-17.0
 20
17.300003
 30
0.0
 40
2.0
 50
270.000018
 51
359.999981
  0
ARC
  8
LY_1
  6
CONTINUOUS
 62
     7
  5
109
 10
-13.174399
 20
13.924399
 30
0.0
 40
0.9244
 50
195.000006
 51
0.000019
  0
ARC
  8
LY_1
  6
CONTINUOUS
 62
     7
  5
10A
 10
-14.25
 20
15.757586
 30
0.0
 40
2.0
 50
359.999981
 51
60.000043
  0
ARC
  8
LY_1
  6
CONTINUOUS
 62
     7
  5
10B
 10
-13.0
 20
19.654694
 30
0.0
 40
2.0
 50
180.0002
 51
240.000079
  0
ARC
  8
LY_1
  6
CONTINUOUS
 62
     7
  5
10C
 10
17.0
 20
17.300003
 30
0.0
 40
2.0
 50
180.000019
 51
270.000001
  0
ARC
  8
LY_1
  6
CONTINUOUS
 62
     7
  5
10D
 10
13.174399
 20
13.924399
 30
0.0
 40
0.9244
 50
179.999981
 51
345.000013
  0
ARC
  8
LY_1
  6
CONTINUOUS
 62
     7
  5
10E
 10
14.25
 20
15.757586
 30
0.0
 40
2.0
 50
119.999976
 51
180.000019
  0
ARC
  8
LY_1
  6
CONTINUOUS
 62
     7
  5
10F
 10
13.0
 20
19.654694
 30
0.0
 40
2.0
 50
299.999903
 51
359.999788
  0
ARC
  8
LY_1
  6
CONTINUOUS
 62
     7
  5
110
 10
-11.267949
 20
-12.0
 30
0.0
 40
1.0
 50
269.999963
 51
299.999957
  0
ARC
  8
LY_1
  6
CONTINUOUS
 62
     7
  5
111
 10
-9.452188
 20
-13.838421
 30
0.0
 40
1.5
 50
50.307933
 51
119.999976
  0
ARC
  8
LY_1
  6
CONTINUOUS
 62
     7
  5
112
 10
-12.241883
 20
-15.0
 30
0.0
 40
2.0
 50
89.999982
 51
164.999994
  0
ARC
  8
LY_1
  6
CONTINUOUS
 62
     7
  5
113
 10
11.267949
 20
-12.0
 30
0.0
 40
1.0
 50
240.000024
 51
270.000018
  0
ARC
  8
LY_1
  6
CONTINUOUS
 62
     7
  5
114
 10
9.452188
 20
-13.838421
 30
0.0
 40
1.5
 50
60.000043
 51
129.692069
  0
ARC
  8
LY_1
  6
CONTINUOUS
 62
     7
  5
115
 10
0.0
 20
-2.45
 30
0.0
 40
13.3
 50
230.301811
 51
309.692088
  0
ARC
  8
LY_1
  6
CONTINUOUS
 62
     7
  5
116
 10
12.241883
 20
-15.0
 30
0.0
 40
2.0
 50
15.000004
 51
90.000037
  0
LINE
  8
LY_1
  6
CONTINUOUS
 62
     7
  5
117
 10
1.386093
 20
2.194534
 30
0.0
 11
1.285446
 21
2.194534
 31
0.0
  0
LINE
  8
LY_1
  6
CONTINUOUS
 62
     7
  5
118
 10
1.385956
 20
7.267593
 30
0.0
 11
1.285309
 21
7.267593
 31
0.0
  0
LINE
  8
LY_1
  6
CONTINUOUS
 62
     7
  5
119
 10
1.385956
 20
7.267593
 30
0.0
 11
1.385956
 21
6.511642
 31
0.0
  0
LINE
  8
LY_1
  6
CONTINUOUS
 62
     7
  5
11A
 10
0.804367
 20
5.507065
 30
0.0
 11
0.804367
 21
4.402649
 31
0.0
  0
LINE
  8
LY_1
  6
CONTINUOUS
 62
     7
  5
11B
 10
0.804367
 20
5.507065
 30
0.0
 11
-1.285416
 21
5.507065
 31
0.0
  0
LINE
  8
LY_1
  6
CONTINUOUS
 62
     7
  5
11C
 10
1.385956
 20
6.511642
 30
0.0
 11
-1.285416
 21
6.511642
 31
0.0
  0
LINE
  8
LY_1
  6
CONTINUOUS
 62
     7
  5
11D
 10
1.787537
 20
7.769867
 30
0.0
 11
1.787537
 21
4.402649
 31
0.0
  0
LINE
  8
LY_1
  6
CONTINUOUS
 62
     7
  5
11E
 10
1.386093
 20
2.194534
 30
0.0
 11
1.386093
 21
0.251709
 31
0.0
  0
LINE
  8
LY_1
  6
CONTINUOUS
 62
     7
  5
11F
 10
-1.787689
 20
2.890274
 30
0.0
 11
-1.787689
 21
-0.508392
 31
0.0
  0
LINE
  8
LY_1
  6
CONTINUOUS
 62
     7
  5
120
 10
-0.804459
 20
-0.508392
 30
0.0
 11
-0.804459
 21
1.371002
 31
0.0
  0
LINE
  8
LY_1
  6
CONTINUOUS
 62
     7
  5
121
 10
0.910063
 20
-0.808665
 30
0.0
 11
-0.772579
 21
1.382288
 31
0.0
  0
LINE
  8
LY_1
  6
CONTINUOUS
 62
     7
  5
122
 10
1.354168
 20
0.24042
 30
0.0
 11
-0.909891
 21
3.188431
 31
0.0
  0
LINE
  8
LY_1
  6
CONTINUOUS
 62
     7
  5
123
 10
1.78772
 20
2.696823
 30
0.0
 11
1.78772
 21
-0.510513
 31
0.0
  0
LINE
  8
LY_1
  6
CONTINUOUS
 62
     7
  5
124
 10
-1.285416
 20
9.995575
 30
0.0
 11
1.285446
 21
9.995575
 31
0.0
  0
LINE
  8
LY_1
  6
CONTINUOUS
 62
     7
  5
125
 10
1.285446
 20
8.990997
 30
0.0
 11
-1.285416
 21
8.990997
 31
0.0
  0
LINE
  8
LY_1
  6
CONTINUOUS
 62
     7
  5
126
 10
0.299437
 20
12.676405
 30
0.0
 11
1.024426
 21
11.611977
 31
0.0
  0
LINE
  8
LY_1
  6
CONTINUOUS
 62
     7
  5
127
 10
0.299422
 20
12.676411
 30
0.0
 11
-0.888131
 21
10.932847
 31
0.0
  0
LINE
  8
LY_1
  6
CONTINUOUS
 62
     7
  5
128
 10
0.014592
 20
13.973897
 30
0.0
 11
1.684338
 21
11.522379
 31
0.0
  0
LINE
  8
LY_1
  6
CONTINUOUS
 62
     7
  5
129
 10
-0.014697
 20
13.973871
 30
0.0
 11
-1.706372
 21
11.490156
 31
0.0
  0
LINE
  8
LY_1
  6
CONTINUOUS
 62
     7
  5
12A
 10
1.285492
 20
13.995529
 30
0.0
 11
-1.285477
 21
13.995529
 31
0.0
  0
LINE
  8
LY_1
  6
CONTINUOUS
 62
     7
  5
12B
 10
1.285492
 20
15.000015
 30
0.0
 11
-1.285477
 21
15.000015
 31
0.0
  0
LINE
  8
LY_1
  6
CONTINUOUS
 62
     7
  5
12C
 10
5.898526
 20
128.081207
 30
0.0
 11
6.970993
 21
127.181296
 31
0.0
  0
LINE
  8
LY_1
  6
CONTINUOUS
 62
     7
  5
12D
 10
6.344153
 20
130.07236
 30
0.0
 11
6.978565
 21
129.776526
 31
0.0
  0
LINE
  8
LY_1
  6
CONTINUOUS
 62
     7
  5
12E
 10
8.88182
 20
128.889032
 30
0.0
 11
8.247395
 21
129.184872
 31
0.0
  0
LINE
  8
LY_1
  6
CONTINUOUS
 62
     7
  5
12F
 10
8.272392
 20
131.572036
 30
0.0
 11
6.34416
 21
130.072363
 31
0.0
  0
LINE
  8
LY_1
  6
CONTINUOUS
 62
     7
  5
130
 10
8.272382
 20
131.572018
 30
0.0
 11
8.881803
 21
128.889018
 31
0.0
  0
LINE
  8
LY_1
  6
CONTINUOUS
 62
     7
  5
131
 10
-5.898538
 20
128.081198
 30
0.0
 11
-6.971004
 21
127.181286
 31
0.0
  0
LINE
  8
LY_1
  6
CONTINUOUS
 62
     7
  5
132
 10
-6.344167
 20
130.072353
 30
0.0
 11
-6.978579
 21
129.77652
 31
0.0
  0
LINE
  8
LY_1
  6
CONTINUOUS
 62
     7
  5
133
 10
-8.881814
 20
128.889018
 30
0.0
 11
-8.247402
 21
129.184852
 31
0.0
  0
LINE
  8
LY_1
  6
CONTINUOUS
 62
     7
  5
134
 10
-8.272392
 20
131.572036
 30
0.0
 11
-6.34416
 21
130.072363
 31
0.0
  0
LINE
  8
LY_1
  6
CONTINUOUS
 62
     7
  5
135
 10
-8.272396
 20
131.572021
 30
0.0
 11
-8.881818
 21
128.889021
 31
0.0
  0
LINE
  8
LY_1
  6
CONTINUOUS
 62
     7
  5
136
 10
1.870743
 20
141.78064
 30
0.0
 11
1.870743
 21
141.742172
 31
0.0
  0
LINE
  8
LY_1
  6
CONTINUOUS
 62
     7
  5
137
 10
2.365143
 20
141.824753
 30
0.0
 11
2.365143
 21
141.763168
 31
0.0
  0
LINE
  8
LY_1
  6
CONTINUOUS
 62
     7
  5
138
 10
-0.131714
 20
141.824692
 30
0.0
 11
-0.131714
 21
141.763092
 31
0.0
  0
LINE
  8
LY_1
  6
CONTINUOUS
 62
     7
  5
139
 10
-0.626099
 20
141.780579
 30
0.0
 11
-0.626099
 21
141.742096
 31
0.0
  0
LINE
  8
LY_1
  6
CONTINUOUS
 62
     7
  5
13A
 10
-0.979996
 20
141.813492
 30
0.0
 11
-0.979996
 21
140.207886
 31
0.0
  0
LINE
  8
LY_1
  6
CONTINUOUS
 62
     7
  5
13B
 10
-1.47438
 20
141.813492
 30
0.0
 11
-1.47438
 21
140.207886
 31
0.0
  0
LINE
  8
LY_1
  6
CONTINUOUS
 62
     7
  5
13C
 10
-1.826492
 20
141.780685
 30
0.0
 11
-1.826492
 21
141.763321
 31
0.0
  0
LINE
  8
LY_1
  6
CONTINUOUS
 62
     7
  5
13D
 10
-0.131714
 20
141.824692
 30
0.0
 11
0.240372
 21
141.824692
 31
0.0
  0
LINE
  8
LY_1
  6
CONTINUOUS
 62
     7
  5
13E
 10
0.734802
 20
141.483109
 30
0.0
 11
1.231613
 21
141.483109
 31
0.0
  0
LINE
  8
LY_1
  6
CONTINUOUS
 62
     7
  5
13F
 10
0.734802
 20
141.483109
 30
0.0
 11
0.734802
 21
140.207886
 31
0.0
  0
LINE
  8
LY_1
  6
CONTINUOUS
 62
     7
  5
140
 10
0.240372
 20
141.824692
 30
0.0
 11
0.240372
 21
140.207886
 31
0.0
  0
LINE
  8
LY_1
  6
CONTINUOUS
 62
     7
  5
141
 10
-0.3461
 20
142.060562
 30
0.0
 11
1.231613
 21
142.060562
 31
0.0
  0
LINE
  8
LY_1
  6
CONTINUOUS
 62
     7
  5
142
 10
2.365143
 20
141.824783
 30
0.0
 11
3.320435
 21
141.824783
 31
0.0
  0
LINE
  8
LY_1
  6
CONTINUOUS
 62
     7
  5
143
 10
2.079895
 20
139.960678
 30
0.0
 11
3.648743
 21
139.960678
 31
0.0
  0
LINE
  8
LY_1
  6
CONTINUOUS
 62
     7
  5
144
 10
3.648743
 20
140.538177
 30
0.0
 11
2.77153
 21
140.538177
 31
0.0
  0
LINE
  8
LY_1
  6
CONTINUOUS
 62
     7
  5
145
 10
3.840816
 20
141.542884
 30
0.0
 11
2.764452
 21
140.556423
 31
0.0
  0
LINE
  8
LY_1
  6
CONTINUOUS
 62
     7
  5
146
 10
3.327532
 20
141.806533
 30
0.0
 11
1.876425
 21
140.47663
 31
0.0
  0
LINE
  8
LY_1
  6
CONTINUOUS
 62
     7
  5
147
 10
2.150757
 20
142.060669
 30
0.0
 11
3.639435
 21
142.060669
 31
0.0
  0
LINE
  8
LY_1
  6
CONTINUOUS
 62
     7
  5
148
 10
-2.793851
 20
141.186522
 30
0.0
 11
-2.284705
 21
141.60035
 31
0.0
  0
LINE
  8
LY_1
  6
CONTINUOUS
 62
     7
  5
149
 10
-2.793882
 20
141.186518
 30
0.0
 11
-1.904797
 21
140.46388
 31
0.0
  0
LINE
  8
LY_1
  6
CONTINUOUS
 62
     7
  5
14A
 10
-3.432452
 20
141.019252
 30
0.0
 11
-2.214462
 21
142.009219
 31
0.0
  0
LINE
  8
LY_1
  6
CONTINUOUS
 62
     7
  5
14B
 10
-3.432463
 20
141.002055
 30
0.0
 11
-2.249119
 21
140.040249
 31
0.0
  0
LINE
  8
LY_1
  6
CONTINUOUS
 62
     7
  5
14C
 10
-3.443115
 20
141.813477
 30
0.0
 11
-3.443115
 21
140.20787
 31
0.0
  0
LINE
  8
LY_1
  6
CONTINUOUS
 62
     7
  5
14D
 10
-3.937515
 20
141.813477
 30
0.0
 11
-3.937515
 21
140.20787
 31
0.0
  0
LINE
  8
LY_1
  6
CONTINUOUS
 62
     7
  5
14E
 10
-8.393773
 20
133.525496
 30
0.0
 11
-8.579257
 21
132.473563
 31
0.0
  0
LINE
  8
LY_1
  6
CONTINUOUS
 62
     7
  5
14F
 10
-8.186957
 20
133.489029
 30
0.0
 11
-8.372441
 21
132.437095
 31
0.0
  0
LINE
  8
LY_1
  6
CONTINUOUS
 62
     7
  5
150
 10
5.484837
 20
123.530683
 30
0.0
 11
5.991192
 21
124.407716
 31
0.0
  0
LINE
  8
LY_1
  6
CONTINUOUS
 62
     7
  5
151
 10
4.472136
 20
123.530685
 30
0.0
 11
5.484837
 21
123.530685
 31
0.0
  0
LINE
  8
LY_1
  6
CONTINUOUS
 62
     7
  5
152
 10
5.484834
 20
142.530686
 30
0.0
 11
5.991189
 21
141.653653
 31
0.0
  0
LINE
  8
LY_1
  6
CONTINUOUS
 62
     7
  5
153
 10
-14.044483
 20
141.498977
 30
0.0
 11
-14.044484
 21
146.413955
 31
0.0
  0
LINE
  8
LY_1
  6
CONTINUOUS
 62
     7
  5
154
 10
-14.044483
 20
124.562393
 30
0.0
 11
-14.044483
 21
119.647415
 31
0.0
  0
LINE
  8
LY_1
  6
CONTINUOUS
 62
     7
  5
155
 10
14.044483
 20
141.498978
 30
0.0
 11
14.044483
 21
146.413956
 31
0.0
  0
LINE
  8
LY_1
  6
CONTINUOUS
 62
     7
  5
156
 10
14.044483
 20
124.562393
 30
0.0
 11
14.044483
 21
119.647415
 31
0.0
  0
LINE
  8
LY_1
  6
CONTINUOUS
 62
     7
  5
157
 10
4.472136
 20
142.530685
 30
0.0
 11
5.484837
 21
142.530685
 31
0.0
  0
LINE
  8
LY_1
  6
CONTINUOUS
 62
     7
  5
158
 10
82.121613
 20
47.0
 30
0.0
 11
82.121613
 21
57.5
 31
0.0
  0
LINE
  8
LY_1
  6
CONTINUOUS
 62
     7
  5
159
 10
82.121613
 20
37.199997
 30
0.0
 11
82.121613
 21
31.199997
 31
0.0
  0
LINE
  8
LY_1
  6
CONTINUOUS
 62
     7
  5
15A
 10
66.621613
 20
29.704025
 30
0.0
 11
97.621613
 21
29.704025
 31
0.0
  0
LINE
  8
LY_1
  6
CONTINUOUS
 62
     7
  5
15B
 10
-15.5
 20
29.990753
 30
0.0
 11
15.5
 21
29.990753
 31
0.0
  0
LINE
  8
LY_1
  6
CONTINUOUS
 62
     7
  5
15C
 10
80.621994
 20
15.3
 30
0.0
 11
83.621231
 21
15.3
 31
0.0
  0
LINE
  8
LY_1
  6
CONTINUOUS
 62
     7
  5
15D
 10
-16.85594
 20
119.030686
 30
0.0
 11
-20.999998
 21
119.030686
 31
0.0
  0
LINE
  8
LY_1
  6
CONTINUOUS
 62
     7
  5
15E
 10
-20.999998
 20
119.030686
 30
0.0
 11
-20.999998
 21
126.112961
 31
0.0
  0
LINE
  8
LY_1
  6
CONTINUOUS
 62
     7
  5
15F
 10
16.855942
 20
119.030685
 30
0.0
 11
21.0
 21
119.030685
 31
0.0
  0
LINE
  8
LY_1
  6
CONTINUOUS
 62
     7
  5
160
 10
21.0
 20
119.030685
 30
0.0
 11
21.0
 21
126.112961
 31
0.0
  0
LINE
  8
LY_1
  6
CONTINUOUS
 62
     7
  5
161
 10
-16.855944
 20
147.030685
 30
0.0
 11
-21.000002
 21
147.030685
 31
0.0
  0
LINE
  8
LY_1
  6
CONTINUOUS
 62
     7
  5
162
 10
-21.000002
 20
147.030685
 30
0.0
 11
-21.000002
 21
139.94841
 31
0.0
  0
LINE
  8
LY_1
  6
CONTINUOUS
 62
     7
  5
163
 10
16.855942
 20
147.030685
 30
0.0
 11
21.0
 21
147.030685
 31
0.0
  0
LINE
  8
LY_1
  6
CONTINUOUS
 62
     7
  5
164
 10
21.0
 20
147.030685
 30
0.0
 11
21.0
 21
139.94841
 31
0.0
  0
LINE
  8
LY_1
  6
CONTINUOUS
 62
     7
  5
165
 10
-5.484828
 20
37.199997
 30
0.0
 11
-5.484828
 21
31.199997
 31
0.0
  0
LINE
  8
LY_1
  6
CONTINUOUS
 62
     7
  5
166
 10
-14.5
 20
8.082904
 30
0.0
 11
-21.0
 21
8.082904
 31
0.0
  0
LINE
  8
LY_1
  6
CONTINUOUS
 62
     7
  5
167
 10
14.5
 20
8.082904
 30
0.0
 11
21.0
 21
8.082904
 31
0.0
  0
LINE
  8
LY_1
  6
CONTINUOUS
 62
     7
  5
168
 10
-14.5
 20
-8.082904
 30
0.0
 11
-21.0
 21
-8.082904
 31
0.0
  0
LINE
  8
LY_1
  6
CONTINUOUS
 62
     7
  5
169
 10
14.5
 20
-8.082904
 30
0.0
 11
21.0
 21
-8.082904
 31
0.0
  0
LINE
  8
LY_1
  6
CONTINUOUS
 62
     7
  5
16A
 10
72.621617
 20
31.199992
 30
0.0
 11
66.621613
 21
29.704023
 31
0.0
  0
LINE
  8
LY_1
  6
CONTINUOUS
 62
     7
  5
16B
 10
72.621613
 20
37.199997
 30
0.0
 11
72.621613
 21
31.199997
 31
0.0
  0
LINE
  8
LY_1
  6
CONTINUOUS
 62
     7
  5
16C
 10
74.121613
 20
47.0
 30
0.0
 11
74.121613
 21
40.322495
 31
0.0
  0
LINE
  8
LY_1
  6
CONTINUOUS
 62
     7
  5
16D
 10
66.621613
 20
29.704025
 30
0.0
 11
66.621613
 21
26.0
 31
0.0
  0
LINE
  8
LY_1
  6
CONTINUOUS
 62
     7
  5
16E
 10
91.621611
 20
31.199991
 30
0.0
 11
97.621615
 21
29.704022
 31
0.0
  0
LINE
  8
LY_1
  6
CONTINUOUS
 62
     7
  5
16F
 10
91.621613
 20
37.199997
 30
0.0
 11
91.621613
 21
31.199997
 31
0.0
  0
LINE
  8
LY_1
  6
CONTINUOUS
 62
     7
  5
170
 10
80.621613
 20
16.5
 30
0.0
 11
80.621613
 21
15.299783
 31
0.0
  0
LINE
  8
LY_1
  6
CONTINUOUS
 62
     7
  5
171
 10
67.121613
 20
26.0
 30
0.0
 11
67.121613
 21
20.5
 31
0.0
  0
LINE
  8
LY_1
  6
CONTINUOUS
 62
     7
  5
172
 10
68.665235
 20
17.36046
 30
0.0
 11
68.743067
 21
8.441701
 31
0.0
  0
LINE
  8
LY_1
  6
CONTINUOUS
 62
     7
  5
173
 10
83.621613
 20
16.5
 30
0.0
 11
83.621613
 21
15.299783
 31
0.0
  0
LINE
  8
LY_1
  6
CONTINUOUS
 62
     7
  5
174
 10
74.771606
 20
47.0
 30
0.0
 11
74.771606
 21
42.0
 31
0.0
  0
LINE
  8
LY_1
  6
CONTINUOUS
 62
     7
  5
175
 10
89.471619
 20
47.0
 30
0.0
 11
89.471619
 21
42.0
 31
0.0
  0
LINE
  8
LY_1
  6
CONTINUOUS
 62
     7
  5
176
 10
90.121613
 20
47.0
 30
0.0
 11
90.121613
 21
40.322495
 31
0.0
  0
LINE
  8
LY_1
  6
CONTINUOUS
 62
     7
  5
177
 10
74.121613
 20
42.0
 30
0.0
 11
90.121613
 21
42.0
 31
0.0
  0
LINE
  8
LY_1
  6
CONTINUOUS
 62
     7
  5
178
 10
72.621613
 20
37.199997
 30
0.0
 11
91.621613
 21
37.199997
 31
0.0
  0
LINE
  8
LY_1
  6
CONTINUOUS
 62
     7
  5
179
 10
72.621613
 20
31.199997
 30
0.0
 11
91.621613
 21
31.199997
 31
0.0
  0
LINE
  8
LY_1
  6
CONTINUOUS
 62
     7
  5
17A
 10
97.121613
 20
26.0
 30
0.0
 11
97.121613
 21
20.5
 31
0.0
  0
LINE
  8
LY_1
  6
CONTINUOUS
 62
     7
  5
17B
 10
97.621613
 20
29.704025
 30
0.0
 11
97.621613
 21
26.0
 31
0.0
  0
LINE
  8
LY_1
  6
CONTINUOUS
 62
     7
  5
17C
 10
69.121613
 20
18.5
 30
0.0
 11
95.121613
 21
18.5
 31
0.0
  0
LINE
  8
LY_1
  6
CONTINUOUS
 62
     7
  5
17D
 10
66.621613
 20
26.0
 30
0.0
 11
97.621613
 21
26.0
 31
0.0
  0
LINE
  8
LY_1
  6
CONTINUOUS
 62
     7
  5
17E
 10
66.621613
 20
28.0
 30
0.0
 11
97.621613
 21
28.0
 31
0.0
  0
LINE
  8
LY_1
  6
CONTINUOUS
 62
     7
  5
17F
 10
95.577987
 20
17.360459
 30
0.0
 11
95.500154
 21
8.441702
 31
0.0
  0
LINE
  8
LY_1
  6
CONTINUOUS
 62
     7
  5
180
 10
68.121612
 20
8.082904
 30
0.0
 11
80.621986
 21
15.299999
 31
0.0
  0
LINE
  8
LY_1
  6
CONTINUOUS
 62
     7
  5
181
 10
82.121612
 20
-16.165807
 30
0.0
 11
96.121607
 21
-8.082906
 31
0.0
  0
LINE
  8
LY_1
  6
CONTINUOUS
 62
     7
  5
182
 10
83.621233
 20
15.3
 30
0.0
 11
96.121607
 21
8.082906
 31
0.0
  0
LINE
  8
LY_1
  6
CONTINUOUS
 62
     7
  5
183
 10
68.121612
 20
-8.082904
 30
0.0
 11
82.121607
 21
-16.165805
 31
0.0
  0
LINE
  8
LY_1
  6
CONTINUOUS
 62
     7
  5
184
 10
96.121613
 20
8.082904
 30
0.0
 11
96.121613
 21
-8.082904
 31
0.0
  0
LINE
  8
LY_1
  6
CONTINUOUS
 62
     7
  5
185
 10
68.121613
 20
8.082904
 30
0.0
 11
68.121613
 21
-8.082904
 31
0.0
  0
LINE
  8
LY_1
  6
CENTER
 62
     7
  5
187
 10
82.121613
 20
84.0
 30
0.0
 11
82.121613
 21
-19.0
 31
0.0
  0
LINE
  8
LY_1
  6
CONTINUOUS
 62
     7
  5
188
 10
-7.35
 20
47.0
 30
0.0
 11
-7.35
 21
42.0
 31
0.0
  0
LINE
  8
LY_1
  6
CONTINUOUS
 62
     7
  5
189
 10
7.35
 20
47.0
 30
0.0
 11
7.35
 21
42.0
 31
0.0
  0
LINE
  8
LY_1
  6
CONTINUOUS
 62
     7
  5
18A
 10
-15.814386
 20
67.799998
 30
0.0
 11
-15.980615
 21
69.699998
 31
0.0
  0
LINE
  8
LY_1
  6
CENTER
 62
     7
  5
18B
 10
0.0
 20
103.03067
 30
0.0
 11
0.0
 21
163.030701
 31
0.0
  0
LINE
  8
LY_1
  6
CONTINUOUS
 62
     7
  5
18C
 10
-5.499908
 20
133.030774
 30
0.0
 11
-2.749896
 21
128.267624
 31
0.0
  0
LINE
  8
LY_1
  6
CONTINUOUS
 62
     7
  5
18D
 10
5.499922
 20
133.030767
 30
0.0
 11
2.749909
 21
128.267617
 31
0.0
  0
LINE
  8
LY_1
  6
CONTINUOUS
 62
     7
  5
18E
 10
-2.750003
 20
128.267548
 30
0.0
 11
2.749994
 21
128.267548
 31
0.0
  0
LINE
  8
LY_1
  6
CONTINUOUS
 62
     7
  5
18F
 10
-5.50009
 20
133.03075
 30
0.0
 11
-2.750077
 21
137.7939
 31
0.0
  0
LINE
  8
LY_1
  6
CONTINUOUS
 62
     7
  5
190
 10
5.500103
 20
133.030758
 30
0.0
 11
2.750091
 21
137.793908
 31
0.0
  0
LINE
  8
LY_1
  6
CONTINUOUS
 62
     7
  5
191
 10
-2.750003
 20
137.793823
 30
0.0
 11
2.749994
 21
137.793823
 31
0.0
  0
LINE
  8
LY_1
  6
CONTINUOUS
 62
     7
  5
192
 10
-3.282504
 20
120.245474
 30
0.0
 11
-1.658471
 21
122.662628
 31
0.0
  0
LINE
  8
LY_1
  6
CONTINUOUS
 62
     7
  5
193
 10
12.713693
 20
129.480559
 30
0.0
 11
9.808376
 21
129.282684
 31
0.0
  0
LINE
  8
LY_1
  6
CONTINUOUS
 62
     7
  5
194
 10
-9.431146
 20
142.266225
 30
0.0
 11
-8.149846
 21
139.651194
 31
0.0
  0
LINE
  8
LY_1
  6
CONTINUOUS
 62
     7
  5
195
 10
-9.431261
 20
123.795512
 30
0.0
 11
-8.149974
 21
126.410515
 31
0.0
  0
LINE
  8
LY_1
  6
CONTINUOUS
 62
     7
  5
196
 10
12.713643
 20
136.580553
 30
0.0
 11
9.808329
 21
136.778429
 31
0.0
  0
LINE
  8
LY_1
  6
CONTINUOUS
 62
     7
  5
197
 10
-3.28242
 20
145.816164
 30
0.0
 11
-1.658396
 21
143.399022
 31
0.0
  0
LINE
  8
LY_1
  6
CONTINUOUS
 62
     7
  5
198
 10
-5.291281
 20
114.366113
 30
0.0
 11
-4.341646
 21
116.213834
 31
0.0
  0
LINE
  8
LY_1
  6
CONTINUOUS
 62
     7
  5
199
 10
5.291355
 20
114.366128
 30
0.0
 11
4.341713
 21
116.213862
 31
0.0
  0
LINE
  8
LY_1
  6
CONTINUOUS
 62
     7
  5
19A
 10
-5.290962
 20
151.695109
 30
0.0
 11
-4.341328
 21
149.847389
 31
0.0
  0
LINE
  8
LY_1
  6
CONTINUOUS
 62
     7
  5
19B
 10
5.290919
 20
151.695112
 30
0.0
 11
4.341277
 21
149.847378
 31
0.0
  0
LINE
  8
LY_1
  6
CONTINUOUS
 62
     7
  5
19C
 10
13.518402
 20
119.115998
 30
0.0
 11
12.393047
 21
120.862266
 31
0.0
  0
LINE
  8
LY_1
  6
CONTINUOUS
 62
     7
  5
19D
 10
18.809494
 20
128.280709
 30
0.0
 11
16.734488
 21
128.382161
 31
0.0
  0
LINE
  8
LY_1
  6
CONTINUOUS
 62
     7
  5
19E
 10
13.518356
 20
146.944992
 30
0.0
 11
12.393001
 21
145.198724
 31
0.0
  0
LINE
  8
LY_1
  6
CONTINUOUS
 62
     7
  5
19F
 10
18.809461
 20
137.780695
 30
0.0
 11
16.734456
 21
137.679243
 31
0.0
  0
LINE
  8
LY_1
  6
CONTINUOUS
 62
     7
  5
1A0
 10
-13.51841
 20
119.115985
 30
0.0
 11
-12.393055
 21
120.862253
 31
0.0
  0
LINE
  8
LY_1
  6
CONTINUOUS
 62
     7
  5
1A1
 10
-18.809494
 20
128.280709
 30
0.0
 11
-16.734488
 21
128.382161
 31
0.0
  0
LINE
  8
LY_1
  6
CONTINUOUS
 62
     7
  5
1A2
 10
-13.518356
 20
146.944992
 30
0.0
 11
-12.393001
 21
145.198724
 31
0.0
  0
LINE
  8
LY_1
  6
CONTINUOUS
 62
     7
  5
1A3
 10
-18.809463
 20
137.780695
 30
0.0
 11
-16.734458
 21
137.679243
 31
0.0
  0
LINE
  8
LY_1
  6
CENTER
 62
     7
  5
1A4
 10
-30.000015
 20
133.030685
 30
0.0
 11
30.000015
 21
133.030685
 31
0.0
  0
LINE
  8
LY_1
  6
CONTINUOUS
 62
     7
  5
1A5
 10
77.121613
 20
74.0
 30
0.0
 11
77.121613
 21
72.900009
 31
0.0
  0
LINE
  8
LY_1
  6
CONTINUOUS
 62
     7
  5
1A6
 10
76.121613
 20
71.900009
 30
0.0
 11
66.91124
 21
71.900009
 31
0.0
  0
LINE
  8
LY_1
  6
CONTINUOUS
 62
     7
  5
1A7
 10
77.10141
 20
72.699997
 30
0.0
 11
66.003357
 21
72.699997
 31
0.0
  0
LINE
  8
LY_1
  6
CONTINUOUS
 62
     7
  5
1A8
 10
77.293564
 20
75.300003
 30
0.0
 11
67.91124
 21
75.300003
 31
0.0
  0
LINE
  8
LY_1
  6
CONTINUOUS
 62
     7
  5
1A9
 10
65.91124
 20
73.300003
 30
0.0
 11
65.91124
 21
72.900009
 31
0.0
  0
LINE
  8
LY_1
  6
CONTINUOUS
 62
     7
  5
1AA
 10
78.198608
 20
77.100006
 30
0.0
 11
69.924332
 21
77.100006
 31
0.0
  0
LINE
  8
LY_1
  6
CONTINUOUS
 62
     7
  5
1AB
 10
59.886953
 20
67.800031
 30
0.0
 11
59.720723
 21
69.700031
 31
0.0
  0
LINE
  8
LY_1
  6
CONTINUOUS
 62
     7
  5
1AC
 10
87.121613
 20
74.0
 30
0.0
 11
87.121613
 21
72.900009
 31
0.0
  0
LINE
  8
LY_1
  6
CONTINUOUS
 62
     7
  5
1AD
 10
88.121613
 20
71.900009
 30
0.0
 11
97.331985
 21
71.900009
 31
0.0
  0
LINE
  8
LY_1
  6
CONTINUOUS
 62
     7
  5
1AE
 10
87.141815
 20
72.699997
 30
0.0
 11
98.239868
 21
72.699997
 31
0.0
  0
LINE
  8
LY_1
  6
CONTINUOUS
 62
     7
  5
1AF
 10
86.949661
 20
75.300003
 30
0.0
 11
96.331985
 21
75.300003
 31
0.0
  0
LINE
  8
LY_1
  6
CONTINUOUS
 62
     7
  5
1B0
 10
98.331985
 20
73.300003
 30
0.0
 11
98.331985
 21
72.900009
 31
0.0
  0
LINE
  8
LY_1
  6
CONTINUOUS
 62
     7
  5
1B1
 10
86.044617
 20
77.100006
 30
0.0
 11
94.318893
 21
77.100006
 31
0.0
  0
LINE
  8
LY_1
  6
CONTINUOUS
 62
     7
  5
1B2
 10
104.356289
 20
67.799953
 30
0.0
 11
104.522518
 21
69.699952
 31
0.0
  0
LINE
  8
LY_1
  6
CONTINUOUS
 62
     7
  5
1B3
 10
78.121612
 20
57.500001
 30
0.0
 11
78.121612
 21
64.000001
 31
0.0
  0
LINE
  8
LY_1
  6
CONTINUOUS
 62
     7
  5
1B4
 10
86.121612
 20
57.500001
 30
0.0
 11
86.121612
 21
64.000001
 31
0.0
  0
LINE
  8
LY_1
  6
CONTINUOUS
 62
     7
  5
1B5
 10
75.016803
 20
65.999961
 30
0.0
 11
71.899107
 21
67.799964
 31
0.0
  0
LINE
  8
LY_1
  6
CONTINUOUS
 62
     7
  5
1B6
 10
89.226456
 20
66.000011
 30
0.0
 11
92.344153
 21
67.800014
 31
0.0
  0
LINE
  8
LY_1
  6
CONTINUOUS
 62
     7
  5
1B7
 10
59.720718
 20
69.699997
 30
0.0
 11
104.522507
 21
69.699997
 31
0.0
  0
LINE
  8
LY_1
  6
CONTINUOUS
 62
     7
  5
1B8
 10
74.922446
 20
67.800034
 30
0.0
 11
75.121595
 21
64.000043
 31
0.0
  0
LINE
  8
LY_1
  6
CONTINUOUS
 62
     7
  5
1B9
 10
89.320764
 20
67.799973
 30
0.0
 11
89.121615
 21
63.999981
 31
0.0
  0
LINE
  8
LY_1
  6
CONTINUOUS
 62
     7
  5
1BA
 10
59.886948
 20
67.800003
 30
0.0
 11
104.356277
 21
67.800003
 31
0.0
  0
LINE
  8
LY_1
  6
CONTINUOUS
 62
     7
  5
1BB
 10
75.121628
 20
64.0
 30
0.0
 11
89.121628
 21
64.0
 31
0.0
  0
LINE
  8
LY_1
  6
CONTINUOUS
 62
     7
  5
1BC
 10
91.121613
 20
57.5
 30
0.0
 11
91.121613
 21
47.0
 31
0.0
  0
LINE
  8
LY_1
  6
CONTINUOUS
 62
     7
  5
1BD
 10
73.121613
 20
57.5
 30
0.0
 11
73.121613
 21
47.0
 31
0.0
  0
LINE
  8
LY_1
  6
CONTINUOUS
 62
     7
  5
1BE
 10
73.121613
 20
47.0
 30
0.0
 11
91.121613
 21
47.0
 31
0.0
  0
LINE
  8
LY_1
  6
CONTINUOUS
 62
     7
  5
1BF
 10
73.121613
 20
57.5
 30
0.0
 11
91.121613
 21
57.5
 31
0.0
  0
LINE
  8
LY_1
  6
CONTINUOUS
 62
     7
  5
1C0
 10
-15.655567
 20
71.900009
 30
0.0
 11
-17.809495
 21
71.900009
 31
0.0
  0
LINE
  8
LY_1
  6
CONTINUOUS
 62
     7
  5
1C1
 10
-15.501632
 20
72.699997
 30
0.0
 11
-18.717378
 21
72.699997
 31
0.0
  0
LINE
  8
LY_1
  6
CONTINUOUS
 62
     7
  5
1C2
 10
-14.768041
 20
75.300003
 30
0.0
 11
-16.809495
 21
75.300003
 31
0.0
  0
LINE
  8
LY_1
  6
CONTINUOUS
 62
     7
  5
1C3
 10
-18.809495
 20
73.300003
 30
0.0
 11
-18.809495
 21
72.900009
 31
0.0
  0
LINE
  8
LY_1
  6
CONTINUOUS
 62
     7
  5
1C4
 10
-9.790092
 20
73.300003
 30
0.0
 11
-9.790092
 21
72.900009
 31
0.0
  0
LINE
  8
LY_1
  6
CONTINUOUS
 62
     7
  5
1C5
 10
-13.635827
 20
77.100006
 30
0.0
 11
-14.796396
 21
77.100006
 31
0.0
  0
LINE
  8
LY_1
  6
CONTINUOUS
 62
     7
  5
1C6
 10
15.655566
 20
71.900009
 30
0.0
 11
17.809494
 21
71.900009
 31
0.0
  0
LINE
  8
LY_1
  6
CONTINUOUS
 62
     7
  5
1C7
 10
15.501631
 20
72.699997
 30
0.0
 11
18.717377
 21
72.699997
 31
0.0
  0
LINE
  8
LY_1
  6
CONTINUOUS
 62
     7
  5
1C8
 10
14.76804
 20
75.300003
 30
0.0
 11
16.809494
 21
75.300003
 31
0.0
  0
LINE
  8
LY_1
  6
CONTINUOUS
 62
     7
  5
1C9
 10
18.809494
 20
73.300003
 30
0.0
 11
18.809494
 21
72.900009
 31
0.0
  0
LINE
  8
LY_1
  6
CONTINUOUS
 62
     7
  5
1CA
 10
-8.790092
 20
71.900009
 30
0.0
 11
8.790091
 21
71.900009
 31
0.0
  0
LINE
  8
LY_1
  6
CONTINUOUS
 62
     7
  5
1CB
 10
-9.790092
 20
72.699997
 30
0.0
 11
9.697973
 21
72.699997
 31
0.0
  0
LINE
  8
LY_1
  6
CONTINUOUS
 62
     7
  5
1CC
 10
-7.790092
 20
75.300003
 30
0.0
 11
7.790091
 21
75.300003
 31
0.0
  0
LINE
  8
LY_1
  6
CONTINUOUS
 62
     7
  5
1CD
 10
9.790091
 20
73.300003
 30
0.0
 11
9.790091
 21
72.900009
 31
0.0
  0
LINE
  8
LY_1
  6
CONTINUOUS
 62
     7
  5
1CE
 10
13.635826
 20
77.100006
 30
0.0
 11
14.796394
 21
77.100006
 31
0.0
  0
LINE
  8
LY_1
  6
CONTINUOUS
 62
     7
  5
1CF
 10
-5.777001
 20
77.100006
 30
0.0
 11
5.777
 21
77.100006
 31
0.0
  0
LINE
  8
LY_1
  6
CONTINUOUS
 62
     7
  5
1D0
 10
15.814385
 20
67.799998
 30
0.0
 11
15.980614
 21
69.699998
 31
0.0
  0
LINE
  8
LY_1
  6
CONTINUOUS
 62
     7
  5
1D1
 10
24.833785
 20
67.800002
 30
0.0
 11
25.000015
 21
69.700002
 31
0.0
  0
LINE
  8
LY_1
  6
CONTINUOUS
 62
     7
  5
1D2
 10
-4.900006
 20
57.5
 30
0.0
 11
-4.900006
 21
47.0
 31
0.0
  0
LINE
  8
LY_1
  6
CONTINUOUS
 62
     7
  5
1D3
 10
4.900005
 20
57.5
 30
0.0
 11
4.900005
 21
47.0
 31
0.0
  0
LINE
  8
LY_1
  6
CONTINUOUS
 62
     7
  5
1D4
 10
-4.0
 20
57.5
 30
0.0
 11
-4.0
 21
64.0
 31
0.0
  0
LINE
  8
LY_1
  6
CONTINUOUS
 62
     7
  5
1D5
 10
4.0
 20
57.5
 30
0.0
 11
4.0
 21
64.0
 31
0.0
  0
LINE
  8
LY_1
  6
CONTINUOUS
 62
     7
  5
1D6
 10
-7.104846
 20
65.999983
 30
0.0
 11
-10.222542
 21
67.799986
 31
0.0
  0
LINE
  8
LY_1
  6
CONTINUOUS
 62
     7
  5
1D7
 10
7.104832
 20
65.999976
 30
0.0
 11
10.222529
 21
67.799979
 31
0.0
  0
LINE
  8
LY_1
  6
CONTINUOUS
 62
     7
  5
1D8
 10
-24.999997
 20
69.699985
 30
0.0
 11
-24.833768
 21
67.799986
 31
0.0
  0
LINE
  8
LY_1
  6
CONTINUOUS
 62
     7
  5
1D9
 10
-24.999985
 20
69.699997
 30
0.0
 11
25.000015
 21
69.699997
 31
0.0
  0
LINE
  8
LY_1
  6
CONTINUOUS
 62
     7
  5
1DA
 10
-7.199142
 20
67.800004
 30
0.0
 11
-6.999993
 21
64.000013
 31
0.0
  0
LINE
  8
LY_1
  6
CONTINUOUS
 62
     7
  5
1DB
 10
7.199157
 20
67.800003
 30
0.0
 11
7.000008
 21
64.000012
 31
0.0
  0
LINE
  8
LY_1
  6
CONTINUOUS
 62
     7
  5
1DC
 10
-24.833755
 20
67.800003
 30
0.0
 11
24.833786
 21
67.800003
 31
0.0
  0
LINE
  8
LY_1
  6
CONTINUOUS
 62
     7
  5
1DD
 10
-6.999992
 20
64.0
 30
0.0
 11
7.000008
 21
64.0
 31
0.0
  0
LINE
  8
LY_1
  6
CONTINUOUS
 62
     7
  5
1DE
 10
-9.799993
 20
57.5
 30
0.0
 11
-9.799993
 21
47.0
 31
0.0
  0
LINE
  8
LY_1
  6
CONTINUOUS
 62
     7
  5
1DF
 10
9.800008
 20
57.5
 30
0.0
 11
9.800008
 21
47.0
 31
0.0
  0
LINE
  8
LY_1
  6
CONTINUOUS
 62
     7
  5
1E0
 10
-9.799993
 20
47.0
 30
0.0
 11
9.800008
 21
47.0
 31
0.0
  0
LINE
  8
LY_1
  6
CONTINUOUS
 62
     7
  5
1E1
 10
-9.799993
 20
57.5
 30
0.0
 11
9.800008
 21
57.5
 31
0.0
  0
LINE
  8
LY_1
  6
CONTINUOUS
 62
     7
  5
1E2
 10
5.484828
 20
37.199997
 30
0.0
 11
5.484828
 21
31.199997
 31
0.0
  0
LINE
  8
LY_1
  6
CONTINUOUS
 62
     7
  5
1E3
 10
-8.0
 20
47.0
 30
0.0
 11
-8.0
 21
40.965302
 31
0.0
  0
LINE
  8
LY_1
  6
CONTINUOUS
 62
     7
  5
1E4
 10
-10.649974
 20
31.199997
 30
0.0
 11
-15.5
 21
29.99075
 31
0.0
  0
LINE
  8
LY_1
  6
CONTINUOUS
 62
     7
  5
1E5
 10
-10.65
 20
37.199997
 30
0.0
 11
-10.65
 21
31.199997
 31
0.0
  0
LINE
  8
LY_1
  6
CONTINUOUS
 62
     7
  5
1E6
 10
8.0
 20
47.0
 30
0.0
 11
8.0
 21
40.965302
 31
0.0
  0
LINE
  8
LY_1
  6
CONTINUOUS
 62
     7
  5
1E7
 10
10.649974
 20
31.199997
 30
0.0
 11
15.5
 21
29.99075
 31
0.0
  0
LINE
  8
LY_1
  6
CONTINUOUS
 62
     7
  5
1E8
 10
10.65
 20
37.199997
 30
0.0
 11
10.65
 21
31.199997
 31
0.0
  0
LINE
  8
LY_1
  6
CONTINUOUS
 62
     7
  5
1E9
 10
-8.0
 20
42.0
 30
0.0
 11
8.0
 21
42.0
 31
0.0
  0
LINE
  8
LY_1
  6
CONTINUOUS
 62
     7
  5
1EA
 10
-10.65
 20
37.199997
 30
0.0
 11
10.65
 21
37.199997
 31
0.0
  0
LINE
  8
LY_1
  6
CONTINUOUS
 62
     7
  5
1EB
 10
-10.65
 20
31.199997
 30
0.0
 11
10.65
 21
31.199997
 31
0.0
  0
LINE
  8
LY_1
  6
CENTER
 62
     7
  5
1EC
 10
63.121613
 20
0.0
 30
0.0
 11
101.121613
 21
0.0
 31
0.0
  0
LINE
  8
LY_1
  6
CONTINUOUS
 62
     7
  5
1ED
 10
-14.499999
 20
15.299998
 30
0.0
 11
-14.067302
 21
13.68515
 31
0.0
  0
LINE
  8
LY_1
  6
CONTINUOUS
 62
     7
  5
1EE
 10
-12.25
 20
15.757586
 30
0.0
 11
-12.25
 21
9.046476
 31
0.0
  0
LINE
  8
LY_1
  6
CONTINUOUS
 62
     7
  5
1EF
 10
-13.249995
 20
17.489635
 30
0.0
 11
-13.999998
 21
17.922648
 31
0.0
  0
LINE
  8
LY_1
  6
CONTINUOUS
 62
     7
  5
1F0
 10
-15.0
 20
26.0
 30
0.0
 11
-15.0
 21
17.300003
 31
0.0
  0
LINE
  8
LY_1
  6
CONTINUOUS
 62
     7
  5
1F1
 10
-15.5
 20
29.990753
 30
0.0
 11
-15.5
 21
26.0
 31
0.0
  0
LINE
  8
LY_1
  6
CONTINUOUS
 62
     7
  5
1F2
 10
-14.5
 20
15.3
 30
0.0
 11
-21.0
 21
15.3
 31
0.0
  0
LINE
  8
LY_1
  6
CONTINUOUS
 62
     7
  5
1F3
 10
-14.5
 20
15.3
 30
0.0
 11
-14.5
 21
-15.7
 31
0.0
  0
LINE
  8
LY_1
  6
CONTINUOUS
 62
     7
  5
1F4
 10
-21.0
 20
15.3
 30
0.0
 11
-21.0
 21
-15.7
 31
0.0
  0
LINE
  8
LY_1
  6
CONTINUOUS
 62
     7
  5
1F5
 10
14.499999
 20
15.299998
 30
0.0
 11
14.067302
 21
13.68515
 31
0.0
  0
LINE
  8
LY_1
  6
CONTINUOUS
 62
     7
  5
1F6
 10
12.25
 20
15.757586
 30
0.0
 11
12.25
 21
9.046476
 31
0.0
  0
LINE
  8
LY_1
  6
CONTINUOUS
 62
     7
  5
1F7
 10
13.249995
 20
17.489635
 30
0.0
 11
13.999998
 21
17.922648
 31
0.0
  0
LINE
  8
LY_1
  6
CONTINUOUS
 62
     7
  5
1F8
 10
15.0
 20
26.0
 30
0.0
 11
15.0
 21
17.300003
 31
0.0
  0
LINE
  8
LY_1
  6
CONTINUOUS
 62
     7
  5
1F9
 10
15.5
 20
29.990753
 30
0.0
 11
15.5
 21
26.0
 31
0.0
  0
LINE
  8
LY_1
  6
CONTINUOUS
 62
     7
  5
1FA
 10
-13.957436
 20
18.5
 30
0.0
 11
13.957436
 21
18.5
 31
0.0
  0
LINE
  8
LY_1
  6
CONTINUOUS
 62
     7
  5
1FB
 10
-15.5
 20
26.0
 30
0.0
 11
15.5
 21
26.0
 31
0.0
  0
LINE
  8
LY_1
  6
CONTINUOUS
 62
     7
  5
1FC
 10
-15.5
 20
28.0
 30
0.0
 11
15.5
 21
28.0
 31
0.0
  0
LINE
  8
LY_1
  6
CONTINUOUS
 62
     7
  5
1FD
 10
14.5
 20
15.3
 30
0.0
 11
21.0
 21
15.3
 31
0.0
  0
LINE
  8
LY_1
  6
CONTINUOUS
 62
     7
  5
1FE
 10
-10.202187
 20
-12.539382
 30
0.0
 11
-10.767949
 21
-12.866025
 31
0.0
  0
LINE
  8
LY_1
  6
CONTINUOUS
 62
     7
  5
1FF
 10
-11.267949
 20
-13.0
 30
0.0
 11
-12.241883
 21
-13.0
 31
0.0
  0
LINE
  8
LY_1
  6
CONTINUOUS
 62
     7
  5
200
 10
-14.173735
 20
-14.48236
 30
0.0
 11
-14.499999
 21
-15.699996
 31
0.0
  0
LINE
  8
LY_1
  6
CONTINUOUS
 62
     7
  5
201
 10
-14.5
 20
-15.7
 30
0.0
 11
-21.0
 21
-15.7
 31
0.0
  0
LINE
  8
LY_1
  6
CONTINUOUS
 62
     7
  5
202
 10
10.202187
 20
-12.539382
 30
0.0
 11
10.767949
 21
-12.866025
 31
0.0
  0
LINE
  8
LY_1
  6
CONTINUOUS
 62
     7
  5
203
 10
11.267949
 20
-13.0
 30
0.0
 11
12.241883
 21
-13.0
 31
0.0
  0
LINE
  8
LY_1
  6
CONTINUOUS
 62
     7
  5
204
 10
14.173735
 20
-14.48236
 30
0.0
 11
14.499999
 21
-15.699996
 31
0.0
  0
LINE
  8
LY_1
  6
CONTINUOUS
 62
     7
  5
205
 10
14.5
 20
-15.7
 30
0.0
 11
21.0
 21
-15.7
 31
0.0
  0
LINE
  8
LY_1
  6
CONTINUOUS
 62
     7
  5
206
 10
14.5
 20
15.3
 30
0.0
 11
14.5
 21
-15.7
 31
0.0
  0
LINE
  8
LY_1
  6
CONTINUOUS
 62
     7
  5
207
 10
21.0
 20
15.3
 30
0.0
 11
21.0
 21
-15.7
 31
0.0
  0
LINE
  8
LY_1
  6
CENTER
 62
     7
  5
208
 10
0.0
 20
84.0
 30
0.0
 11
0.0
 21
-20.75
 31
0.0
  0
LINE
  8
LY_1
  6
CENTER
 62
     7
  5
209
 10
-26.0
 20
0.0
 30
0.0
 11
26.0
 21
0.0
 31
0.0
  0
ENDSEC
  0
EOF
