  0
SECTION
  2
HEADER
  9
$ACADVER
  1
AC1009
  9
$DWGCODEPAGE
  3
dos932
  9
$INSBASE
 10
0.0
 20
0.0
 30
0.0
  9
$EXTMIN
 10
-38.712955
 20
-74.248704
 30
0.0
  9
$EXTMAX
 10
131.000002
 20
218.139893
 30
0.0
  9
$LIMMIN
 10
-38.712955
 20
-74.248704
  9
$LIMMAX
 10
131.000002
 20
218.139893
  9
$ORTHOMODE
 70
     0
  9
$REGENMODE
 70
     1
  9
$FILLMODE
 70
     1
  9
$QTEXTMODE
 70
     0
  9
$MIRRTEXT
 70
     1
  9
$DRAGMODE
 70
     2
  9
$LTSCALE
 40
1.0
  9
$OSMODE
 70
     0
  9
$ATTMODE
 70
     1
  9
$TEXTSIZE
 40
3.3
  9
$TRACEWID
 40
0.05
  9
$TEXTSTYLE
  7
MX_NOTE_STANDARD
  9
$CLAYER
  8
LY_1
  9
$CELTYPE
  6
CONTINUOUS
  9
$CECOLOR
 62
   256
  9
$DIMSCALE
 40
1.0
  9
$DIMASZ
 40
2.5
  9
$DIMEXO
 40
0.0
  9
$DIMDLI
 40
3.75
  9
$DIMRND
 40
0.0
  9
$DIMDLE
 40
0.0
  9
$DIMEXE
 40
1.1938
  9
$DIMTP
 40
0.0
  9
$DIMTM
 40
0.0
  9
$DIMTXT
 40
3.3
  9
$DIMCEN
 40
2.5
  9
$DIMTSZ
 40
0.0
  9
$DIMTOL
 70
     0
  9
$DIMLIM
 70
     0
  9
$DIMTIH
 70
     0
  9
$DIMTOH
 70
     0
  9
$DIMSE1
 70
     0
  9
$DIMSE2
 70
     0
  9
$DIMTAD
 70
     1
  9
$DIMZIN
 70
     8
  9
$DIMBLK
  1

  9
$DIMASO
 70
     1
  9
$DIMSHO
 70
     1
  9
$DIMPOST
  1

  9
$DIMAPOST
  1

  9
$DIMALT
 70
     0
  9
$DIMALTD
 70
     4
  9
$DIMALTF
 40
0.03937
  9
$DIMLFAC
 40
1.0
  9
$DIMTOFL
 70
     1
  9
$DIMTVP
 40
0.0
  9
$DIMTIX
 70
     0
  9
$DIMSOXD
 70
     0
  9
$DIMSAH
 70
     1
  9
$DIMBLK1
  1
_OPEN30
  9
$DIMBLK2
  1
_OPEN30
  9
$DIMSTYLE
  2
MXDIMSTYLE
  9
$DIMCLRD
 70
     0
  9
$DIMCLRE
 70
     0
  9
$DIMCLRT
 70
     0
  9
$DIMTFAC
 40
1.0
  9
$DIMGAP
 40
1.0
  9
$LUNITS
 70
     2
  9
$LUPREC
 70
     4
  9
$AXISMODE
 70
     0
  9
$AXISUNIT
 10
0.0
 20
0.0
  9
$SKETCHINC
 40
0.1
  9
$FILLETRAD
 40
0.0
  9
$AUNITS
 70
     0
  9
$AUPREC
 70
     0
  9
$MENU
  1
acad
  9
$ELEVATION
 40
0.0
  9
$PELEVATION
 40
0.0
  9
$THICKNESS
 40
0.0
  9
$LIMCHECK
 70
     0
  9
$BLIPMODE
 70
     1
  9
$CHAMFERA
 40
0.0
  9
$CHAMFERB
 40
0.0
  9
$SKPOLY
 70
     0
  9
$TDCREATE
 40
2454901.550173611
  9
$TDUPDATE
 40
2454901.550173611
  9
$TDINDWG
 40
0.0000000000
  9
$TDUSRTIMER
 40
0.0000000000
  9
$USRTIMER
 70
     1
  9
$ANGBASE
 50
0.0
  9
$ANGDIR
 70
     0
  9
$PDMODE
 70
     0
  9
$PDSIZE
 40
0.0
  9
$PLINEWID
 40
0.0
  9
$COORDS
 70
     1
  9
$SPLFRAME
 70
     0
  9
$SPLINETYPE
 70
     6
  9
$SPLINESEGS
 70
     8
  9
$ATTDIA
 70
     0
  9
$ATTREQ
 70
     1
  9
$HANDLING
 70
     1
  9
$HANDSEED
  5
23B
  9
$SURFTAB1
 70
     6
  9
$SURFTAB2
 70
     6
  9
$SURFTYPE
 70
     6
  9
$SURFU
 70
     6
  9
$SURFV
 70
     6
  9
$UCSNAME
  2

  9
$UCSORG
 10
0.0
 20
0.0
 30
0.0
  9
$UCSXDIR
 10
1.0
 20
0.0
 30
0.0
  9
$UCSYDIR
 10
0.0
 20
1.0
 30
0.0
  9
$PUCSNAME
  2

  9
$PUCSORG
 10
0.0
 20
0.0
 30
0.0
  9
$PUCSXDIR
 10
1.0
 20
0.0
 30
0.0
  9
$PUCSYDIR
 10
0.0
 20
1.0
 30
0.0
  9
$USERI1
 70
     0
  9
$USERI2
 70
     0
  9
$USERI3
 70
     0
  9
$USERI4
 70
     0
  9
$USERI5
 70
     0
  9
$USERR1
 40
0.0
  9
$USERR2
 40
0.0
  9
$USERR3
 40
0.0
  9
$USERR4
 40
0.0
  9
$USERR5
 40
0.0
  9
$WORLDVIEW
 70
     1
  9
$SHADEDGE
 70
     3
  9
$SHADEDIF
 70
    70
  9
$TILEMODE
 70
     1
  9
$MAXACTVP
 70
    16
  9
$PINSBASE
 10
0.0
 20
0.0
 30
0.0
  9
$PLIMCHECK
 70
     0
  9
$PEXTMIN
 10
1.000000E+20
 20
1.000000E+20
 30
1.000000E+20
  9
$PEXTMAX
 10
-1.000000E+20
 20
-1.000000E+20
 30
-1.000000E+20
  9
$PLIMMIN
 10
0.0
 20
0.0
  9
$PLIMMAX
 10
12.0
 20
9.0
  9
$UNITMODE
 70
     0
  9
$VISRETAIN
 70
     0
  9
$PLINEGEN
 70
     1
  9
$PSLTSCALE
 70
     0
  9
$TREEDEPTH
 70
  3020
  0
ENDSEC
  0
SECTION
  2
TABLES
  0
TABLE
  2
VPORT
 70
     1
  0
VPORT
  2
*ACTIVE
 70
     0
 10
0.0
 20
0.0
 11
1.0
 21
1.0
 12
46.143523
 22
71.945594
 13
0.0
 23
0.0
 14
1.0
 24
1.0
 15
0.0
 25
0.0
 16
0.0
 26
0.0
 36
1.0
 17
0.0
 27
0.0
 37
0.0
 40
295.312482
 41
1.732051
 42
50.0
 43
0.0
 44
0.0
 50
0.0
 51
0.0
 71
     0
 72
   100
 73
     1
 74
     1
 75
     0
 76
     0
 77
     0
 78
     0
  0
ENDTAB
  0
TABLE
  2
LTYPE
 70
     2
  0
LTYPE
  2
CONTINUOUS
 70
    64
  3
Solid line
 72
    65
 73
     0
 40
0.0
  0
LTYPE
  2
CENTER
 70
    64
  3
Center ____ _ ____ _ ____ _ ____ _ ____ _ ____
 72
    65
 73
     4
 40
50.8
 49
31.75
 49
-6.35
 49
6.35
 49
-6.35
  0
ENDTAB
  0
TABLE
  2
LAYER
 70
     3
  0
LAYER
  2
0
 70
     0
 62
     7
  6
CONTINUOUS
  0
LAYER
  2
LY_1
 70
     0
 62
     7
  6
CONTINUOUS
  0
LAYER
  2
DEFPOINTS
 70
     0
 62
     7
  6
CONTINUOUS
  0
ENDTAB
  0
TABLE
  2
STYLE
 70
     3
  0
STYLE
  2
MX_NOTE_STANDARD
 70
     0
 40
0.0
 41
1.0
 50
0.0
 71
     0
 42
3.3
  3
txt.shx
  4
extfont.shx
  0
STYLE
  2
MX_DIMTXSTY_2
 70
     0
 40
0.0
 41
0.9
 50
0.0
 71
     0
 42
3.3
  3
txt.shx
  4
extfont.shx
  0
STYLE
  2
MX_DIMTXSTY_3
 70
     0
 40
0.0
 41
1.05
 50
0.0
 71
     0
 42
3.3
  3
txt.shx
  4
extfont.shx
  0
ENDTAB
  0
TABLE
  2
VIEW
 70
     0
  0
ENDTAB
  0
TABLE
  2
UCS
 70
     0
  0
ENDTAB
  0
TABLE
  2
APPID
 70
     1
  0
APPID
  2
ACAD
 70
     0
  0
ENDTAB
  0
TABLE
  2
DIMSTYLE
 70
     1
  0
DIMSTYLE
  2
MXDIMSTYLE
 70
     0
  3

  4

  5

  6
_OPEN30
  7
_OPEN30
 40
1.0
 41
2.5
 42
0.0
 43
3.75
 44
1.1938
 45
0.0
 46
0.0
 47
0.0
 48
0.0
 71
     0
 72
     0
 73
     0
 74
     0
 75
     0
 76
     0
 77
     1
 78
     8
140
3.3
141
2.5
142
0.0
143
0.03937
144
1.0
145
0.0
146
1.0
147
1.0
170
     0
171
     4
172
     1
173
     1
174
     0
175
     0
176
     0
177
     0
178
     0
  0
ENDTAB
  0
ENDSEC
  0
SECTION
  2
BLOCKS
  0
BLOCK
  8
0
  6
BYBLOCK
 62
     0
  5
20
  2
_OPEN30
 70
     2
 10
0.0
 20
0.0
 30
0.0
  3
_OPEN30
  0
LINE
  8
0
  6
BYBLOCK
 62
     0
  5
21
 10
-1.0
 20
0.267949
 30
0.0
 11
0.0
 21
0.0
 31
0.0
  0
LINE
  8
0
  6
BYBLOCK
 62
     0
  5
22
 10
0.0
 20
0.0
 30
0.0
 11
-1.0
 21
-0.267949
 31
0.0
  0
LINE
  8
0
  6
BYBLOCK
 62
     0
  5
23
 10
0.0
 20
0.0
 30
0.0
 11
-1.0
 21
0.0
 31
0.0
  0
ENDBLK
  8
0
  6
BYBLOCK
 62
     0
  5
24
  0
BLOCK
  8
0
  6
BYBLOCK
 62
     0
  5
26
  2
*D1
 70
     1
 10
0.0
 20
0.0
 30
0.0
  3
*D1
  0
LINE
  8
0
  6
CONTINUOUS
 62
   110
  5
27
 10
30.0
 20
-38.518269
 30
0.0
 11
-30.0
 21
-38.518269
 31
0.0
  0
LINE
  8
0
  6
CONTINUOUS
 62
   110
  5
28
 10
30.0
 20
-27.299999
 30
0.0
 11
30.0
 21
-39.712069
 31
0.0
  0
LINE
  8
0
  6
CONTINUOUS
 62
   110
  5
29
 10
-30.0
 20
-27.299999
 30
0.0
 11
-30.0
 21
-39.712069
 31
0.0
  0
INSERT
  8
0
  6
CONTINUOUS
 62
   110
  5
30
  2
_OPEN
 10
30.0
 20
-38.518269
 30
0.0
 41
2.19
 42
2.19
 43
2.19
  0
INSERT
  8
0
  6
CONTINUOUS
 62
   110
  5
31
  2
_OPEN
 10
-30.0
 20
-38.518269
 30
0.0
 41
2.19
 42
2.19
 50
180.0
 43
2.19
  0
TEXT
  8
0
  6
CONTINUOUS
 62
   110
  5
33
 10
-2.210197
 20
-37.518269
 30
0.0
 40
3.3
  1
60
 41
1.017352
  7
MX_DIMTXSTY_2
 11
-2.210197
 21
-35.868269
 31
0.0
 73
     2
  0
POINT
  8
DEFPOINTS
  6
CONTINUOUS
 62
     0
  5
34
 10
30.0
 20
-27.299999
 30
0.0
  0
POINT
  8
DEFPOINTS
  6
CONTINUOUS
 62
     0
  5
35
 10
-30.0
 20
-27.299999
 30
0.0
  0
POINT
  8
DEFPOINTS
  6
CONTINUOUS
 62
     0
  5
36
 10
-30.0
 20
-38.518269
 30
0.0
  0
ENDBLK
  8
0
  6
BYBLOCK
 62
     0
  5
37
  0
BLOCK
  8
0
  6
BYBLOCK
 62
     0
  5
2B
  2
_OPEN
 70
     2
 10
0.0
 20
0.0
 30
0.0
  3
_OPEN
  0
LINE
  8
0
  6
BYBLOCK
 62
     0
  5
2C
 10
-1.0
 20
0.166667
 30
0.0
 11
0.0
 21
0.0
 31
0.0
  0
LINE
  8
0
  6
BYBLOCK
 62
     0
  5
2D
 10
0.0
 20
0.0
 30
0.0
 11
-1.0
 21
-0.166667
 31
0.0
  0
LINE
  8
0
  6
BYBLOCK
 62
     0
  5
2E
 10
0.0
 20
0.0
 30
0.0
 11
-1.0
 21
0.0
 31
0.0
  0
ENDBLK
  8
0
  6
BYBLOCK
 62
     0
  5
2F
  0
BLOCK
  8
0
  6
BYBLOCK
 62
     0
  5
3A
  2
*D3
 70
     1
 10
0.0
 20
0.0
 30
0.0
  3
*D3
  0
LINE
  8
0
  6
CONTINUOUS
 62
   110
  5
3B
 10
47.358593
 20
117.999992
 30
0.0
 11
47.358593
 21
0.0
 31
0.0
  0
LINE
  8
0
  6
CONTINUOUS
 62
   110
  5
3C
 10
27.899719
 20
117.999992
 30
0.0
 11
49.059322
 21
117.999992
 31
0.0
  0
LINE
  8
0
  6
CONTINUOUS
 62
   110
  5
3D
 10
35.0
 20
0.0
 30
0.0
 11
48.552395
 21
0.0
 31
0.0
  0
INSERT
  8
0
  6
CONTINUOUS
 62
   110
  5
3E
  2
_OPEN
 10
47.358593
 20
117.999992
 30
0.0
 41
2.19
 42
2.19
 50
90.0
 43
2.19
  0
INSERT
  8
0
  6
CONTINUOUS
 62
   110
  5
3F
  2
_OPEN
 10
47.358593
 20
0.0
 30
0.0
 41
2.19
 42
2.19
 50
270.0
 43
2.19
  0
TEXT
  8
0
  6
CONTINUOUS
 62
   110
  5
41
 10
46.358593
 20
55.410639
 30
0.0
 40
3.3
  1
118
 50
90.0
 41
1.027733
  7
MX_DIMTXSTY_3
 11
44.708593
 21
55.410639
 31
0.0
 73
     2
  0
POINT
  8
DEFPOINTS
  6
CONTINUOUS
 62
     0
  5
42
 10
27.899719
 20
117.999992
 30
0.0
  0
POINT
  8
DEFPOINTS
  6
CONTINUOUS
 62
     0
  5
43
 10
35.0
 20
0.0
 30
0.0
  0
POINT
  8
DEFPOINTS
  6
CONTINUOUS
 62
     0
  5
44
 10
47.358593
 20
0.0
 30
0.0
  0
ENDBLK
  8
0
  6
BYBLOCK
 62
     0
  5
45
  0
BLOCK
  8
0
  6
BYBLOCK
 62
     0
  5
48
  2
*D4
 70
     1
 10
0.0
 20
0.0
 30
0.0
  3
*D4
  0
LINE
  8
0
  6
CONTINUOUS
 62
   110
  5
49
 10
-34.999977
 20
132.631119
 30
0.0
 11
35.0
 21
132.631119
 31
0.0
  0
LINE
  8
0
  6
CONTINUOUS
 62
   110
  5
4A
 10
-34.999977
 20
107.5
 30
0.0
 11
-34.999977
 21
133.824919
 31
0.0
  0
LINE
  8
0
  6
CONTINUOUS
 62
   110
  5
4B
 10
35.0
 20
107.5
 30
0.0
 11
35.0
 21
133.824919
 31
0.0
  0
INSERT
  8
0
  6
CONTINUOUS
 62
   110
  5
4C
  2
_OPEN
 10
-34.999977
 20
132.631119
 30
0.0
 41
2.19
 42
2.19
 50
180.0
 43
2.19
  0
INSERT
  8
0
  6
CONTINUOUS
 62
   110
  5
4D
  2
_OPEN
 10
35.0
 20
132.631119
 30
0.0
 41
2.19
 42
2.19
 43
2.19
  0
TEXT
  8
0
  6
CONTINUOUS
 62
   110
  5
4E
 10
-3.637581
 20
133.631119
 30
0.0
 40
3.3
  1
%%c70
 41
0.940033
  7
MX_DIMTXSTY_2
 11
-3.637581
 21
135.281119
 31
0.0
 73
     2
  0
POINT
  8
DEFPOINTS
  6
CONTINUOUS
 62
     0
  5
4F
 10
-34.999977
 20
107.5
 30
0.0
  0
POINT
  8
DEFPOINTS
  6
CONTINUOUS
 62
     0
  5
50
 10
35.0
 20
107.5
 30
0.0
  0
POINT
  8
DEFPOINTS
  6
CONTINUOUS
 62
     0
  5
51
 10
35.0
 20
132.631119
 30
0.0
  0
ENDBLK
  8
0
  6
BYBLOCK
 62
     0
  5
52
  0
ENDSEC
  0
SECTION
  2
ENTITIES
  0
DIMENSION
  8
LY_1
  6
CONTINUOUS
 62
   110
  5
38
  2
*D1
 10
-30.0
 20
-38.518269
 30
0.0
 11
0.0
 21
-38.518269
 31
0.0
 70
   128
  1
<>
 13
30.0
 23
-27.299999
 33
0.0
 14
-30.0
 24
-27.299999
 34
0.0
  3
MXDIMSTYLE
1001
ACAD
1000
DSTYLE
1002
{
1070
     6
1000
_OPEN
1070
     7
1000
_OPEN
1070
    41
1040
2.19
1070
   271
1070
     0
1070
   284
1070
     8
1070
   340
1005
32
1070
   343
1005
2A
1070
   344
1005
2A
1002
}
  0
DIMENSION
  8
LY_1
  6
CONTINUOUS
 62
   110
  5
46
  2
*D3
 10
47.358593
 20
0.0
 30
0.0
 11
47.358593
 21
58.999996
 31
0.0
 70
   128
  1
<>
 13
27.899719
 23
117.999992
 33
0.0
 14
35.0
 24
0.0
 34
0.0
 50
90.0
  3
MXDIMSTYLE
1001
ACAD
1000
DSTYLE
1002
{
1070
     6
1000
_OPEN
1070
     7
1000
_OPEN
1070
    41
1040
2.19
1070
    44
1040
1.447266
1070
   271
1070
     0
1070
   284
1070
     8
1070
   340
1005
40
1070
   343
1005
2A
1070
   344
1005
2A
1002
}
  0
DIMENSION
  8
LY_1
  6
CONTINUOUS
 62
   110
  5
53
  2
*D4
 10
35.0
 20
132.631119
 30
0.0
 11
0.000011
 21
132.631119
 31
0.0
 70
   128
  1
%%c<>
 13
-34.999977
 23
107.5
 33
0.0
 14
35.0
 24
107.5
 34
0.0
  3
MXDIMSTYLE
1001
ACAD
1000
DSTYLE
1002
{
1070
     6
1000
_OPEN
1070
     7
1000
_OPEN
1070
    41
1040
2.19
1070
   271
1070
     0
1070
   284
1070
     8
1070
   340
1005
32
1070
   343
1005
2A
1070
   344
1005
2A
1002
}
  0
TEXT
  8
LY_1
  6
CONTINUOUS
 62
   110
  5
54
 10
-36.302261
 20
-57.415268
 30
0.0
 40
4.167179
  1
      GATE VALVE  11/4
  7
MX_NOTE_STANDARD
  0
TEXT
  8
LY_1
  6
CONTINUOUS
 62
   110
  5
55
 10
-36.363042
 20
-73.415268
 30
0.0
 40
4.167179
  1
KITZ
 41
0.912486
  7
MX_NOTE_STANDARD
  0
TEXT
  8
LY_1
  6
CONTINUOUS
 62
   110
  5
56
 10
-36.285441
 20
-65.415268
 30
0.0
 40
4.167179
  1
FIG   FH11/4
 41
1.024219
  7
MX_NOTE_STANDARD
  0
TEXT
  8
LY_1
  6
CONTINUOUS
 62
   110
  5
57
 10
-36.363042
 20
-49.415268
 30
0.0
 40
4.167179
  1
NAME  CLASS 125 FORGED BRASS
 41
0.912486
  7
MX_NOTE_STANDARD
  0
ARC
  8
LY_1
  6
CONTINUOUS
 62
     3
  5
58
 10
9.708367
 20
180.397278
 30
0.0
 40
0.558328
 50
122.12564
 51
173.172357
  0
ARC
  8
LY_1
  6
CONTINUOUS
 62
     3
  5
59
 10
9.974234
 20
179.973862
 30
0.0
 40
1.058326
 50
85.578138
 51
122.125667
  0
ARC
  8
LY_1
  6
CONTINUOUS
 62
     3
  5
5A
 10
9.953143
 20
179.975693
 30
0.0
 40
1.058342
 50
47.875262
 51
84.431759
  0
ARC
  8
LY_1
  6
CONTINUOUS
 62
     3
  5
5B
 10
10.28851
 20
180.346527
 30
0.0
 40
0.558333
 50
356.847926
 51
47.87505
  0
ARC
  8
LY_1
  6
CONTINUOUS
 62
     3
  5
5C
 10
10.291636
 20
180.382233
 30
0.0
 40
0.558329
 50
302.125717
 51
353.172373
  0
ARC
  8
LY_1
  6
CONTINUOUS
 62
     3
  5
5D
 10
10.02575
 20
180.805649
 30
0.0
 40
1.058321
 50
265.581364
 51
302.125485
  0
ARC
  8
LY_1
  6
CONTINUOUS
 62
     3
  5
5E
 10
9.974234
 20
179.973862
 30
0.0
 40
1.250003
 50
85.485425
 51
122.12534
  0
ARC
  8
LY_1
  6
CONTINUOUS
 62
     3
  5
5F
 10
10.28851
 20
180.346527
 30
0.0
 40
0.75
 50
356.378133
 51
47.874592
  0
ARC
  8
LY_1
  6
CONTINUOUS
 62
     3
  5
60
 10
9.953143
 20
179.975693
 30
0.0
 40
1.250006
 50
47.875005
 51
84.514664
  0
ARC
  8
LY_1
  6
CONTINUOUS
 62
     3
  5
61
 10
9.711474
 20
180.432953
 30
0.0
 40
0.75
 50
176.378133
 51
227.874631
  0
ARC
  8
LY_1
  6
CONTINUOUS
 62
     3
  5
62
 10
10.04686
 20
180.803818
 30
0.0
 40
1.249995
 50
227.874526
 51
264.514406
  0
ARC
  8
LY_1
  6
CONTINUOUS
 62
     3
  5
63
 10
9.708367
 20
180.397278
 30
0.0
 40
0.749998
 50
122.12549
 51
173.642123
  0
ARC
  8
LY_1
  6
CONTINUOUS
 62
     3
  5
64
 10
10.291636
 20
180.382233
 30
0.0
 40
0.749998
 50
302.125485
 51
353.642116
  0
ARC
  8
LY_1
  6
CONTINUOUS
 62
     3
  5
65
 10
10.02575
 20
180.805649
 30
0.0
 40
1.249987
 50
265.485591
 51
302.125294
  0
ARC
  8
LY_1
  6
CONTINUOUS
 62
     3
  5
66
 10
2.560425
 20
190.806366
 30
0.0
 40
0.333328
 50
90.000003
 51
180.000005
  0
ARC
  8
LY_1
  6
CONTINUOUS
 62
     3
  5
67
 10
2.482314
 20
190.785568
 30
0.0
 40
0.333331
 50
274.657995
 51
0.0
  0
ARC
  8
LY_1
  6
CONTINUOUS
 62
     3
  5
68
 10
2.535428
 20
190.76059
 30
0.0
 40
0.308332
 50
180.000009
 51
265.157366
  0
ARC
  8
LY_1
  6
CONTINUOUS
 62
     3
  5
69
 10
3.952897
 20
190.846436
 30
0.0
 40
0.012501
 50
312.505081
 51
90.000003
  0
ARC
  8
LY_1
  6
CONTINUOUS
 62
     3
  5
6A
 10
4.332661
 20
190.784943
 30
0.0
 40
0.354822
 50
312.504924
 51
90.000003
  0
ARC
  8
LY_1
  6
CONTINUOUS
 62
     3
  5
6B
 10
3.299439
 20
189.339737
 30
0.0
 40
0.012501
 50
132.501859
 51
270.000001
  0
ARC
  8
LY_1
  6
CONTINUOUS
 62
     3
  5
6C
 10
2.476065
 20
188.994629
 30
0.0
 40
0.35489
 50
132.50235
 51
270.000001
  0
ARC
  8
LY_1
  6
CONTINUOUS
 62
     3
  5
6D
 10
4.34374
 20
188.98349
 30
0.0
 40
0.34375
 50
269.999997
 51
90.000003
  0
ARC
  8
LY_1
  6
CONTINUOUS
 62
     3
  5
6E
 10
-0.412024
 20
190.806305
 30
0.0
 40
0.333313
 50
90.000003
 51
180.000005
  0
ARC
  8
LY_1
  6
CONTINUOUS
 62
     3
  5
6F
 10
-0.490134
 20
190.785492
 30
0.0
 40
0.333346
 50
274.657872
 51
0.0
  0
ARC
  8
LY_1
  6
CONTINUOUS
 62
     3
  5
70
 10
-0.437037
 20
190.760483
 30
0.0
 40
0.308333
 50
180.000009
 51
265.156956
  0
ARC
  8
LY_1
  6
CONTINUOUS
 62
     3
  5
71
 10
0.580452
 20
188.934052
 30
0.0
 40
0.294306
 50
180.000009
 51
0.0
  0
ARC
  8
LY_1
  6
CONTINUOUS
 62
     3
  5
72
 10
1.466206
 20
190.795883
 30
0.0
 40
0.343735
 50
269.999997
 51
90.000003
  0
ARC
  8
LY_1
  6
CONTINUOUS
 62
     3
  5
73
 10
-1.460938
 20
190.84549
 30
0.0
 40
0.294287
 50
0.0
 51
180.000005
  0
ARC
  8
LY_1
  6
CONTINUOUS
 62
     3
  5
74
 10
-1.460938
 20
188.934052
 30
0.0
 40
0.294286
 50
180.000009
 51
0.0
  0
ARC
  8
LY_1
  6
CONTINUOUS
 62
     3
  5
75
 10
-2.478608
 20
190.884491
 30
0.0
 40
0.250007
 50
69.541359
 51
129.102678
  0
ARC
  8
LY_1
  6
CONTINUOUS
 62
     3
  5
76
 10
-2.47118
 20
190.744095
 30
0.0
 40
0.291675
 50
211.49065
 51
266.529141
  0
ARC
  8
LY_1
  6
CONTINUOUS
 62
     3
  5
77
 10
-2.507727
 20
190.785767
 30
0.0
 40
0.33333
 50
273.248961
 51
0.0
  0
ARC
  8
LY_1
  6
CONTINUOUS
 62
     3
  5
78
 10
-2.507727
 20
190.806427
 30
0.0
 40
0.333334
 50
0.0
 51
69.540949
  0
ARC
  8
LY_1
  6
CONTINUOUS
 62
     3
  5
79
 10
-2.472559
 20
188.986649
 30
0.0
 40
0.324955
 50
230.896338
 51
50.89622
  0
ARC
  8
LY_1
  6
CONTINUOUS
 62
     3
  5
7A
 10
-4.393223
 20
190.845459
 30
0.0
 40
0.294287
 50
0.0
 51
180.000005
  0
ARC
  8
LY_1
  6
CONTINUOUS
 62
     3
  5
7B
 10
-4.393223
 20
188.934021
 30
0.0
 40
0.294286
 50
180.000009
 51
0.0
  0
CIRCLE
  8
LY_1
  6
CONTINUOUS
 62
     3
  5
7C
 10
0.0
 20
180.389771
 30
0.0
 40
7.500001
  0
CIRCLE
  8
LY_1
  6
CONTINUOUS
 62
     3
  5
7D
 10
0.0
 20
180.389771
 30
0.0
 40
12.5
  0
ARC
  8
LY_1
  6
CONTINUOUS
 62
     3
  5
7E
 10
-10.620442
 20
181.37471
 30
0.0
 40
0.124997
 50
329.805079
 51
149.80531
  0
ARC
  8
LY_1
  6
CONTINUOUS
 62
     3
  5
7F
 10
-9.24679
 20
179.54007
 30
0.0
 40
0.124998
 50
154.288127
 51
334.373741
  0
ARC
  8
LY_1
  6
CONTINUOUS
 62
     3
  5
80
 10
-9.504881
 20
180.892838
 30
0.0
 40
0.245228
 50
18.468065
 51
169.999092
  0
ARC
  8
LY_1
  6
CONTINUOUS
 62
     3
  5
81
 10
-10.422715
 20
179.763443
 30
0.0
 40
0.212561
 50
202.731998
 51
349.999943
  0
ARC
  8
LY_1
  6
CONTINUOUS
 62
     3
  5
82
 10
-10.422715
 20
179.763443
 30
0.0
 40
0.462559
 50
202.731834
 51
350.001881
  0
ARC
  8
LY_1
  6
CONTINUOUS
 62
     3
  5
83
 10
-9.504881
 20
180.892838
 30
0.0
 40
0.495228
 50
18.467957
 51
169.999625
  0
ARC
  8
LY_1
  6
CONTINUOUS
 62
     3
  5
84
 10
-11.011195
 20
180.389771
 30
0.0
 40
1.83333
 50
334.286103
 51
18.467937
  0
ARC
  8
LY_1
  6
CONTINUOUS
 62
     3
  5
85
 10
-8.927861
 20
180.389771
 30
0.0
 40
1.833331
 50
149.803561
 51
202.732405
  0
ARC
  8
LY_1
  6
CONTINUOUS
 62
     3
  5
86
 10
-8.927861
 20
180.389771
 30
0.0
 40
2.083334
 50
149.803411
 51
202.732268
  0
ARC
  8
LY_1
  6
CONTINUOUS
 62
     3
  5
87
 10
-11.011195
 20
180.389771
 30
0.0
 40
2.083332
 50
334.285967
 51
18.468307
  0
ARC
  8
LY_1
  6
CONTINUOUS
 62
     3
  5
88
 10
-11.714769
 20
210.699051
 30
0.0
 40
8.000014
 50
251.927133
 51
267.763835
  0
ARC
  8
LY_1
  6
CONTINUOUS
 62
     3
  5
89
 10
-16.057938
 20
197.389771
 30
0.0
 40
5.999988
 50
71.92711
 51
85.918746
  0
ARC
  8
LY_1
  6
CONTINUOUS
 62
     3
  5
8A
 10
-11.714769
 20
150.080475
 30
0.0
 40
8.000004
 50
92.236165
 51
108.072867
  0
ARC
  8
LY_1
  6
CONTINUOUS
 62
     3
  5
8B
 10
-16.057938
 20
163.389771
 30
0.0
 40
6.000002
 50
274.081254
 51
288.072849
  0
ARC
  8
LY_1
  6
CONTINUOUS
 62
     3
  5
8C
 10
11.714769
 20
210.699051
 30
0.0
 40
8.000004
 50
272.23616
 51
288.072835
  0
ARC
  8
LY_1
  6
CONTINUOUS
 62
     3
  5
8D
 10
16.057938
 20
197.389771
 30
0.0
 40
6.000003
 50
94.081355
 51
108.072874
  0
ARC
  8
LY_1
  6
CONTINUOUS
 62
     3
  5
8E
 10
11.714769
 20
150.080475
 30
0.0
 40
7.999999
 50
71.927131
 51
87.76384
  0
ARC
  8
LY_1
  6
CONTINUOUS
 62
     3
  5
8F
 10
16.057938
 20
163.389771
 30
0.0
 40
6.000003
 50
251.927126
 51
265.918645
  0
ARC
  8
LY_1
  6
CONTINUOUS
 62
     3
  5
90
 10
78.0
 20
69.79155
 30
0.0
 40
9.000003
 50
292.88538
 51
0.0
  0
ARC
  8
LY_1
  6
CONTINUOUS
 62
     3
  5
91
 10
114.0
 20
69.79155
 30
0.0
 40
9.0
 50
180.000009
 51
247.114602
  0
ARC
  8
LY_1
  6
CONTINUOUS
 62
     3
  5
92
 10
89.399994
 20
111.0
 30
0.0
 40
1.0
 50
269.999997
 51
0.0
  0
ARC
  8
LY_1
  6
CONTINUOUS
 62
     3
  5
93
 10
96.0
 20
112.399994
 30
0.0
 40
5.599991
 50
0.0
 51
180.000005
  0
ARC
  8
LY_1
  6
CONTINUOUS
 62
     3
  5
94
 10
81.126709
 20
111.099991
 30
0.0
 40
1.300003
 50
90.000003
 51
180.000005
  0
ARC
  8
LY_1
  6
CONTINUOUS
 62
     3
  5
95
 10
80.626709
 20
110.799988
 30
0.0
 40
0.800003
 50
180.000009
 51
269.999997
  0
ARC
  8
LY_1
  6
CONTINUOUS
 62
     3
  5
96
 10
69.227524
 20
111.099991
 30
0.0
 40
1.300003
 50
90.000003
 51
180.000005
  0
ARC
  8
LY_1
  6
CONTINUOUS
 62
     3
  5
97
 10
68.727524
 20
110.799988
 30
0.0
 40
0.800003
 50
180.000009
 51
269.999997
  0
ARC
  8
LY_1
  6
CONTINUOUS
 62
     3
  5
98
 10
75.706024
 20
112.399994
 30
0.0
 40
5.599994
 50
38.68224
 51
133.205163
  0
ARC
  8
LY_1
  6
CONTINUOUS
 62
     3
  5
99
 10
77.649048
 20
110.383881
 30
0.0
 40
8.400011
 50
133.430846
 51
165.893533
  0
ARC
  8
LY_1
  6
CONTINUOUS
 62
     3
  5
9A
 10
106.852707
 20
103.093048
 30
0.0
 40
38.500011
 50
165.962996
 51
173.427191
  0
ARC
  8
LY_1
  6
CONTINUOUS
 62
     3
  5
9B
 10
68.100266
 20
112.399994
 30
0.0
 40
5.6
 50
47.231708
 51
133.205273
  0
ARC
  8
LY_1
  6
CONTINUOUS
 62
     3
  5
9C
 10
70.043274
 20
110.383881
 30
0.0
 40
8.400011
 50
133.430846
 51
165.893533
  0
ARC
  8
LY_1
  6
CONTINUOUS
 62
     3
  5
9D
 10
99.246933
 20
103.093048
 30
0.0
 40
38.500011
 50
165.962996
 51
173.427191
  0
ARC
  8
LY_1
  6
CONTINUOUS
 62
     3
  5
9E
 10
102.599991
 20
111.0
 30
0.0
 40
1.0
 50
180.000009
 51
269.999997
  0
ARC
  8
LY_1
  6
CONTINUOUS
 62
     3
  5
9F
 10
110.873276
 20
111.099991
 30
0.0
 40
1.300003
 50
0.0
 51
90.000003
  0
ARC
  8
LY_1
  6
CONTINUOUS
 62
     3
  5
A0
 10
111.373276
 20
110.799988
 30
0.0
 40
0.799988
 50
269.999997
 51
0.0
  0
ARC
  8
LY_1
  6
CONTINUOUS
 62
     3
  5
A1
 10
122.772461
 20
111.099991
 30
0.0
 40
1.300003
 50
0.0
 51
90.000003
  0
ARC
  8
LY_1
  6
CONTINUOUS
 62
     3
  5
A2
 10
123.272461
 20
110.799988
 30
0.0
 40
0.799988
 50
269.999997
 51
0.0
  0
ARC
  8
LY_1
  6
CONTINUOUS
 62
     3
  5
A3
 10
116.293961
 20
112.399994
 30
0.0
 40
5.6
 50
46.794835
 51
141.31798
  0
ARC
  8
LY_1
  6
CONTINUOUS
 62
     3
  5
A4
 10
114.350937
 20
110.383881
 30
0.0
 40
8.399989
 50
14.106496
 51
46.569247
  0
ARC
  8
LY_1
  6
CONTINUOUS
 62
     3
  5
A5
 10
85.147278
 20
103.093048
 30
0.0
 40
38.499989
 50
6.572821
 51
14.037009
  0
ARC
  8
LY_1
  6
CONTINUOUS
 62
     3
  5
A6
 10
123.899719
 20
112.399994
 30
0.0
 40
5.6
 50
46.794835
 51
132.7684
  0
ARC
  8
LY_1
  6
CONTINUOUS
 62
     3
  5
A7
 10
121.956711
 20
110.383881
 30
0.0
 40
8.399989
 50
14.106496
 51
46.569247
  0
ARC
  8
LY_1
  6
CONTINUOUS
 62
     3
  5
A8
 10
92.753052
 20
103.093048
 30
0.0
 40
38.499989
 50
6.572821
 51
14.037009
  0
CIRCLE
  8
LY_1
  6
CONTINUOUS
 62
   110
  5
A9
 10
0.0
 20
180.389771
 30
0.0
 40
2.299999
  0
CIRCLE
  8
LY_1
  6
CONTINUOUS
 62
     3
  5
AA
 10
0.0
 20
180.389771
 30
0.0
 40
3.0
  0
ARC
  8
LY_1
  6
CONTINUOUS
 62
     3
  5
AB
 10
-6.599999
 20
111.0
 30
0.0
 40
1.0
 50
269.999997
 51
0.0
  0
ARC
  8
LY_1
  6
CONTINUOUS
 62
     3
  5
AC
 10
0.0
 20
112.399994
 30
0.0
 40
5.599999
 50
0.0
 51
180.000005
  0
ARC
  8
LY_1
  6
CONTINUOUS
 62
     3
  5
AD
 10
-14.873276
 20
111.099991
 30
0.0
 40
1.300003
 50
90.000003
 51
180.000005
  0
ARC
  8
LY_1
  6
CONTINUOUS
 62
     3
  5
AE
 10
-15.373276
 20
110.799988
 30
0.0
 40
0.799988
 50
180.000009
 51
269.999997
  0
ARC
  8
LY_1
  6
CONTINUOUS
 62
     3
  5
AF
 10
-26.772461
 20
111.099991
 30
0.0
 40
1.300003
 50
90.000003
 51
180.000005
  0
ARC
  8
LY_1
  6
CONTINUOUS
 62
     3
  5
B0
 10
-27.272461
 20
110.799988
 30
0.0
 40
0.799988
 50
180.000009
 51
269.999997
  0
ARC
  8
LY_1
  6
CONTINUOUS
 62
     3
  5
B1
 10
-20.293961
 20
112.399994
 30
0.0
 40
5.599991
 50
38.682059
 51
133.205054
  0
ARC
  8
LY_1
  6
CONTINUOUS
 62
     3
  5
B2
 10
-18.350937
 20
110.383881
 30
0.0
 40
8.39999
 50
133.430696
 51
165.893533
  0
ARC
  8
LY_1
  6
CONTINUOUS
 62
     3
  5
B3
 10
10.852721
 20
103.093048
 30
0.0
 40
38.499996
 50
165.962996
 51
173.427177
  0
ARC
  8
LY_1
  6
CONTINUOUS
 62
     3
  5
B4
 10
-27.899719
 20
112.399994
 30
0.0
 40
5.600011
 50
47.231598
 51
133.205068
  0
ARC
  8
LY_1
  6
CONTINUOUS
 62
     3
  5
B5
 10
-25.956711
 20
110.383881
 30
0.0
 40
8.39999
 50
133.430696
 51
165.893533
  0
ARC
  8
LY_1
  6
CONTINUOUS
 62
     3
  5
B6
 10
3.246945
 20
103.093048
 30
0.0
 40
38.499977
 50
165.962983
 51
173.427177
  0
ARC
  8
LY_1
  6
CONTINUOUS
 62
     3
  5
B7
 10
6.599999
 20
111.0
 30
0.0
 40
1.0
 50
180.000009
 51
269.999997
  0
ARC
  8
LY_1
  6
CONTINUOUS
 62
     3
  5
B8
 10
14.873276
 20
111.099991
 30
0.0
 40
1.299988
 50
0.0
 51
90.000003
  0
ARC
  8
LY_1
  6
CONTINUOUS
 62
     3
  5
B9
 10
15.373276
 20
110.799988
 30
0.0
 40
0.799988
 50
269.999997
 51
0.0
  0
ARC
  8
LY_1
  6
CONTINUOUS
 62
     3
  5
BA
 10
26.772461
 20
111.099991
 30
0.0
 40
1.299988
 50
0.0
 51
90.000003
  0
ARC
  8
LY_1
  6
CONTINUOUS
 62
     3
  5
BB
 10
27.272461
 20
110.799988
 30
0.0
 40
0.799988
 50
269.999997
 51
0.0
  0
ARC
  8
LY_1
  6
CONTINUOUS
 62
     3
  5
BC
 10
20.293961
 20
112.399994
 30
0.0
 40
5.6
 50
46.794835
 51
141.317816
  0
ARC
  8
LY_1
  6
CONTINUOUS
 62
     3
  5
BD
 10
18.350937
 20
110.383881
 30
0.0
 40
8.399989
 50
14.106496
 51
46.569247
  0
ARC
  8
LY_1
  6
CONTINUOUS
 62
     3
  5
BE
 10
-10.852721
 20
103.093048
 30
0.0
 40
38.499989
 50
6.572844
 51
14.036992
  0
ARC
  8
LY_1
  6
CONTINUOUS
 62
     3
  5
BF
 10
0.0
 20
180.389771
 30
0.0
 40
21.550003
 50
193.142741
 51
256.85719
  0
ARC
  8
LY_1
  6
CONTINUOUS
 62
     3
  5
C0
 10
0.0
 20
180.389771
 30
0.0
 40
21.550007
 50
103.14281
 51
166.857259
  0
ARC
  8
LY_1
  6
CONTINUOUS
 62
     3
  5
C1
 10
0.0
 20
180.389771
 30
0.0
 40
21.550005
 50
283.14277
 51
346.857215
  0
ARC
  8
LY_1
  6
CONTINUOUS
 62
     3
  5
C2
 10
0.0
 20
180.389771
 30
0.0
 40
21.550003
 50
13.142746
 51
76.857216
  0
ARC
  8
LY_1
  6
CONTINUOUS
 62
     3
  5
C3
 10
22.997223
 20
166.726303
 30
0.0
 40
1.4
 50
149.284398
 51
225.000433
  0
ARC
  8
LY_1
  6
CONTINUOUS
 62
     3
  5
C4
 10
25.923004
 20
173.78978
 30
0.0
 40
1.399994
 50
90.000003
 51
165.716727
  0
ARC
  8
LY_1
  6
CONTINUOUS
 62
     3
  5
C5
 10
0.0
 20
180.389771
 30
0.0
 40
25.349985
 50
329.284059
 51
345.716033
  0
ARC
  8
LY_1
  6
CONTINUOUS
 62
     3
  5
C6
 10
0.0
 20
180.389771
 30
0.0
 40
28.549999
 50
325.494239
 51
349.505799
  0
ARC
  8
LY_1
  6
CONTINUOUS
 62
     3
  5
C7
 10
59.358734
 20
155.802582
 30
0.0
 40
32.999996
 50
141.271781
 51
173.728443
  0
ARC
  8
LY_1
  6
CONTINUOUS
 62
     3
  5
C8
 10
20.293961
 20
160.09581
 30
0.0
 40
6.299998
 50
276.212526
 51
353.728295
  0
ARC
  8
LY_1
  6
CONTINUOUS
 62
     3
  5
C9
 10
6.599989
 20
154.466736
 30
0.0
 40
1.400002
 50
104.284141
 51
180.000005
  0
ARC
  8
LY_1
  6
CONTINUOUS
 62
     3
  5
CA
 10
13.663449
 20
157.392517
 30
0.0
 40
1.4
 50
44.999694
 51
120.715889
  0
ARC
  8
LY_1
  6
CONTINUOUS
 62
     3
  5
CB
 10
0.0
 20
180.389771
 30
0.0
 40
25.350025
 50
284.284068
 51
300.716014
  0
ARC
  8
LY_1
  6
CONTINUOUS
 62
     3
  5
CC
 10
0.0
 20
180.389771
 30
0.0
 40
28.549999
 50
280.494242
 51
304.505806
  0
ARC
  8
LY_1
  6
CONTINUOUS
 62
     3
  5
CD
 10
24.587204
 20
121.031006
 30
0.0
 40
32.999996
 50
96.271735
 51
128.728411
  0
ARC
  8
LY_1
  6
CONTINUOUS
 62
     3
  5
CE
 10
0.0
 20
151.689774
 30
0.0
 40
6.299998
 50
231.212521
 51
308.728324
  0
ARC
  8
LY_1
  6
CONTINUOUS
 62
     3
  5
CF
 10
-13.663445
 20
157.392517
 30
0.0
 40
1.400002
 50
59.284191
 51
134.999891
  0
ARC
  8
LY_1
  6
CONTINUOUS
 62
     3
  5
D0
 10
-6.599982
 20
154.466736
 30
0.0
 40
1.4
 50
0.0
 51
75.71613
  0
ARC
  8
LY_1
  6
CONTINUOUS
 62
     3
  5
D1
 10
0.0
 20
180.389771
 30
0.0
 40
25.350004
 50
239.284056
 51
255.716009
  0
ARC
  8
LY_1
  6
CONTINUOUS
 62
     3
  5
D2
 10
0.0
 20
180.389771
 30
0.0
 40
28.54999
 50
235.494257
 51
259.505828
  0
ARC
  8
LY_1
  6
CONTINUOUS
 62
     3
  5
D3
 10
-24.587189
 20
121.031006
 30
0.0
 40
33.000015
 50
51.271734
 51
83.728393
  0
ARC
  8
LY_1
  6
CONTINUOUS
 62
     3
  5
D4
 10
-20.293961
 20
160.09581
 30
0.0
 40
6.3
 50
186.212639
 51
263.728449
  0
ARC
  8
LY_1
  6
CONTINUOUS
 62
     3
  5
D5
 10
-25.923004
 20
173.78978
 30
0.0
 40
1.400004
 50
14.284331
 51
90.000003
  0
ARC
  8
LY_1
  6
CONTINUOUS
 62
     3
  5
D6
 10
-22.997223
 20
166.726303
 30
0.0
 40
1.400004
 50
314.999558
 51
30.716471
  0
ARC
  8
LY_1
  6
CONTINUOUS
 62
     3
  5
D7
 10
0.0
 20
180.389771
 30
0.0
 40
25.349991
 50
194.284024
 51
210.716011
  0
ARC
  8
LY_1
  6
CONTINUOUS
 62
     3
  5
D8
 10
0.0
 20
180.389771
 30
0.0
 40
28.549997
 50
190.494225
 51
214.505851
  0
ARC
  8
LY_1
  6
CONTINUOUS
 62
     3
  5
D9
 10
-59.358734
 20
155.802567
 30
0.0
 40
33.000011
 50
6.271717
 51
38.728382
  0
ARC
  8
LY_1
  6
CONTINUOUS
 62
     3
  5
DA
 10
-28.699997
 20
180.389771
 30
0.0
 40
6.299988
 50
141.212413
 51
218.728571
  0
ARC
  8
LY_1
  6
CONTINUOUS
 62
     3
  5
DB
 10
-22.997223
 20
194.053223
 30
0.0
 40
1.4
 50
329.28439
 51
45.000442
  0
ARC
  8
LY_1
  6
CONTINUOUS
 62
     3
  5
DC
 10
-25.923004
 20
186.989746
 30
0.0
 40
1.399994
 50
269.999997
 51
345.716725
  0
ARC
  8
LY_1
  6
CONTINUOUS
 62
     3
  5
DD
 10
0.0
 20
180.389771
 30
0.0
 40
25.349993
 50
149.28403
 51
165.716017
  0
ARC
  8
LY_1
  6
CONTINUOUS
 62
     3
  5
DE
 10
0.0
 20
180.389771
 30
0.0
 40
28.549986
 50
145.494231
 51
169.505829
  0
ARC
  8
LY_1
  6
CONTINUOUS
 62
     3
  5
DF
 10
-59.358734
 20
204.976944
 30
0.0
 40
32.999996
 50
321.271738
 51
353.728388
  0
ARC
  8
LY_1
  6
CONTINUOUS
 62
     3
  5
E0
 10
-20.293961
 20
200.683716
 30
0.0
 40
6.299998
 50
96.212531
 51
173.728156
  0
ARC
  8
LY_1
  6
CONTINUOUS
 62
     3
  5
E1
 10
-6.599989
 20
206.31279
 30
0.0
 40
1.400002
 50
284.284109
 51
0.0
  0
ARC
  8
LY_1
  6
CONTINUOUS
 62
     3
  5
E2
 10
-13.663449
 20
203.387009
 30
0.0
 40
1.4
 50
224.999685
 51
300.715843
  0
ARC
  8
LY_1
  6
CONTINUOUS
 62
     3
  5
E3
 10
0.0
 20
180.389771
 30
0.0
 40
25.350006
 50
104.284045
 51
120.716012
  0
ARC
  8
LY_1
  6
CONTINUOUS
 62
     3
  5
E4
 10
0.0
 20
180.389771
 30
0.0
 40
28.54998
 50
100.494213
 51
124.505824
  0
ARC
  8
LY_1
  6
CONTINUOUS
 62
     3
  5
E5
 10
-24.587204
 20
239.74852
 30
0.0
 40
33.000011
 50
276.27173
 51
308.728359
  0
ARC
  8
LY_1
  6
CONTINUOUS
 62
     3
  5
E6
 10
0.0
 20
209.089752
 30
0.0
 40
6.299999
 50
51.212513
 51
128.728329
  0
ARC
  8
LY_1
  6
CONTINUOUS
 62
     3
  5
E7
 10
13.663445
 20
203.387009
 30
0.0
 40
1.400002
 50
239.284193
 51
314.999862
  0
ARC
  8
LY_1
  6
CONTINUOUS
 62
     3
  5
E8
 10
6.599982
 20
206.31279
 30
0.0
 40
1.4
 50
180.000009
 51
255.716159
  0
ARC
  8
LY_1
  6
CONTINUOUS
 62
     3
  5
E9
 10
0.0
 20
180.389771
 30
0.0
 40
25.350012
 50
59.284027
 51
75.715973
  0
ARC
  8
LY_1
  6
CONTINUOUS
 62
     3
  5
EA
 10
0.0
 20
180.389771
 30
0.0
 40
28.54999
 50
55.494259
 51
79.505813
  0
ARC
  8
LY_1
  6
CONTINUOUS
 62
     3
  5
EB
 10
24.587189
 20
239.74852
 30
0.0
 40
33.000008
 50
231.271698
 51
263.728388
  0
ARC
  8
LY_1
  6
CONTINUOUS
 62
     3
  5
EC
 10
20.293961
 20
200.683716
 30
0.0
 40
6.299998
 50
6.212505
 51
83.728455
  0
ARC
  8
LY_1
  6
CONTINUOUS
 62
     3
  5
ED
 10
25.923004
 20
186.989746
 30
0.0
 40
1.400004
 50
194.284325
 51
269.999997
  0
ARC
  8
LY_1
  6
CONTINUOUS
 62
     3
  5
EE
 10
22.997223
 20
194.053223
 30
0.0
 40
1.400004
 50
134.999563
 51
210.716459
  0
ARC
  8
LY_1
  6
CONTINUOUS
 62
     3
  5
EF
 10
0.0
 20
180.389771
 30
0.0
 40
25.349991
 50
14.284034
 51
30.715999
  0
ARC
  8
LY_1
  6
CONTINUOUS
 62
     3
  5
F0
 10
0.0
 20
180.389771
 30
0.0
 40
28.549982
 50
10.494236
 51
34.505801
  0
ARC
  8
LY_1
  6
CONTINUOUS
 62
     3
  5
F1
 10
59.358734
 20
204.976959
 30
0.0
 40
32.999992
 50
186.271693
 51
218.728356
  0
ARC
  8
LY_1
  6
CONTINUOUS
 62
     3
  5
F2
 10
28.699997
 20
180.389771
 30
0.0
 40
6.299988
 50
321.212411
 51
38.728467
  0
ARC
  8
LY_1
  6
CONTINUOUS
 62
     3
  5
F3
 10
27.899719
 20
112.399994
 30
0.0
 40
5.6
 50
46.794835
 51
132.7684
  0
ARC
  8
LY_1
  6
CONTINUOUS
 62
     3
  5
F4
 10
25.956711
 20
110.383881
 30
0.0
 40
8.399989
 50
14.106496
 51
46.569247
  0
ARC
  8
LY_1
  6
CONTINUOUS
 62
     3
  5
F5
 10
-3.246945
 20
103.093048
 30
0.0
 40
38.5
 50
6.572819
 51
14.037009
  0
ARC
  8
LY_1
  6
CONTINUOUS
 62
     3
  5
F6
 10
-18.0
 20
70.321747
 30
0.0
 40
8.999996
 50
285.000001
 51
359.999903
  0
ARC
  8
LY_1
  6
CONTINUOUS
 62
     3
  5
F7
 10
18.0
 20
70.321747
 30
0.0
 40
9.0
 50
180.000009
 51
255.0
  0
ARC
  8
LY_1
  6
CONTINUOUS
 62
     3
  5
F8
 10
9.711474
 20
180.432953
 30
0.0
 40
0.558333
 50
176.847927
 51
227.874071
  0
ARC
  8
LY_1
  6
CONTINUOUS
 62
     3
  5
F9
 10
10.04686
 20
180.803818
 30
0.0
 40
1.05832
 50
227.874143
 51
264.434254
  0
ARC
  8
LY_1
  6
CONTINUOUS
 62
     3
  5
FA
 10
1.503697
 20
179.431824
 30
0.0
 40
7.402665
 50
318.1983
 51
336.801336
  0
ARC
  8
LY_1
  6
CONTINUOUS
 62
     3
  5
FB
 10
1.550364
 20
179.402054
 30
0.0
 40
9.013993
 50
318.474728
 51
336.525427
  0
ARC
  8
LY_1
  6
CONTINUOUS
 62
     3
  5
FC
 10
0.0
 20
180.389771
 30
0.0
 40
9.166661
 50
227.462092
 51
312.537845
  0
ARC
  8
LY_1
  6
CONTINUOUS
 62
     3
  5
FD
 10
0.0
 20
180.389771
 30
0.0
 40
10.833336
 50
226.309046
 51
313.690949
  0
ARC
  8
LY_1
  6
CONTINUOUS
 62
     3
  5
FE
 10
-1.503716
 20
179.431824
 30
0.0
 40
7.402667
 50
203.198651
 51
221.801777
  0
ARC
  8
LY_1
  6
CONTINUOUS
 62
     3
  5
FF
 10
-1.550364
 20
179.402054
 30
0.0
 40
9.013995
 50
203.474563
 51
221.525332
  0
ARC
  8
LY_1
  6
CONTINUOUS
 62
     3
  5
100
 10
2.231354
 20
2.841309
 30
0.0
 40
0.84127
 50
217.524139
 51
359.999935
  0
ARC
  8
LY_1
  6
CONTINUOUS
 62
     3
  5
101
 10
-2.227631
 20
2.844939
 30
0.0
 40
0.844965
 50
180.000063
 51
359.999935
  0
ARC
  8
LY_1
  6
CONTINUOUS
 62
     3
  5
102
 10
-2.231247
 20
8.6864
 30
0.0
 40
0.841415
 50
37.524089
 51
180.000005
  0
ARC
  8
LY_1
  6
CONTINUOUS
 62
     3
  5
103
 10
2.209366
 20
8.353911
 30
0.0
 40
0.863278
 50
0.0
 51
270.000001
  0
ARC
  8
LY_1
  6
CONTINUOUS
 62
     3
  5
104
 10
2.227463
 20
11.285796
 30
0.0
 40
0.844931
 50
180.000063
 51
0.0
  0
ARC
  8
LY_1
  6
CONTINUOUS
 62
     3
  5
105
 10
-2.209305
 20
14.047379
 30
0.0
 40
0.863303
 50
90.000003
 51
270.000001
  0
ARC
  8
LY_1
  6
CONTINUOUS
 62
     3
  5
106
 10
2.209137
 20
17.073181
 30
0.0
 40
0.863231
 50
0.0
 51
270.000001
  0
ARC
  8
LY_1
  6
CONTINUOUS
 62
     3
  5
107
 10
-2.209305
 20
20.035309
 30
0.0
 40
0.863281
 50
90.000003
 51
270.000001
  0
ARC
  8
LY_1
  6
CONTINUOUS
 62
     3
  5
108
 10
2.209366
 20
20.035309
 30
0.0
 40
0.863297
 50
269.999997
 51
90.000003
  0
ARC
  8
LY_1
  6
CONTINUOUS
 62
     3
  5
109
 10
2.048752
 20
22.946396
 30
0.0
 40
1.023934
 50
0.778715
 51
34.259242
  0
ARC
  8
LY_1
  6
CONTINUOUS
 62
     3
  5
10A
 10
2.227936
 20
22.972992
 30
0.0
 40
0.844747
 50
123.575006
 51
359.14304
  0
ARC
  8
LY_1
  6
CONTINUOUS
 62
     3
  5
10B
 10
-2.229645
 20
22.988571
 30
0.0
 40
0.850768
 50
145.740937
 51
325.740956
  0
ARC
  8
LY_1
  6
CONTINUOUS
 62
     3
  5
10C
 10
-2.209395
 20
28.63678
 30
0.0
 40
0.86322
 50
90.000003
 51
270.000001
  0
ARC
  8
LY_1
  6
CONTINUOUS
 62
     3
  5
10D
 10
2.209427
 20
28.63678
 30
0.0
 40
0.863266
 50
269.999997
 51
90.000003
  0
ARC
  8
LY_1
  6
CONTINUOUS
 62
     3
  5
10E
 10
-16.599991
 20
37.0
 30
0.0
 40
2.499986
 50
0.0
 51
90.000003
  0
ARC
  8
LY_1
  6
CONTINUOUS
 62
     3
  5
10F
 10
16.599991
 20
37.0
 30
0.0
 40
2.5
 50
90.000003
 51
180.000005
  0
ARC
  8
LY_1
  6
CONTINUOUS
 62
     3
  5
110
 10
-23.5
 20
28.5
 30
0.0
 40
2.5
 50
269.999997
 51
0.0
  0
ARC
  8
LY_1
  6
CONTINUOUS
 62
     3
  5
111
 10
-23.5
 20
36.035904
 30
0.0
 40
2.5
 50
0.0
 51
59.999585
  0
ARC
  8
LY_1
  6
CONTINUOUS
 62
     3
  5
112
 10
-17.326355
 20
25.339981
 30
0.0
 40
3.226345
 50
200.000196
 51
0.0
  0
ARC
  8
LY_1
  6
CONTINUOUS
 62
     3
  5
113
 10
-17.599991
 20
31.474823
 30
0.0
 40
3.499986
 50
0.0
 51
60.000254
  0
ARC
  8
LY_1
  6
CONTINUOUS
 62
     3
  5
114
 10
-22.5
 20
40.654709
 30
0.0
 40
2.0
 50
180.000009
 51
240.000447
  0
ARC
  8
LY_1
  6
CONTINUOUS
 62
     3
  5
115
 10
23.5
 20
28.5
 30
0.0
 40
2.5
 50
179.999995
 51
269.999997
  0
ARC
  8
LY_1
  6
CONTINUOUS
 62
     3
  5
116
 10
23.5
 20
36.035904
 30
0.0
 40
2.499986
 50
120.000591
 51
180.000005
  0
ARC
  8
LY_1
  6
CONTINUOUS
 62
     3
  5
117
 10
17.326355
 20
25.339981
 30
0.0
 40
3.226358
 50
180.000009
 51
340.000069
  0
ARC
  8
LY_1
  6
CONTINUOUS
 62
     3
  5
118
 10
91.0
 20
34.5
 30
0.0
 40
3.0
 50
0.0
 51
90.000003
  0
ARC
  8
LY_1
  6
CONTINUOUS
 62
     3
  5
119
 10
70.462601
 20
36.051956
 30
0.0
 40
2.0
 50
0.499648
 51
40.593471
  0
ARC
  8
LY_1
  6
CONTINUOUS
 62
     3
  5
11A
 10
73.5
 20
38.654709
 30
0.0
 40
2.0
 50
180.000009
 51
220.593189
  0
ARC
  8
LY_1
  6
CONTINUOUS
 62
     3
  5
11B
 10
101.0
 20
34.5
 30
0.0
 40
3.0
 50
90.000003
 51
180.000005
  0
ARC
  8
LY_1
  6
CONTINUOUS
 62
     3
  5
11C
 10
121.537384
 20
36.051956
 30
0.0
 40
2.000003
 50
139.407153
 51
179.500363
  0
ARC
  8
LY_1
  6
CONTINUOUS
 62
     3
  5
11D
 10
118.5
 20
38.654709
 30
0.0
 40
1.99999
 50
319.406246
 51
0.0
  0
CIRCLE
  8
LY_1
  6
CONTINUOUS
 62
     3
  5
11E
 10
96.0
 20
0.0
 30
0.0
 40
19.5
  0
CIRCLE
  8
LY_1
  6
CONTINUOUS
 62
   110
  5
11F
 10
96.0
 20
0.0
 30
0.0
 40
21.0
  0
ARC
  8
LY_1
  6
CONTINUOUS
 62
     3
  5
120
 10
17.599991
 20
31.474823
 30
0.0
 40
3.5
 50
119.99973
 51
180.000005
  0
ARC
  8
LY_1
  6
CONTINUOUS
 62
     3
  5
121
 10
22.5
 20
40.654709
 30
0.0
 40
1.999997
 50
299.999554
 51
0.0
  0
ARC
  8
LY_1
  6
CONTINUOUS
 62
     3
  5
122
 10
-10.771214
 20
-26.861841
 30
0.0
 40
5.000011
 50
67.545045
 51
115.016465
  0
ARC
  8
LY_1
  6
CONTINUOUS
 62
     3
  5
123
 10
-15.0
 20
-17.799997
 30
0.0
 40
4.999985
 50
269.999997
 51
295.01646
  0
ARC
  8
LY_1
  6
CONTINUOUS
 62
     3
  5
124
 10
-17.961716
 20
-24.799997
 30
0.0
 40
2.0
 50
90.000003
 51
159.99923
  0
ARC
  8
LY_1
  6
CONTINUOUS
 62
     3
  5
125
 10
10.771214
 20
-26.861841
 30
0.0
 40
4.999997
 50
64.983547
 51
112.455035
  0
ARC
  8
LY_1
  6
CONTINUOUS
 62
     3
  5
126
 10
0.0
 20
-0.799998
 30
0.0
 40
23.199974
 50
247.530212
 51
292.455071
  0
ARC
  8
LY_1
  6
CONTINUOUS
 62
     3
  5
127
 10
15.0
 20
-17.799997
 30
0.0
 40
4.999998
 50
244.983521
 51
269.999997
  0
ARC
  8
LY_1
  6
CONTINUOUS
 62
     3
  5
128
 10
17.961716
 20
-24.799997
 30
0.0
 40
1.999998
 50
20.00036
 51
90.000003
  0
LINE
  8
LY_1
  6
CONTINUOUS
 62
     3
  5
129
 10
-25.388567
 20
204.389786
 30
0.0
 11
-30.0
 21
204.389786
 31
0.0
  0
LINE
  8
LY_1
  6
CONTINUOUS
 62
     3
  5
12A
 10
-25.388603
 20
156.389786
 30
0.0
 11
-30.0
 21
156.389786
 31
0.0
  0
LINE
  8
LY_1
  6
CONTINUOUS
 62
     3
  5
12B
 10
25.388601
 20
156.389786
 30
0.0
 11
30.0
 21
156.389786
 31
0.0
  0
LINE
  8
LY_1
  6
CONTINUOUS
 62
     3
  5
12C
 10
25.388567
 20
204.389786
 30
0.0
 11
30.0
 21
204.389786
 31
0.0
  0
LINE
  8
LY_1
  6
CONTINUOUS
 62
     3
  5
12D
 10
-25.0
 20
50.5
 30
0.0
 11
25.0
 21
50.5
 31
0.0
  0
LINE
  8
LY_1
  6
CONTINUOUS
 62
     3
  5
12E
 10
-30.0
 20
26.0
 30
0.0
 11
-30.0
 21
-27.299999
 31
0.0
  0
LINE
  8
LY_1
  6
CONTINUOUS
 62
     3
  5
12F
 10
-21.0
 20
26.0
 30
0.0
 11
-21.0
 21
-27.299999
 31
0.0
  0
LINE
  8
LY_1
  6
CONTINUOUS
 62
     3
  5
130
 10
-21.0
 20
-27.299999
 30
0.0
 11
-30.0
 21
-27.299999
 31
0.0
  0
LINE
  8
LY_1
  6
CONTINUOUS
 62
     3
  5
131
 10
-21.0
 20
-13.85641
 30
0.0
 11
-30.0
 21
-13.85641
 31
0.0
  0
LINE
  8
LY_1
  6
CONTINUOUS
 62
     3
  5
132
 10
-21.0
 20
13.856409
 30
0.0
 11
-30.0
 21
13.856409
 31
0.0
  0
LINE
  8
LY_1
  6
CONTINUOUS
 62
     3
  5
133
 10
-21.0
 20
26.0
 30
0.0
 11
-30.0
 21
26.0
 31
0.0
  0
LINE
  8
LY_1
  6
CONTINUOUS
 62
     3
  5
134
 10
21.0
 20
13.856409
 30
0.0
 11
30.0
 21
13.856409
 31
0.0
  0
LINE
  8
LY_1
  6
CONTINUOUS
 62
     3
  5
135
 10
21.0
 20
-13.85641
 30
0.0
 11
30.0
 21
-13.85641
 31
0.0
  0
LINE
  8
LY_1
  6
CONTINUOUS
 62
     3
  5
136
 10
21.0
 20
-27.299999
 30
0.0
 11
30.0
 21
-27.299999
 31
0.0
  0
LINE
  8
LY_1
  6
CONTINUOUS
 62
     3
  5
137
 10
21.0
 20
26.0
 30
0.0
 11
30.0
 21
26.0
 31
0.0
  0
LINE
  8
LY_1
  6
CONTINUOUS
 62
     3
  5
138
 10
95.284996
 20
-27.299999
 30
0.0
 11
96.714981
 21
-27.299999
 31
0.0
  0
LINE
  8
LY_1
  6
CONTINUOUS
 62
     3
  5
139
 10
71.999994
 20
-13.856407
 30
0.0
 11
95.284995
 21
-27.300001
 31
0.0
  0
LINE
  8
LY_1
  6
CONTINUOUS
 62
     3
  5
13A
 10
96.714982
 20
-27.300002
 30
0.0
 11
119.999997
 21
-13.856403
 31
0.0
  0
LINE
  8
LY_1
  6
CONTINUOUS
 62
     3
  5
13B
 10
120.0
 20
13.856405
 30
0.0
 11
120.0
 21
-13.8564
 31
0.0
  0
LINE
  8
LY_1
  6
CONTINUOUS
 62
     3
  5
13C
 10
98.966662
 20
26.000002
 30
0.0
 11
120.000001
 21
13.85641
 31
0.0
  0
LINE
  8
LY_1
  6
CONTINUOUS
 62
     3
  5
13D
 10
93.03334
 20
26.0
 30
0.0
 11
98.96666
 21
26.0
 31
0.0
  0
LINE
  8
LY_1
  6
CONTINUOUS
 62
     3
  5
13E
 10
98.0
 20
34.5
 30
0.0
 11
98.0
 21
26.0
 31
0.0
  0
LINE
  8
LY_1
  6
CONTINUOUS
 62
     3
  5
13F
 10
71.999999
 20
13.856407
 30
0.0
 11
93.033346
 21
26.000001
 31
0.0
  0
LINE
  8
LY_1
  6
CONTINUOUS
 62
     3
  5
140
 10
72.0
 20
13.856409
 30
0.0
 11
72.0
 21
-13.85641
 31
0.0
  0
LINE
  8
LY_1
  6
CONTINUOUS
 62
     3
  5
141
 10
7.022062
 20
174.497536
 30
0.0
 11
8.298819
 21
173.4262
 31
0.0
  0
LINE
  8
LY_1
  6
CONTINUOUS
 62
     3
  5
142
 10
7.552569
 20
176.867923
 30
0.0
 11
8.307823
 21
176.515749
 31
0.0
  0
LINE
  8
LY_1
  6
CONTINUOUS
 62
     3
  5
143
 10
10.573581
 20
175.459186
 30
0.0
 11
9.818316
 21
175.811375
 31
0.0
  0
LINE
  8
LY_1
  6
CONTINUOUS
 62
     3
  5
144
 10
9.848103
 20
178.653274
 30
0.0
 11
7.552587
 21
176.867931
 31
0.0
  0
LINE
  8
LY_1
  6
CONTINUOUS
 62
     3
  5
145
 10
9.848084
 20
178.653266
 30
0.0
 11
10.573589
 21
175.459189
 31
0.0
  0
LINE
  8
LY_1
  6
CONTINUOUS
 62
     3
  5
146
 10
-7.022075
 20
174.497524
 30
0.0
 11
-8.298816
 21
173.426204
 31
0.0
  0
LINE
  8
LY_1
  6
CONTINUOUS
 62
     3
  5
147
 10
-7.552564
 20
176.86794
 30
0.0
 11
-8.307828
 21
176.515751
 31
0.0
  0
LINE
  8
LY_1
  6
CONTINUOUS
 62
     3
  5
148
 10
-10.573586
 20
175.459195
 30
0.0
 11
-9.818338
 21
175.811383
 31
0.0
  0
LINE
  8
LY_1
  6
CONTINUOUS
 62
     3
  5
149
 10
-9.848103
 20
178.653274
 30
0.0
 11
-7.552587
 21
176.867931
 31
0.0
  0
LINE
  8
LY_1
  6
CONTINUOUS
 62
     3
  5
14A
 10
-9.848088
 20
178.65324
 30
0.0
 11
-10.57359
 21
175.459194
 31
0.0
  0
LINE
  8
LY_1
  6
CONTINUOUS
 62
     3
  5
14B
 10
2.227076
 20
190.806366
 30
0.0
 11
2.227076
 21
190.76059
 31
0.0
  0
LINE
  8
LY_1
  6
CONTINUOUS
 62
     3
  5
14C
 10
2.815646
 20
190.858902
 30
0.0
 11
2.815646
 21
190.785568
 31
0.0
  0
LINE
  8
LY_1
  6
CONTINUOUS
 62
     3
  5
14D
 10
-0.156802
 20
190.858826
 30
0.0
 11
-0.156802
 21
190.785492
 31
0.0
  0
LINE
  8
LY_1
  6
CONTINUOUS
 62
     3
  5
14E
 10
-0.745355
 20
190.806305
 30
0.0
 11
-0.745355
 21
190.760483
 31
0.0
  0
LINE
  8
LY_1
  6
CONTINUOUS
 62
     3
  5
14F
 10
-1.166661
 20
190.84549
 30
0.0
 11
-1.166661
 21
188.934052
 31
0.0
  0
LINE
  8
LY_1
  6
CONTINUOUS
 62
     3
  5
150
 10
-1.755215
 20
190.84549
 30
0.0
 11
-1.755215
 21
188.934052
 31
0.0
  0
LINE
  8
LY_1
  6
CONTINUOUS
 62
     3
  5
151
 10
-2.174397
 20
190.806427
 30
0.0
 11
-2.174397
 21
190.785767
 31
0.0
  0
LINE
  8
LY_1
  6
CONTINUOUS
 62
     3
  5
152
 10
-0.156802
 20
190.858826
 30
0.0
 11
0.286157
 21
190.858826
 31
0.0
  0
LINE
  8
LY_1
  6
CONTINUOUS
 62
     3
  5
153
 10
0.874765
 20
190.452179
 30
0.0
 11
1.466206
 21
190.452179
 31
0.0
  0
LINE
  8
LY_1
  6
CONTINUOUS
 62
     3
  5
154
 10
0.874765
 20
190.452179
 30
0.0
 11
0.874765
 21
188.934052
 31
0.0
  0
LINE
  8
LY_1
  6
CONTINUOUS
 62
     3
  5
155
 10
0.286157
 20
190.858826
 30
0.0
 11
0.286157
 21
188.934052
 31
0.0
  0
LINE
  8
LY_1
  6
CONTINUOUS
 62
     3
  5
156
 10
-0.412024
 20
191.139618
 30
0.0
 11
1.466206
 21
191.139618
 31
0.0
  0
LINE
  8
LY_1
  6
CONTINUOUS
 62
     3
  5
157
 10
2.815646
 20
190.858917
 30
0.0
 11
3.952897
 21
190.858917
 31
0.0
  0
LINE
  8
LY_1
  6
CONTINUOUS
 62
     3
  5
158
 10
2.476065
 20
188.63974
 30
0.0
 11
4.34374
 21
188.63974
 31
0.0
  0
LINE
  8
LY_1
  6
CONTINUOUS
 62
     3
  5
159
 10
4.34374
 20
189.32724
 30
0.0
 11
3.299439
 21
189.32724
 31
0.0
  0
LINE
  8
LY_1
  6
CONTINUOUS
 62
     3
  5
15A
 10
4.572396
 20
190.523336
 30
0.0
 11
3.29102
 21
189.348978
 31
0.0
  0
LINE
  8
LY_1
  6
CONTINUOUS
 62
     3
  5
15B
 10
3.961356
 20
190.837197
 30
0.0
 11
2.233846
 21
189.253977
 31
0.0
  0
LINE
  8
LY_1
  6
CONTINUOUS
 62
     3
  5
15C
 10
2.560425
 20
191.13974
 30
0.0
 11
4.332661
 21
191.13974
 31
0.0
  0
LINE
  8
LY_1
  6
CONTINUOUS
 62
     3
  5
15D
 10
-3.32601
 20
190.099108
 30
0.0
 11
-2.719889
 21
190.591736
 31
0.0
  0
LINE
  8
LY_1
  6
CONTINUOUS
 62
     3
  5
15E
 10
-3.32603
 20
190.099086
 30
0.0
 11
-2.267595
 21
189.238793
 31
0.0
  0
LINE
  8
LY_1
  6
CONTINUOUS
 62
     3
  5
15F
 10
-4.086252
 20
189.899979
 30
0.0
 11
-2.636266
 21
191.07849
 31
0.0
  0
LINE
  8
LY_1
  6
CONTINUOUS
 62
     3
  5
160
 10
-4.086265
 20
189.879481
 30
0.0
 11
-2.677515
 21
188.734474
 31
0.0
  0
LINE
  8
LY_1
  6
CONTINUOUS
 62
     3
  5
161
 10
-4.098948
 20
190.845459
 30
0.0
 11
-4.098948
 21
188.934021
 31
0.0
  0
LINE
  8
LY_1
  6
CONTINUOUS
 62
     3
  5
162
 10
-4.687518
 20
190.845459
 30
0.0
 11
-4.687518
 21
188.934021
 31
0.0
  0
LINE
  8
LY_1
  6
CONTINUOUS
 62
     3
  5
163
 10
-9.992592
 20
180.978826
 30
0.0
 11
-10.213406
 21
179.726538
 31
0.0
  0
LINE
  8
LY_1
  6
CONTINUOUS
 62
     3
  5
164
 10
-9.746381
 20
180.935434
 30
0.0
 11
-9.967195
 21
179.683131
 31
0.0
  0
LINE
  8
LY_1
  6
CONTINUOUS
 62
     3
  5
165
 10
-23.319443
 20
190.330887
 30
0.0
 11
-26.763336
 21
190.330887
 31
0.0
  0
LINE
  8
LY_1
  6
CONTINUOUS
 62
     3
  5
166
 10
-8.371584
 20
165.889779
 30
0.0
 11
-13.914146
 21
175.489784
 31
0.0
  0
LINE
  8
LY_1
  6
CONTINUOUS
 62
     3
  5
167
 10
-4.9
 20
165.889771
 30
0.0
 11
-8.371578
 21
165.889771
 31
0.0
  0
LINE
  8
LY_1
  6
CONTINUOUS
 62
     3
  5
168
 10
-23.319443
 20
170.448639
 30
0.0
 11
-26.763336
 21
170.448639
 31
0.0
  0
LINE
  8
LY_1
  6
CONTINUOUS
 62
     3
  5
169
 10
-8.371584
 20
194.889774
 30
0.0
 11
-13.914149
 21
185.289753
 31
0.0
  0
LINE
  8
LY_1
  6
CONTINUOUS
 62
     3
  5
16A
 10
-4.9
 20
194.889771
 30
0.0
 11
-8.371578
 21
194.889771
 31
0.0
  0
LINE
  8
LY_1
  6
CONTINUOUS
 62
     3
  5
16B
 10
23.319443
 20
190.330887
 30
0.0
 11
26.763336
 21
190.330887
 31
0.0
  0
LINE
  8
LY_1
  6
CONTINUOUS
 62
     3
  5
16C
 10
8.371584
 20
165.889779
 30
0.0
 11
13.914146
 21
175.489784
 31
0.0
  0
LINE
  8
LY_1
  6
CONTINUOUS
 62
     3
  5
16D
 10
4.9
 20
165.889771
 30
0.0
 11
8.371578
 21
165.889771
 31
0.0
  0
LINE
  8
LY_1
  6
CONTINUOUS
 62
     3
  5
16E
 10
23.319443
 20
170.448639
 30
0.0
 11
26.763336
 21
170.448639
 31
0.0
  0
LINE
  8
LY_1
  6
CONTINUOUS
 62
     3
  5
16F
 10
8.371584
 20
194.889774
 30
0.0
 11
13.914149
 21
185.289753
 31
0.0
  0
LINE
  8
LY_1
  6
CONTINUOUS
 62
     3
  5
170
 10
4.9
 20
194.889771
 30
0.0
 11
8.371578
 21
194.889771
 31
0.0
  0
LINE
  8
LY_1
  6
CONTINUOUS
 62
     3
  5
171
 10
96.0
 20
89.999985
 30
0.0
 11
96.0
 21
77.499985
 31
0.0
  0
LINE
  8
LY_1
  6
CONTINUOUS
 62
     3
  5
172
 10
96.0
 20
61.499985
 30
0.0
 11
96.0
 21
54.499985
 31
0.0
  0
LINE
  8
LY_1
  6
CONTINUOUS
 62
     3
  5
173
 10
71.0
 20
52.742893
 30
0.0
 11
121.0
 21
52.742893
 31
0.0
  0
LINE
  8
LY_1
  6
CONTINUOUS
 62
     3
  5
174
 10
-25.0
 20
53.018997
 30
0.0
 11
25.0
 21
53.018997
 31
0.0
  0
LINE
  8
LY_1
  6
CONTINUOUS
 62
     3
  5
175
 10
-8.371578
 20
61.499985
 30
0.0
 11
-8.371578
 21
54.499985
 31
0.0
  0
LINE
  8
LY_1
  6
CONTINUOUS
 62
     3
  5
176
 10
8.371578
 20
61.499985
 30
0.0
 11
8.371578
 21
54.499985
 31
0.0
  0
LINE
  8
LY_1
  6
CONTINUOUS
 62
     3
  5
177
 10
71.0
 20
52.742905
 30
0.0
 11
71.0
 21
47.5
 31
0.0
  0
LINE
  8
LY_1
  6
CONTINUOUS
 62
     3
  5
178
 10
81.500008
 20
54.499984
 30
0.0
 11
71.00001
 21
52.742874
 31
0.0
  0
LINE
  8
LY_1
  6
CONTINUOUS
 62
     3
  5
179
 10
81.5
 20
61.499985
 30
0.0
 11
81.5
 21
54.499985
 31
0.0
  0
LINE
  8
LY_1
  6
CONTINUOUS
 62
     3
  5
17A
 10
87.0
 20
77.499985
 30
0.0
 11
87.0
 21
69.79155
 31
0.0
  0
LINE
  8
LY_1
  6
CONTINUOUS
 62
     3
  5
17B
 10
110.500002
 20
54.499964
 30
0.0
 11
121.000003
 21
52.742869
 31
0.0
  0
LINE
  8
LY_1
  6
CONTINUOUS
 62
     3
  5
17C
 10
110.5
 20
61.499985
 30
0.0
 11
110.5
 21
54.499985
 31
0.0
  0
LINE
  8
LY_1
  6
CONTINUOUS
 62
   110
  5
17D
 10
87.649994
 20
77.499985
 30
0.0
 11
87.649994
 21
71.999985
 31
0.0
  0
LINE
  8
LY_1
  6
CONTINUOUS
 62
   110
  5
17E
 10
104.349991
 20
77.499985
 30
0.0
 11
104.349991
 21
71.999985
 31
0.0
  0
LINE
  8
LY_1
  6
CONTINUOUS
 62
     3
  5
17F
 10
105.0
 20
77.499985
 30
0.0
 11
105.0
 21
69.79155
 31
0.0
  0
LINE
  8
LY_1
  6
CONTINUOUS
 62
     3
  5
180
 10
87.0
 20
71.999985
 30
0.0
 11
105.0
 21
71.999985
 31
0.0
  0
LINE
  8
LY_1
  6
CONTINUOUS
 62
     3
  5
181
 10
81.5
 20
61.499985
 30
0.0
 11
110.5
 21
61.499985
 31
0.0
  0
LINE
  8
LY_1
  6
CONTINUOUS
 62
     3
  5
182
 10
81.5
 20
54.499985
 30
0.0
 11
110.5
 21
54.499985
 31
0.0
  0
LINE
  8
LY_1
  6
CONTINUOUS
 62
     3
  5
183
 10
121.0
 20
52.742874
 30
0.0
 11
121.0
 21
47.5
 31
0.0
  0
LINE
  8
LY_1
  6
CONTINUOUS
 62
     3
  5
184
 10
71.0
 20
50.5
 30
0.0
 11
121.0
 21
50.5
 31
0.0
  0
LINE
  8
LY_1
  6
CONTINUOUS
 62
     3
  5
185
 10
86.0
 20
89.999985
 30
0.0
 11
86.0
 21
77.499985
 31
0.0
  0
LINE
  8
LY_1
  6
CONTINUOUS
 62
     3
  5
186
 10
106.0
 20
89.999985
 30
0.0
 11
106.0
 21
77.499985
 31
0.0
  0
LINE
  8
LY_1
  6
CONTINUOUS
 62
     3
  5
187
 10
88.384723
 20
101.699954
 30
0.0
 11
79.452122
 21
105.399951
 31
0.0
  0
LINE
  8
LY_1
  6
CONTINUOUS
 62
     3
  5
188
 10
88.499993
 20
99.500003
 30
0.0
 11
88.190789
 21
105.39998
 31
0.0
  0
LINE
  8
LY_1
  6
CONTINUOUS
 62
     3
  5
189
 10
91.25
 20
99.5
 30
0.0
 11
91.25
 21
89.999985
 31
0.0
  0
LINE
  8
LY_1
  6
CONTINUOUS
 62
     3
  5
18A
 10
90.399994
 20
112.399994
 30
0.0
 11
90.399994
 21
111.0
 31
0.0
  0
LINE
  8
LY_1
  6
CONTINUOUS
 62
     3
  5
18B
 10
79.826706
 20
111.099991
 30
0.0
 11
79.826706
 21
110.799988
 31
0.0
  0
LINE
  8
LY_1
  6
CONTINUOUS
 62
     3
  5
18C
 10
90.399994
 20
112.399994
 30
0.0
 11
81.126709
 21
112.399994
 31
0.0
  0
LINE
  8
LY_1
  6
CONTINUOUS
 62
     3
  5
18D
 10
90.399994
 20
111.0
 30
0.0
 11
79.826706
 21
111.0
 31
0.0
  0
LINE
  8
LY_1
  6
CONTINUOUS
 62
     3
  5
18E
 10
89.399994
 20
110.0
 30
0.0
 11
80.626709
 21
110.0
 31
0.0
  0
LINE
  8
LY_1
  6
CONTINUOUS
 62
     3
  5
18F
 10
67.927521
 20
111.099991
 30
0.0
 11
67.927521
 21
110.799988
 31
0.0
  0
LINE
  8
LY_1
  6
CONTINUOUS
 62
     3
  5
190
 10
69.494568
 20
112.399994
 30
0.0
 11
69.227524
 21
112.399994
 31
0.0
  0
LINE
  8
LY_1
  6
CONTINUOUS
 62
     3
  5
191
 10
91.628479
 20
115.899994
 30
0.0
 11
80.07753
 21
115.899994
 31
0.0
  0
LINE
  8
LY_1
  6
CONTINUOUS
 62
     3
  5
192
 10
69.173401
 20
111.0
 30
0.0
 11
67.927521
 21
111.0
 31
0.0
  0
LINE
  8
LY_1
  6
CONTINUOUS
 62
     3
  5
193
 10
68.977341
 20
110.0
 30
0.0
 11
68.727524
 21
110.0
 31
0.0
  0
LINE
  8
LY_1
  6
CONTINUOUS
 62
     3
  5
194
 10
68.605757
 20
107.499987
 30
0.0
 11
68.789488
 21
105.399999
 31
0.0
  0
LINE
  8
LY_1
  6
CONTINUOUS
 62
     3
  5
195
 10
60.999985
 20
107.49999
 30
0.0
 11
61.183716
 21
105.399995
 31
0.0
  0
LINE
  8
LY_1
  6
CONTINUOUS
 62
     3
  5
196
 10
101.599991
 20
112.399994
 30
0.0
 11
101.599991
 21
111.0
 31
0.0
  0
LINE
  8
LY_1
  6
CONTINUOUS
 62
     3
  5
197
 10
112.173279
 20
111.099991
 30
0.0
 11
112.173279
 21
110.799988
 31
0.0
  0
LINE
  8
LY_1
  6
CONTINUOUS
 62
     3
  5
198
 10
101.599991
 20
112.399994
 30
0.0
 11
110.873276
 21
112.399994
 31
0.0
  0
LINE
  8
LY_1
  6
CONTINUOUS
 62
     3
  5
199
 10
101.599991
 20
111.0
 30
0.0
 11
112.173279
 21
111.0
 31
0.0
  0
LINE
  8
LY_1
  6
CONTINUOUS
 62
     3
  5
19A
 10
102.599991
 20
110.0
 30
0.0
 11
111.373276
 21
110.0
 31
0.0
  0
LINE
  8
LY_1
  6
CONTINUOUS
 62
     3
  5
19B
 10
124.072464
 20
111.099991
 30
0.0
 11
124.072464
 21
110.799988
 31
0.0
  0
LINE
  8
LY_1
  6
CONTINUOUS
 62
     3
  5
19C
 10
122.505417
 20
112.399994
 30
0.0
 11
122.772461
 21
112.399994
 31
0.0
  0
LINE
  8
LY_1
  6
CONTINUOUS
 62
     3
  5
19D
 10
100.371506
 20
115.899994
 30
0.0
 11
111.922455
 21
115.899994
 31
0.0
  0
LINE
  8
LY_1
  6
CONTINUOUS
 62
     3
  5
19E
 10
122.826584
 20
111.0
 30
0.0
 11
124.072464
 21
111.0
 31
0.0
  0
LINE
  8
LY_1
  6
CONTINUOUS
 62
     3
  5
19F
 10
123.022644
 20
110.0
 30
0.0
 11
123.272461
 21
110.0
 31
0.0
  0
LINE
  8
LY_1
  6
CONTINUOUS
 62
     3
  5
1A0
 10
123.394209
 20
107.500004
 30
0.0
 11
123.210494
 21
105.4
 31
0.0
  0
LINE
  8
LY_1
  6
CONTINUOUS
 62
     3
  5
1A1
 10
131.000002
 20
107.499996
 30
0.0
 11
130.816271
 21
105.399994
 31
0.0
  0
LINE
  8
LY_1
  6
CONTINUOUS
 62
     3
  5
1A2
 10
61.0
 20
107.5
 30
0.0
 11
131.0
 21
107.5
 31
0.0
  0
LINE
  8
LY_1
  6
CONTINUOUS
 62
     3
  5
1A3
 10
103.615269
 20
101.7
 30
0.0
 11
112.547843
 21
105.399992
 31
0.0
  0
LINE
  8
LY_1
  6
CONTINUOUS
 62
     3
  5
1A4
 10
103.499999
 20
99.500034
 30
0.0
 11
103.809203
 21
105.399995
 31
0.0
  0
LINE
  8
LY_1
  6
CONTINUOUS
 62
     3
  5
1A5
 10
61.183716
 20
105.399994
 30
0.0
 11
130.816269
 21
105.399994
 31
0.0
  0
LINE
  8
LY_1
  6
CONTINUOUS
 62
     3
  5
1A6
 10
100.75
 20
99.5
 30
0.0
 11
100.75
 21
89.999985
 31
0.0
  0
LINE
  8
LY_1
  6
CONTINUOUS
 62
     3
  5
1A7
 10
88.5
 20
99.5
 30
0.0
 11
103.5
 21
99.5
 31
0.0
  0
LINE
  8
LY_1
  6
CONTINUOUS
 62
     3
  5
1A8
 10
86.0
 20
77.499985
 30
0.0
 11
106.0
 21
77.499985
 31
0.0
  0
LINE
  8
LY_1
  6
CONTINUOUS
 62
     3
  5
1A9
 10
86.0
 20
89.999985
 30
0.0
 11
106.0
 21
89.999985
 31
0.0
  0
LINE
  8
LY_1
  6
CONTINUOUS
 62
     3
  5
1AA
 10
-2.886772
 20
175.389796
 30
0.0
 11
-5.773518
 21
180.389776
 31
0.0
  0
LINE
  8
LY_1
  6
CONTINUOUS
 62
     3
  5
1AB
 10
5.773492
 20
180.389791
 30
0.0
 11
2.886737
 21
185.389784
 31
0.0
  0
LINE
  8
LY_1
  6
CONTINUOUS
 62
     3
  5
1AC
 10
-5.773506
 20
180.389794
 30
0.0
 11
-2.886759
 21
185.389792
 31
0.0
  0
LINE
  8
LY_1
  6
CONTINUOUS
 62
     3
  5
1AD
 10
2.886742
 20
175.389797
 30
0.0
 11
5.77349
 21
180.389794
 31
0.0
  0
LINE
  8
LY_1
  6
CONTINUOUS
 62
     3
  5
1AE
 10
-2.88676
 20
185.389771
 30
0.0
 11
2.886743
 21
185.389771
 31
0.0
  0
LINE
  8
LY_1
  6
CONTINUOUS
 62
     3
  5
1AF
 10
-2.88676
 20
175.389771
 30
0.0
 11
2.886743
 21
175.389771
 31
0.0
  0
LINE
  8
LY_1
  6
CONTINUOUS
 62
     3
  5
1B0
 10
-7.615265
 20
101.69998
 30
0.0
 11
-16.54785
 21
105.399976
 31
0.0
  0
LINE
  8
LY_1
  6
CONTINUOUS
 62
     3
  5
1B1
 10
-7.499998
 20
99.499996
 30
0.0
 11
-7.809203
 21
105.399988
 31
0.0
  0
LINE
  8
LY_1
  6
CONTINUOUS
 62
     3
  5
1B2
 10
-4.75
 20
99.5
 30
0.0
 11
-4.75
 21
89.999985
 31
0.0
  0
LINE
  8
LY_1
  6
CONTINUOUS
 62
     3
  5
1B3
 10
-5.599999
 20
112.399994
 30
0.0
 11
-5.599999
 21
111.0
 31
0.0
  0
LINE
  8
LY_1
  6
CONTINUOUS
 62
     3
  5
1B4
 10
-16.173279
 20
111.099991
 30
0.0
 11
-16.173279
 21
110.799988
 31
0.0
  0
LINE
  8
LY_1
  6
CONTINUOUS
 62
     3
  5
1B5
 10
-5.599999
 20
112.399994
 30
0.0
 11
-14.873276
 21
112.399994
 31
0.0
  0
LINE
  8
LY_1
  6
CONTINUOUS
 62
     3
  5
1B6
 10
-5.599999
 20
111.0
 30
0.0
 11
-16.173279
 21
111.0
 31
0.0
  0
LINE
  8
LY_1
  6
CONTINUOUS
 62
     3
  5
1B7
 10
-6.599999
 20
110.0
 30
0.0
 11
-15.373276
 21
110.0
 31
0.0
  0
LINE
  8
LY_1
  6
CONTINUOUS
 62
     3
  5
1B8
 10
-28.072464
 20
111.099991
 30
0.0
 11
-28.072464
 21
110.799988
 31
0.0
  0
LINE
  8
LY_1
  6
CONTINUOUS
 62
     3
  5
1B9
 10
-26.505417
 20
112.399994
 30
0.0
 11
-26.772461
 21
112.399994
 31
0.0
  0
LINE
  8
LY_1
  6
CONTINUOUS
 62
     3
  5
1BA
 10
-4.371498
 20
115.899994
 30
0.0
 11
-15.922462
 21
115.899994
 31
0.0
  0
LINE
  8
LY_1
  6
CONTINUOUS
 62
     3
  5
1BB
 10
-26.826584
 20
111.0
 30
0.0
 11
-28.072464
 21
111.0
 31
0.0
  0
LINE
  8
LY_1
  6
CONTINUOUS
 62
     3
  5
1BC
 10
-27.022644
 20
110.0
 30
0.0
 11
-27.272461
 21
110.0
 31
0.0
  0
LINE
  8
LY_1
  6
CONTINUOUS
 62
     3
  5
1BD
 10
-27.394211
 20
107.5
 30
0.0
 11
-27.210495
 21
105.399988
 31
0.0
  0
LINE
  8
LY_1
  6
CONTINUOUS
 62
     3
  5
1BE
 10
-35.0
 20
107.500003
 30
0.0
 11
-34.816269
 21
105.399993
 31
0.0
  0
LINE
  8
LY_1
  6
CONTINUOUS
 62
     3
  5
1BF
 10
5.599999
 20
112.399994
 30
0.0
 11
5.599999
 21
111.0
 31
0.0
  0
LINE
  8
LY_1
  6
CONTINUOUS
 62
     3
  5
1C0
 10
16.173279
 20
111.099991
 30
0.0
 11
16.173279
 21
110.799988
 31
0.0
  0
LINE
  8
LY_1
  6
CONTINUOUS
 62
     3
  5
1C1
 10
5.599999
 20
112.399994
 30
0.0
 11
14.873276
 21
112.399994
 31
0.0
  0
LINE
  8
LY_1
  6
CONTINUOUS
 62
     3
  5
1C2
 10
5.599999
 20
111.0
 30
0.0
 11
16.173279
 21
111.0
 31
0.0
  0
LINE
  8
LY_1
  6
CONTINUOUS
 62
     3
  5
1C3
 10
6.599999
 20
110.0
 30
0.0
 11
15.373276
 21
110.0
 31
0.0
  0
LINE
  8
LY_1
  6
CONTINUOUS
 62
     3
  5
1C4
 10
28.072464
 20
111.099991
 30
0.0
 11
28.072464
 21
110.799988
 31
0.0
  0
LINE
  8
LY_1
  6
CONTINUOUS
 62
     3
  5
1C5
 10
26.505417
 20
112.399994
 30
0.0
 11
26.772461
 21
112.399994
 31
0.0
  0
LINE
  8
LY_1
  6
CONTINUOUS
 62
     3
  5
1C6
 10
4.371498
 20
115.899994
 30
0.0
 11
15.922462
 21
115.899994
 31
0.0
  0
LINE
  8
LY_1
  6
CONTINUOUS
 62
     3
  5
1C7
 10
26.826584
 20
111.0
 30
0.0
 11
28.072464
 21
111.0
 31
0.0
  0
LINE
  8
LY_1
  6
CONTINUOUS
 62
     3
  5
1C8
 10
27.022644
 20
110.0
 30
0.0
 11
27.272461
 21
110.0
 31
0.0
  0
LINE
  8
LY_1
  6
CONTINUOUS
 62
     3
  5
1C9
 10
27.394211
 20
107.5
 30
0.0
 11
27.210495
 21
105.399988
 31
0.0
  0
LINE
  8
LY_1
  6
CONTINUOUS
 62
     3
  5
1CA
 10
-11.499568
 20
175.489777
 30
0.0
 11
-20.985535
 21
175.489777
 31
0.0
  0
LINE
  8
LY_1
  6
CONTINUOUS
 62
     3
  5
1CB
 10
-4.9
 20
159.404236
 30
0.0
 11
-4.9
 21
168.890198
 31
0.0
  0
LINE
  8
LY_1
  6
CONTINUOUS
 62
     3
  5
1CC
 10
-11.499568
 20
185.289749
 30
0.0
 11
-20.985535
 21
185.289749
 31
0.0
  0
LINE
  8
LY_1
  6
CONTINUOUS
 62
     3
  5
1CD
 10
-4.9
 20
201.37529
 30
0.0
 11
-4.9
 21
191.889328
 31
0.0
  0
LINE
  8
LY_1
  6
CONTINUOUS
 62
     3
  5
1CE
 10
11.499568
 20
175.489777
 30
0.0
 11
20.985535
 21
175.489777
 31
0.0
  0
LINE
  8
LY_1
  6
CONTINUOUS
 62
     3
  5
1CF
 10
4.9
 20
159.404236
 30
0.0
 11
4.9
 21
168.890198
 31
0.0
  0
LINE
  8
LY_1
  6
CONTINUOUS
 62
     3
  5
1D0
 10
11.499568
 20
185.289749
 30
0.0
 11
20.985535
 21
185.289749
 31
0.0
  0
LINE
  8
LY_1
  6
CONTINUOUS
 62
     3
  5
1D1
 10
4.9
 20
201.37529
 30
0.0
 11
4.9
 21
191.889328
 31
0.0
  0
LINE
  8
LY_1
  6
CONTINUOUS
 62
     3
  5
1D2
 10
25.923004
 20
175.189774
 30
0.0
 11
28.072449
 21
175.189774
 31
0.0
  0
LINE
  8
LY_1
  6
CONTINUOUS
 62
     3
  5
1D3
 10
22.007296
 20
165.736371
 30
0.0
 11
23.527161
 21
164.216505
 31
0.0
  0
LINE
  8
LY_1
  6
CONTINUOUS
 62
     3
  5
1D4
 10
14.653407
 20
158.382476
 30
0.0
 11
16.173277
 21
156.862594
 31
0.0
  0
LINE
  8
LY_1
  6
CONTINUOUS
 62
     3
  5
1D5
 10
5.199997
 20
154.466736
 30
0.0
 11
5.199997
 21
152.317322
 31
0.0
  0
LINE
  8
LY_1
  6
CONTINUOUS
 62
     3
  5
1D6
 10
-5.199987
 20
154.466736
 30
0.0
 11
-5.199987
 21
152.317307
 31
0.0
  0
LINE
  8
LY_1
  6
CONTINUOUS
 62
     3
  5
1D7
 10
-14.653393
 20
158.38247
 30
0.0
 11
-16.173267
 21
156.862602
 31
0.0
  0
LINE
  8
LY_1
  6
CONTINUOUS
 62
     3
  5
1D8
 10
-22.007264
 20
165.73638
 30
0.0
 11
-23.527164
 21
164.216495
 31
0.0
  0
LINE
  8
LY_1
  6
CONTINUOUS
 62
     3
  5
1D9
 10
-25.923004
 20
175.189774
 30
0.0
 11
-28.072449
 21
175.189774
 31
0.0
  0
LINE
  8
LY_1
  6
CONTINUOUS
 62
     3
  5
1DA
 10
-25.923035
 20
185.589737
 30
0.0
 11
-28.072464
 21
185.589737
 31
0.0
  0
LINE
  8
LY_1
  6
CONTINUOUS
 62
     3
  5
1DB
 10
-22.007295
 20
195.043155
 30
0.0
 11
-23.527163
 21
196.563039
 31
0.0
  0
LINE
  8
LY_1
  6
CONTINUOUS
 62
     3
  5
1DC
 10
-14.653394
 20
202.397028
 30
0.0
 11
-16.173263
 21
203.916911
 31
0.0
  0
LINE
  8
LY_1
  6
CONTINUOUS
 62
     3
  5
1DD
 10
-5.199997
 20
206.31279
 30
0.0
 11
-5.199997
 21
208.462204
 31
0.0
  0
LINE
  8
LY_1
  6
CONTINUOUS
 62
     3
  5
1DE
 10
5.199986
 20
206.31279
 30
0.0
 11
5.199986
 21
208.462204
 31
0.0
  0
LINE
  8
LY_1
  6
CONTINUOUS
 62
     3
  5
1DF
 10
14.6534
 20
202.397063
 30
0.0
 11
16.173275
 21
203.916961
 31
0.0
  0
LINE
  8
LY_1
  6
CONTINUOUS
 62
     3
  5
1E0
 10
22.007296
 20
195.04315
 30
0.0
 11
23.527182
 21
196.563036
 31
0.0
  0
LINE
  8
LY_1
  6
CONTINUOUS
 62
     3
  5
1E1
 10
25.923004
 20
185.589752
 30
0.0
 11
28.072449
 21
185.589752
 31
0.0
  0
LINE
  8
LY_1
  6
CONTINUOUS
 62
     3
  5
1E2
 10
35.0
 20
107.500003
 30
0.0
 11
34.816269
 21
105.399993
 31
0.0
  0
LINE
  8
LY_1
  6
CONTINUOUS
 62
     3
  5
1E3
 10
-35.0
 20
107.5
 30
0.0
 11
35.0
 21
107.5
 31
0.0
  0
LINE
  8
LY_1
  6
CONTINUOUS
 62
     3
  5
1E4
 10
7.615265
 20
101.69998
 30
0.0
 11
16.54785
 21
105.399976
 31
0.0
  0
LINE
  8
LY_1
  6
CONTINUOUS
 62
     3
  5
1E5
 10
7.499998
 20
99.499996
 30
0.0
 11
7.809203
 21
105.399988
 31
0.0
  0
LINE
  8
LY_1
  6
CONTINUOUS
 62
     3
  5
1E6
 10
-34.816269
 20
105.399994
 30
0.0
 11
34.816269
 21
105.399994
 31
0.0
  0
LINE
  8
LY_1
  6
CONTINUOUS
 62
     3
  5
1E7
 10
4.75
 20
99.5
 30
0.0
 11
4.75
 21
89.999985
 31
0.0
  0
LINE
  8
LY_1
  6
CONTINUOUS
 62
     3
  5
1E8
 10
-7.5
 20
99.5
 30
0.0
 11
7.5
 21
99.5
 31
0.0
  0
LINE
  8
LY_1
  6
CONTINUOUS
 62
     3
  5
1E9
 10
-5.773494
 20
89.999985
 30
0.0
 11
-5.773494
 21
77.499985
 31
0.0
  0
LINE
  8
LY_1
  6
CONTINUOUS
 62
   110
  5
1EA
 10
-8.349999
 20
77.499985
 30
0.0
 11
-8.349999
 21
71.999985
 31
0.0
  0
LINE
  8
LY_1
  6
CONTINUOUS
 62
     3
  5
1EB
 10
5.773494
 20
89.999985
 30
0.0
 11
5.773494
 21
77.499985
 31
0.0
  0
LINE
  8
LY_1
  6
CONTINUOUS
 62
   110
  5
1EC
 10
8.349999
 20
77.499985
 30
0.0
 11
8.349999
 21
71.999985
 31
0.0
  0
LINE
  8
LY_1
  6
CONTINUOUS
 62
     3
  5
1ED
 10
10.9
 20
89.999985
 30
0.0
 11
10.9
 21
77.499985
 31
0.0
  0
LINE
  8
LY_1
  6
CONTINUOUS
 62
     3
  5
1EE
 10
-10.9
 20
89.999985
 30
0.0
 11
-10.9
 21
77.499985
 31
0.0
  0
LINE
  8
LY_1
  6
CONTINUOUS
 62
     3
  5
1EF
 10
-10.9
 20
77.499985
 30
0.0
 11
10.9
 21
77.499985
 31
0.0
  0
LINE
  8
LY_1
  6
CONTINUOUS
 62
     3
  5
1F0
 10
-10.9
 20
89.999985
 30
0.0
 11
10.9
 21
89.999985
 31
0.0
  0
LINE
  8
LY_1
  6
CONTINUOUS
 62
     3
  5
1F1
 10
-16.149995
 20
61.499987
 30
0.0
 11
-15.670633
 21
61.62842
 31
0.0
  0
LINE
  8
LY_1
  6
CONTINUOUS
 62
     3
  5
1F2
 10
-9.0
 20
77.499985
 30
0.0
 11
-9.0
 21
70.321747
 31
0.0
  0
LINE
  8
LY_1
  6
CONTINUOUS
 62
     3
  5
1F3
 10
-16.149994
 20
54.499986
 30
0.0
 11
-25.0
 21
53.018983
 31
0.0
  0
LINE
  8
LY_1
  6
CONTINUOUS
 62
     3
  5
1F4
 10
-16.149994
 20
61.499985
 30
0.0
 11
-16.149994
 21
54.499985
 31
0.0
  0
LINE
  8
LY_1
  6
CONTINUOUS
 62
     3
  5
1F5
 10
-25.0
 20
53.018997
 30
0.0
 11
-25.0
 21
47.5
 31
0.0
  0
LINE
  8
LY_1
  6
CONTINUOUS
 62
     3
  5
1F6
 10
15.670628
 20
61.628417
 30
0.0
 11
16.149994
 21
61.499984
 31
0.0
  0
LINE
  8
LY_1
  6
CONTINUOUS
 62
     3
  5
1F7
 10
9.0
 20
77.499985
 30
0.0
 11
9.0
 21
70.321747
 31
0.0
  0
LINE
  8
LY_1
  6
CONTINUOUS
 62
     3
  5
1F8
 10
-9.0
 20
71.999985
 30
0.0
 11
9.0
 21
71.999985
 31
0.0
  0
LINE
  8
LY_1
  6
CONTINUOUS
 62
     3
  5
1F9
 10
-16.149994
 20
61.499985
 30
0.0
 11
16.149994
 21
61.499985
 31
0.0
  0
LINE
  8
LY_1
  6
CONTINUOUS
 62
     3
  5
1FA
 10
-16.149994
 20
54.499985
 30
0.0
 11
16.149994
 21
54.499985
 31
0.0
  0
LINE
  8
LY_1
  6
CONTINUOUS
 62
     3
  5
1FB
 10
16.149994
 20
54.499986
 30
0.0
 11
25.0
 21
53.018983
 31
0.0
  0
LINE
  8
LY_1
  6
CONTINUOUS
 62
     3
  5
1FC
 10
16.149994
 20
61.499985
 30
0.0
 11
16.149994
 21
54.499985
 31
0.0
  0
LINE
  8
LY_1
  6
CONTINUOUS
 62
     3
  5
1FD
 10
25.0
 20
53.018997
 30
0.0
 11
25.0
 21
47.5
 31
0.0
  0
LINE
  8
LY_1
  6
CONTINUOUS
 62
     3
  5
1FE
 10
2.382355
 20
7.490601
 30
0.0
 11
2.209366
 21
7.490601
 31
0.0
  0
LINE
  8
LY_1
  6
CONTINUOUS
 62
     3
  5
1FF
 10
2.382094
 20
16.2099
 30
0.0
 11
2.209137
 21
16.2099
 31
0.0
  0
LINE
  8
LY_1
  6
CONTINUOUS
 62
     3
  5
200
 10
2.382094
 20
16.2099
 30
0.0
 11
2.382094
 21
14.910628
 31
0.0
  0
LINE
  8
LY_1
  6
CONTINUOUS
 62
     3
  5
201
 10
1.382523
 20
13.184021
 30
0.0
 11
1.382523
 21
11.285796
 31
0.0
  0
LINE
  8
LY_1
  6
CONTINUOUS
 62
     3
  5
202
 10
1.382523
 20
13.184021
 30
0.0
 11
-2.209305
 21
13.184021
 31
0.0
  0
LINE
  8
LY_1
  6
CONTINUOUS
 62
     3
  5
203
 10
2.382094
 20
14.910628
 30
0.0
 11
-2.209305
 21
14.910628
 31
0.0
  0
LINE
  8
LY_1
  6
CONTINUOUS
 62
     3
  5
204
 10
3.072327
 20
17.073181
 30
0.0
 11
3.072327
 21
11.285796
 31
0.0
  0
LINE
  8
LY_1
  6
CONTINUOUS
 62
     3
  5
205
 10
2.382355
 20
7.490601
 30
0.0
 11
2.382355
 21
4.151381
 31
0.0
  0
LINE
  8
LY_1
  6
CONTINUOUS
 62
     3
  5
206
 10
-3.0726
 20
8.6864
 30
0.0
 11
-3.0726
 21
2.844939
 31
0.0
  0
LINE
  8
LY_1
  6
CONTINUOUS
 62
     3
  5
207
 10
-1.38266
 20
2.844939
 30
0.0
 11
-1.38266
 21
6.07515
 31
0.0
  0
LINE
  8
LY_1
  6
CONTINUOUS
 62
     3
  5
208
 10
1.564166
 20
2.328874
 30
0.0
 11
-1.32787
 21
6.094572
 31
0.0
  0
LINE
  8
LY_1
  6
CONTINUOUS
 62
     3
  5
209
 10
2.327474
 20
4.131987
 30
0.0
 11
-1.563871
 21
9.198874
 31
0.0
  0
LINE
  8
LY_1
  6
CONTINUOUS
 62
     3
  5
20A
 10
3.072632
 20
8.353911
 30
0.0
 11
3.072632
 21
2.841309
 31
0.0
  0
LINE
  8
LY_1
  6
CONTINUOUS
 62
     3
  5
20B
 10
-2.209305
 20
20.898636
 30
0.0
 11
2.209366
 21
20.898636
 31
0.0
  0
LINE
  8
LY_1
  6
CONTINUOUS
 62
     3
  5
20C
 10
2.209366
 20
19.172043
 30
0.0
 11
-2.209305
 21
19.172043
 31
0.0
  0
LINE
  8
LY_1
  6
CONTINUOUS
 62
     3
  5
20D
 10
0.514664
 20
25.506303
 30
0.0
 11
1.760739
 21
23.676819
 31
0.0
  0
LINE
  8
LY_1
  6
CONTINUOUS
 62
     3
  5
20E
 10
0.514621
 20
25.506317
 30
0.0
 11
-1.526491
 21
22.509582
 31
0.0
  0
LINE
  8
LY_1
  6
CONTINUOUS
 62
     3
  5
20F
 10
0.025098
 20
27.736374
 30
0.0
 11
2.894979
 21
23.522813
 31
0.0
  0
LINE
  8
LY_1
  6
CONTINUOUS
 62
     3
  5
210
 10
-0.025275
 20
27.736313
 30
0.0
 11
-2.932839
 21
23.467439
 31
0.0
  0
LINE
  8
LY_1
  6
CONTINUOUS
 62
     3
  5
211
 10
2.209427
 20
27.77356
 30
0.0
 11
-2.209395
 21
27.77356
 31
0.0
  0
LINE
  8
LY_1
  6
CONTINUOUS
 62
     3
  5
212
 10
2.209427
 20
29.5
 30
0.0
 11
-2.209395
 21
29.5
 31
0.0
  0
LINE
  8
LY_1
  6
CONTINUOUS
 62
     3
  5
213
 10
-14.099999
 20
37.0
 30
0.0
 11
-14.099999
 21
17.12558
 31
0.0
  0
LINE
  8
LY_1
  6
CONTINUOUS
 62
     3
  5
214
 10
-30.0
 20
156.389786
 30
0.0
 11
-30.0
 21
170.871216
 31
0.0
  0
LINE
  8
LY_1
  6
CONTINUOUS
 62
     3
  5
215
 10
30.0
 20
156.389786
 30
0.0
 11
30.0
 21
170.871216
 31
0.0
  0
LINE
  8
LY_1
  6
CONTINUOUS
 62
     3
  5
216
 10
-30.0
 20
204.389786
 30
0.0
 11
-30.0
 21
189.908356
 31
0.0
  0
LINE
  8
LY_1
  6
CONTINUOUS
 62
     3
  5
217
 10
30.0
 20
204.389786
 30
0.0
 11
30.0
 21
189.908356
 31
0.0
  0
LINE
  8
LY_1
  6
CONTINUOUS
 62
     3
  5
218
 10
-21.0
 20
36.035904
 30
0.0
 11
-21.0
 21
28.5
 31
0.0
  0
LINE
  8
LY_1
  6
CONTINUOUS
 62
     3
  5
219
 10
-20.999999
 20
25.999983
 30
0.0
 11
-20.358123
 21
24.236496
 31
0.0
  0
LINE
  8
LY_1
  6
CONTINUOUS
 62
     3
  5
21A
 10
-15.85001
 20
34.505904
 30
0.0
 11
-23.499998
 21
38.922636
 31
0.0
  0
LINE
  8
LY_1
  6
CONTINUOUS
 62
     3
  5
21B
 10
-24.5
 20
47.5
 30
0.0
 11
-24.5
 21
40.654709
 31
0.0
  0
LINE
  8
LY_1
  6
CONTINUOUS
 62
     3
  5
21C
 10
21.0
 20
36.035904
 30
0.0
 11
21.0
 21
28.5
 31
0.0
  0
LINE
  8
LY_1
  6
CONTINUOUS
 62
     3
  5
21D
 10
20.999999
 20
25.999983
 30
0.0
 11
20.358123
 21
24.236496
 31
0.0
  0
LINE
  8
LY_1
  6
CONTINUOUS
 62
     3
  5
21E
 10
94.0
 20
34.5
 30
0.0
 11
94.0
 21
26.0
 31
0.0
  0
LINE
  8
LY_1
  6
CONTINUOUS
 62
     3
  5
21F
 10
71.5
 20
47.5
 30
0.0
 11
71.5
 21
38.654709
 31
0.0
  0
LINE
  8
LY_1
  6
CONTINUOUS
 62
     3
  5
220
 10
72.46249
 20
36.069442
 30
0.0
 11
72.651714
 21
14.387395
 31
0.0
  0
LINE
  8
LY_1
  6
CONTINUOUS
 62
     3
  5
221
 10
98.0
 20
34.5
 30
0.0
 11
98.0
 21
26.0
 31
0.0
  0
LINE
  8
LY_1
  6
CONTINUOUS
 62
     3
  5
222
 10
72.542572
 20
37.5
 30
0.0
 11
119.457413
 21
37.5
 31
0.0
  0
LINE
  8
LY_1
  6
CONTINUOUS
 62
     3
  5
223
 10
120.5
 20
47.5
 30
0.0
 11
120.5
 21
38.654709
 31
0.0
  0
LINE
  8
LY_1
  6
CONTINUOUS
 62
     3
  5
224
 10
71.0
 20
47.5
 30
0.0
 11
121.0
 21
47.5
 31
0.0
  0
LINE
  8
LY_1
  6
CONTINUOUS
 62
     3
  5
225
 10
71.0
 20
50.5
 30
0.0
 11
121.0
 21
50.5
 31
0.0
  0
LINE
  8
LY_1
  6
CONTINUOUS
 62
     3
  5
226
 10
119.537446
 20
36.069397
 30
0.0
 11
119.348237
 21
14.387388
 31
0.0
  0
LINE
  8
LY_1
  6
CENTER
 62
   110
  5
228
 10
64.815331
 20
0.0
 30
0.0
 11
126.090332
 21
0.0
 31
0.0
  0
LINE
  8
LY_1
  6
CENTER
 62
   110
  5
229
 10
96.0
 20
124.0
 30
0.0
 11
96.0
 21
-32.867508
 31
0.0
  0
LINE
  8
LY_1
  6
CENTER
 62
   110
  5
22A
 10
-38.712955
 20
180.389786
 30
0.0
 11
39.645233
 21
180.389786
 31
0.0
  0
LINE
  8
LY_1
  6
CENTER
 62
   110
  5
22B
 10
0.0
 20
218.139893
 30
0.0
 11
0.0
 21
140.690491
 31
0.0
  0
LINE
  8
LY_1
  6
CONTINUOUS
 62
     3
  5
22C
 10
14.099999
 20
37.0
 30
0.0
 11
14.099999
 21
17.12558
 31
0.0
  0
LINE
  8
LY_1
  6
CONTINUOUS
 62
     3
  5
22D
 10
15.85001
 20
34.505904
 30
0.0
 11
23.499998
 21
38.922636
 31
0.0
  0
LINE
  8
LY_1
  6
CONTINUOUS
 62
     3
  5
22E
 10
-23.457413
 20
39.5
 30
0.0
 11
23.457413
 21
39.5
 31
0.0
  0
LINE
  8
LY_1
  6
CONTINUOUS
 62
     3
  5
22F
 10
24.5
 20
47.5
 30
0.0
 11
24.5
 21
40.654709
 31
0.0
  0
LINE
  8
LY_1
  6
CONTINUOUS
 62
     3
  5
230
 10
-25.0
 20
47.5
 30
0.0
 11
25.0
 21
47.5
 31
0.0
  0
LINE
  8
LY_1
  6
CONTINUOUS
 62
     3
  5
231
 10
-15.0
 20
-22.799997
 30
0.0
 11
-17.961716
 21
-22.799997
 31
0.0
  0
LINE
  8
LY_1
  6
CONTINUOUS
 62
     3
  5
232
 10
-19.841095
 20
-24.115931
 30
0.0
 11
-21.0
 21
-27.299999
 31
0.0
  0
LINE
  8
LY_1
  6
CONTINUOUS
 62
     3
  5
233
 10
15.0
 20
-22.799997
 30
0.0
 11
17.961716
 21
-22.799997
 31
0.0
  0
LINE
  8
LY_1
  6
CONTINUOUS
 62
     3
  5
234
 10
19.841095
 20
-24.115931
 30
0.0
 11
21.0
 21
-27.299999
 31
0.0
  0
LINE
  8
LY_1
  6
CONTINUOUS
 62
     3
  5
235
 10
21.0
 20
26.0
 30
0.0
 11
21.0
 21
-27.299999
 31
0.0
  0
LINE
  8
LY_1
  6
CONTINUOUS
 62
     3
  5
236
 10
30.0
 20
26.0
 30
0.0
 11
30.0
 21
-27.299999
 31
0.0
  0
LINE
  8
LY_1
  6
CENTER
 62
   110
  5
237
 10
-35.0
 20
0.0
 30
0.0
 11
35.0
 21
0.0
 31
0.0
  0
LINE
  8
LY_1
  6
CENTER
 62
   110
  5
238
 10
0.0
 20
124.0
 30
0.0
 11
0.0
 21
-28.699997
 31
0.0
  0
ENDSEC
  0
EOF
