  0
SECTION
  2
HEADER
  9
$ACADVER
  1
AC1009
  9
$DWGCODEPAGE
  3
dos932
  9
$INSBASE
 10
0.0
 20
0.0
 30
0.0
  9
$EXTMIN
 10
-44.999893
 20
-77.34871
 30
0.0
  9
$EXTMAX
 10
152.000014
 20
247.693863
 30
0.0
  9
$LIMMIN
 10
-44.999893
 20
-77.34871
  9
$LIMMAX
 10
152.000014
 20
247.693863
  9
$ORTHOMODE
 70
     0
  9
$REGENMODE
 70
     1
  9
$FILLMODE
 70
     1
  9
$QTEXTMODE
 70
     0
  9
$MIRRTEXT
 70
     1
  9
$DRAGMODE
 70
     2
  9
$LTSCALE
 40
1.0
  9
$OSMODE
 70
     0
  9
$ATTMODE
 70
     1
  9
$TEXTSIZE
 40
3.3
  9
$TRACEWID
 40
0.05
  9
$TEXTSTYLE
  7
MX_NOTE_STANDARD
  9
$CLAYER
  8
LY_1
  9
$CELTYPE
  6
CONTINUOUS
  9
$CECOLOR
 62
   256
  9
$DIMSCALE
 40
1.0
  9
$DIMASZ
 40
2.5
  9
$DIMEXO
 40
0.0
  9
$DIMDLI
 40
3.75
  9
$DIMRND
 40
0.0
  9
$DIMDLE
 40
0.0
  9
$DIMEXE
 40
1.1938
  9
$DIMTP
 40
0.0
  9
$DIMTM
 40
0.0
  9
$DIMTXT
 40
3.3
  9
$DIMCEN
 40
2.5
  9
$DIMTSZ
 40
0.0
  9
$DIMTOL
 70
     0
  9
$DIMLIM
 70
     0
  9
$DIMTIH
 70
     0
  9
$DIMTOH
 70
     0
  9
$DIMSE1
 70
     0
  9
$DIMSE2
 70
     0
  9
$DIMTAD
 70
     1
  9
$DIMZIN
 70
     8
  9
$DIMBLK
  1

  9
$DIMASO
 70
     1
  9
$DIMSHO
 70
     1
  9
$DIMPOST
  1

  9
$DIMAPOST
  1

  9
$DIMALT
 70
     0
  9
$DIMALTD
 70
     4
  9
$DIMALTF
 40
0.03937
  9
$DIMLFAC
 40
1.0
  9
$DIMTOFL
 70
     1
  9
$DIMTVP
 40
0.0
  9
$DIMTIX
 70
     0
  9
$DIMSOXD
 70
     0
  9
$DIMSAH
 70
     1
  9
$DIMBLK1
  1
_OPEN30
  9
$DIMBLK2
  1
_OPEN30
  9
$DIMSTYLE
  2
MXDIMSTYLE
  9
$DIMCLRD
 70
     0
  9
$DIMCLRE
 70
     0
  9
$DIMCLRT
 70
     0
  9
$DIMTFAC
 40
1.0
  9
$DIMGAP
 40
1.0
  9
$LUNITS
 70
     2
  9
$LUPREC
 70
     4
  9
$AXISMODE
 70
     0
  9
$AXISUNIT
 10
0.0
 20
0.0
  9
$SKETCHINC
 40
0.1
  9
$FILLETRAD
 40
0.0
  9
$AUNITS
 70
     0
  9
$AUPREC
 70
     0
  9
$MENU
  1
acad
  9
$ELEVATION
 40
0.0
  9
$PELEVATION
 40
0.0
  9
$THICKNESS
 40
0.0
  9
$LIMCHECK
 70
     0
  9
$BLIPMODE
 70
     1
  9
$CHAMFERA
 40
0.0
  9
$CHAMFERB
 40
0.0
  9
$SKPOLY
 70
     0
  9
$TDCREATE
 40
2454901.550173611
  9
$TDUPDATE
 40
2454901.550173611
  9
$TDINDWG
 40
0.0000000000
  9
$TDUSRTIMER
 40
0.0000000000
  9
$USRTIMER
 70
     1
  9
$ANGBASE
 50
0.0
  9
$ANGDIR
 70
     0
  9
$PDMODE
 70
     0
  9
$PDSIZE
 40
0.0
  9
$PLINEWID
 40
0.0
  9
$COORDS
 70
     1
  9
$SPLFRAME
 70
     0
  9
$SPLINETYPE
 70
     6
  9
$SPLINESEGS
 70
     8
  9
$ATTDIA
 70
     0
  9
$ATTREQ
 70
     1
  9
$HANDLING
 70
     1
  9
$HANDSEED
  5
247
  9
$SURFTAB1
 70
     6
  9
$SURFTAB2
 70
     6
  9
$SURFTYPE
 70
     6
  9
$SURFU
 70
     6
  9
$SURFV
 70
     6
  9
$UCSNAME
  2

  9
$UCSORG
 10
0.0
 20
0.0
 30
0.0
  9
$UCSXDIR
 10
1.0
 20
0.0
 30
0.0
  9
$UCSYDIR
 10
0.0
 20
1.0
 30
0.0
  9
$PUCSNAME
  2

  9
$PUCSORG
 10
0.0
 20
0.0
 30
0.0
  9
$PUCSXDIR
 10
1.0
 20
0.0
 30
0.0
  9
$PUCSYDIR
 10
0.0
 20
1.0
 30
0.0
  9
$USERI1
 70
     0
  9
$USERI2
 70
     0
  9
$USERI3
 70
     0
  9
$USERI4
 70
     0
  9
$USERI5
 70
     0
  9
$USERR1
 40
0.0
  9
$USERR2
 40
0.0
  9
$USERR3
 40
0.0
  9
$USERR4
 40
0.0
  9
$USERR5
 40
0.0
  9
$WORLDVIEW
 70
     1
  9
$SHADEDGE
 70
     3
  9
$SHADEDIF
 70
    70
  9
$TILEMODE
 70
     1
  9
$MAXACTVP
 70
    16
  9
$PINSBASE
 10
0.0
 20
0.0
 30
0.0
  9
$PLIMCHECK
 70
     0
  9
$PEXTMIN
 10
1.000000E+20
 20
1.000000E+20
 30
1.000000E+20
  9
$PEXTMAX
 10
-1.000000E+20
 20
-1.000000E+20
 30
-1.000000E+20
  9
$PLIMMIN
 10
0.0
 20
0.0
  9
$PLIMMAX
 10
12.0
 20
9.0
  9
$UNITMODE
 70
     0
  9
$VISRETAIN
 70
     0
  9
$PLINEGEN
 70
     1
  9
$PSLTSCALE
 70
     0
  9
$TREEDEPTH
 70
  3020
  0
ENDSEC
  0
SECTION
  2
TABLES
  0
TABLE
  2
VPORT
 70
     1
  0
VPORT
  2
*ACTIVE
 70
     0
 10
0.0
 20
0.0
 11
1.0
 21
1.0
 12
53.500061
 22
85.172577
 13
0.0
 23
0.0
 14
1.0
 24
1.0
 15
0.0
 25
0.0
 16
0.0
 26
0.0
 36
1.0
 17
0.0
 27
0.0
 37
0.0
 40
328.292999
 41
1.732051
 42
50.0
 43
0.0
 44
0.0
 50
0.0
 51
0.0
 71
     0
 72
   100
 73
     1
 74
     1
 75
     0
 76
     0
 77
     0
 78
     0
  0
ENDTAB
  0
TABLE
  2
LTYPE
 70
     2
  0
LTYPE
  2
CONTINUOUS
 70
    64
  3
Solid line
 72
    65
 73
     0
 40
0.0
  0
LTYPE
  2
CENTER
 70
    64
  3
Center ____ _ ____ _ ____ _ ____ _ ____ _ ____
 72
    65
 73
     4
 40
50.8
 49
31.75
 49
-6.35
 49
6.35
 49
-6.35
  0
ENDTAB
  0
TABLE
  2
LAYER
 70
     3
  0
LAYER
  2
0
 70
     0
 62
     7
  6
CONTINUOUS
  0
LAYER
  2
LY_1
 70
     0
 62
     7
  6
CONTINUOUS
  0
LAYER
  2
DEFPOINTS
 70
     0
 62
     7
  6
CONTINUOUS
  0
ENDTAB
  0
TABLE
  2
STYLE
 70
     2
  0
STYLE
  2
MX_NOTE_STANDARD
 70
     0
 40
0.0
 41
1.0
 50
0.0
 71
     0
 42
3.3
  3
txt.shx
  4
extfont.shx
  0
STYLE
  2
MX_DIMTXSTY_2
 70
     0
 40
0.0
 41
0.85
 50
0.0
 71
     0
 42
3.3
  3
txt.shx
  4
extfont.shx
  0
ENDTAB
  0
TABLE
  2
VIEW
 70
     0
  0
ENDTAB
  0
TABLE
  2
UCS
 70
     0
  0
ENDTAB
  0
TABLE
  2
APPID
 70
     1
  0
APPID
  2
ACAD
 70
     0
  0
ENDTAB
  0
TABLE
  2
DIMSTYLE
 70
     1
  0
DIMSTYLE
  2
MXDIMSTYLE
 70
     0
  3

  4

  5

  6
_OPEN30
  7
_OPEN30
 40
1.0
 41
2.5
 42
0.0
 43
3.75
 44
1.1938
 45
0.0
 46
0.0
 47
0.0
 48
0.0
 71
     0
 72
     0
 73
     0
 74
     0
 75
     0
 76
     0
 77
     1
 78
     8
140
3.3
141
2.5
142
0.0
143
0.03937
144
1.0
145
0.0
146
1.0
147
1.0
170
     0
171
     4
172
     1
173
     1
174
     0
175
     0
176
     0
177
     0
178
     0
  0
ENDTAB
  0
ENDSEC
  0
SECTION
  2
BLOCKS
  0
BLOCK
  8
0
  6
BYBLOCK
 62
     0
  5
20
  2
_OPEN30
 70
     2
 10
0.0
 20
0.0
 30
0.0
  3
_OPEN30
  0
LINE
  8
0
  6
BYBLOCK
 62
     0
  5
21
 10
-1.0
 20
0.267949
 30
0.0
 11
0.0
 21
0.0
 31
0.0
  0
LINE
  8
0
  6
BYBLOCK
 62
     0
  5
22
 10
0.0
 20
0.0
 30
0.0
 11
-1.0
 21
-0.267949
 31
0.0
  0
LINE
  8
0
  6
BYBLOCK
 62
     0
  5
23
 10
0.0
 20
0.0
 30
0.0
 11
-1.0
 21
0.0
 31
0.0
  0
ENDBLK
  8
0
  6
BYBLOCK
 62
     0
  5
24
  0
BLOCK
  8
0
  6
BYBLOCK
 62
     0
  5
26
  2
*D1
 70
     1
 10
0.0
 20
0.0
 30
0.0
  3
*D1
  0
LINE
  8
0
  6
CONTINUOUS
 62
   110
  5
27
 10
-40.0
 20
144.11644
 30
0.0
 11
40.0
 21
144.11644
 31
0.0
  0
LINE
  8
0
  6
CONTINUOUS
 62
   110
  5
28
 10
-40.0
 20
113.998215
 30
0.0
 11
-40.0
 21
145.31024
 31
0.0
  0
LINE
  8
0
  6
CONTINUOUS
 62
   110
  5
29
 10
40.0
 20
113.998215
 30
0.0
 11
40.0
 21
145.31024
 31
0.0
  0
INSERT
  8
0
  6
CONTINUOUS
 62
   110
  5
30
  2
_OPEN
 10
-40.0
 20
144.11644
 30
0.0
 41
2.19
 42
2.19
 50
180.0
 43
2.19
  0
INSERT
  8
0
  6
CONTINUOUS
 62
   110
  5
31
  2
_OPEN
 10
40.0
 20
144.11644
 30
0.0
 41
2.19
 42
2.19
 43
2.19
  0
TEXT
  8
0
  6
CONTINUOUS
 62
   110
  5
33
 10
-3.607179
 20
145.11644
 30
0.0
 40
3.3
  1
%%c80
 41
0.995329
  7
MX_DIMTXSTY_2
 11
-3.607179
 21
146.76644
 31
0.0
 73
     2
  0
POINT
  8
DEFPOINTS
  6
CONTINUOUS
 62
     0
  5
34
 10
-40.0
 20
113.998215
 30
0.0
  0
POINT
  8
DEFPOINTS
  6
CONTINUOUS
 62
     0
  5
35
 10
40.0
 20
113.998215
 30
0.0
  0
POINT
  8
DEFPOINTS
  6
CONTINUOUS
 62
     0
  5
36
 10
40.0
 20
144.11644
 30
0.0
  0
ENDBLK
  8
0
  6
BYBLOCK
 62
     0
  5
37
  0
BLOCK
  8
0
  6
BYBLOCK
 62
     0
  5
2B
  2
_OPEN
 70
     2
 10
0.0
 20
0.0
 30
0.0
  3
_OPEN
  0
LINE
  8
0
  6
BYBLOCK
 62
     0
  5
2C
 10
-1.0
 20
0.166667
 30
0.0
 11
0.0
 21
0.0
 31
0.0
  0
LINE
  8
0
  6
BYBLOCK
 62
     0
  5
2D
 10
0.0
 20
0.0
 30
0.0
 11
-1.0
 21
-0.166667
 31
0.0
  0
LINE
  8
0
  6
BYBLOCK
 62
     0
  5
2E
 10
0.0
 20
0.0
 30
0.0
 11
-1.0
 21
0.0
 31
0.0
  0
ENDBLK
  8
0
  6
BYBLOCK
 62
     0
  5
2F
  0
BLOCK
  8
0
  6
BYBLOCK
 62
     0
  5
3A
  2
*D3
 70
     1
 10
0.0
 20
0.0
 30
0.0
  3
*D3
  0
LINE
  8
0
  6
CONTINUOUS
 62
   110
  5
3B
 10
31.5
 20
-42.580734
 30
0.0
 11
-31.5
 21
-42.580734
 31
0.0
  0
LINE
  8
0
  6
CONTINUOUS
 62
   110
  5
3C
 10
31.5
 20
-31.0
 30
0.0
 11
31.5
 21
-43.774534
 31
0.0
  0
LINE
  8
0
  6
CONTINUOUS
 62
   110
  5
3D
 10
-31.5
 20
-31.0
 30
0.0
 11
-31.5
 21
-43.774534
 31
0.0
  0
INSERT
  8
0
  6
CONTINUOUS
 62
   110
  5
3E
  2
_OPEN
 10
31.5
 20
-42.580734
 30
0.0
 41
2.19
 42
2.19
 43
2.19
  0
INSERT
  8
0
  6
CONTINUOUS
 62
   110
  5
3F
  2
_OPEN
 10
-31.5
 20
-42.580734
 30
0.0
 41
2.19
 42
2.19
 50
180.0
 43
2.19
  0
TEXT
  8
0
  6
CONTINUOUS
 62
   110
  5
40
 10
-2.226654
 20
-41.580734
 30
0.0
 40
3.3
  1
63
 41
0.98743
  7
MX_DIMTXSTY_2
 11
-2.226654
 21
-39.930734
 31
0.0
 73
     2
  0
POINT
  8
DEFPOINTS
  6
CONTINUOUS
 62
     0
  5
41
 10
31.5
 20
-31.0
 30
0.0
  0
POINT
  8
DEFPOINTS
  6
CONTINUOUS
 62
     0
  5
42
 10
-31.5
 20
-31.0
 30
0.0
  0
POINT
  8
DEFPOINTS
  6
CONTINUOUS
 62
     0
  5
43
 10
-31.5
 20
-42.580734
 30
0.0
  0
ENDBLK
  8
0
  6
BYBLOCK
 62
     0
  5
44
  0
BLOCK
  8
0
  6
BYBLOCK
 62
     0
  5
47
  2
*D4
 70
     1
 10
0.0
 20
0.0
 30
0.0
  3
*D4
  0
LINE
  8
0
  6
CONTINUOUS
 62
   110
  5
48
 10
56.807503
 20
125.998199
 30
0.0
 11
56.807503
 21
0.0
 31
0.0
  0
LINE
  8
0
  6
CONTINUOUS
 62
   110
  5
49
 10
32.038727
 20
125.998199
 30
0.0
 11
58.001303
 21
125.998199
 31
0.0
  0
LINE
  8
0
  6
CONTINUOUS
 62
   110
  5
4A
 10
31.5
 20
0.0
 30
0.0
 11
58.001303
 21
0.0
 31
0.0
  0
INSERT
  8
0
  6
CONTINUOUS
 62
   110
  5
4B
  2
_OPEN
 10
56.807503
 20
125.998199
 30
0.0
 41
2.19
 42
2.19
 50
90.0
 43
2.19
  0
INSERT
  8
0
  6
CONTINUOUS
 62
   110
  5
4C
  2
_OPEN
 10
56.807503
 20
0.0
 30
0.0
 41
2.19
 42
2.19
 50
270.0
 43
2.19
  0
TEXT
  8
0
  6
CONTINUOUS
 62
   110
  5
4D
 10
55.807503
 20
59.363816
 30
0.0
 40
3.3
  1
126
 50
90.0
 41
0.94423
  7
MX_NOTE_STANDARD
 11
54.157503
 21
59.363816
 31
0.0
 73
     2
  0
POINT
  8
DEFPOINTS
  6
CONTINUOUS
 62
     0
  5
4E
 10
32.038727
 20
125.998199
 30
0.0
  0
POINT
  8
DEFPOINTS
  6
CONTINUOUS
 62
     0
  5
4F
 10
31.5
 20
0.0
 30
0.0
  0
POINT
  8
DEFPOINTS
  6
CONTINUOUS
 62
     0
  5
50
 10
56.807503
 20
0.0
 30
0.0
  0
ENDBLK
  8
0
  6
BYBLOCK
 62
     0
  5
51
  0
ENDSEC
  0
SECTION
  2
ENTITIES
  0
DIMENSION
  8
LY_1
  6
CONTINUOUS
 62
   110
  5
38
  2
*D1
 10
40.0
 20
144.11644
 30
0.0
 11
0.0
 21
144.11644
 31
0.0
 70
   128
  1
%%c<>
 13
-40.0
 23
113.998215
 33
0.0
 14
40.0
 24
113.998215
 34
0.0
  3
MXDIMSTYLE
1001
ACAD
1000
DSTYLE
1002
{
1070
     6
1000
_OPEN
1070
     7
1000
_OPEN
1070
    41
1040
2.19
1070
   271
1070
     0
1070
   284
1070
     8
1070
   340
1005
32
1070
   343
1005
2A
1070
   344
1005
2A
1002
}
  0
DIMENSION
  8
LY_1
  6
CONTINUOUS
 62
   110
  5
45
  2
*D3
 10
-31.5
 20
-42.580734
 30
0.0
 11
0.0
 21
-42.580734
 31
0.0
 70
   128
  1
<>
 13
31.5
 23
-31.0
 33
0.0
 14
-31.5
 24
-31.0
 34
0.0
  3
MXDIMSTYLE
1001
ACAD
1000
DSTYLE
1002
{
1070
     6
1000
_OPEN
1070
     7
1000
_OPEN
1070
    41
1040
2.19
1070
   271
1070
     0
1070
   284
1070
     8
1070
   340
1005
32
1070
   343
1005
2A
1070
   344
1005
2A
1002
}
  0
DIMENSION
  8
LY_1
  6
CONTINUOUS
 62
   110
  5
52
  2
*D4
 10
56.807503
 20
0.0
 30
0.0
 11
56.807503
 21
62.9991
 31
0.0
 70
   128
  1
<>
 13
32.038727
 23
125.998199
 33
0.0
 14
31.5
 24
0.0
 34
0.0
 50
90.0
  3
MXDIMSTYLE
1001
ACAD
1000
DSTYLE
1002
{
1070
     6
1000
_OPEN
1070
     7
1000
_OPEN
1070
    41
1040
2.19
1070
   271
1070
     0
1070
   284
1070
     8
1070
   343
1005
2A
1070
   344
1005
2A
1002
}
  0
TEXT
  8
LY_1
  6
CONTINUOUS
 62
   110
  5
53
 10
-41.302261
 20
-60.515274
 30
0.0
 40
4.167179
  1
      GATE VALVE  11/2
  7
MX_NOTE_STANDARD
  0
TEXT
  8
LY_1
  6
CONTINUOUS
 62
   110
  5
54
 10
-41.363042
 20
-76.515274
 30
0.0
 40
4.167179
  1
KITZ
 41
0.912486
  7
MX_NOTE_STANDARD
  0
TEXT
  8
LY_1
  6
CONTINUOUS
 62
   110
  5
55
 10
-41.285441
 20
-68.515274
 30
0.0
 40
4.167179
  1
FIG   FH11/2
 41
1.024219
  7
MX_NOTE_STANDARD
  0
TEXT
  8
LY_1
  6
CONTINUOUS
 62
   110
  5
56
 10
-41.363042
 20
-52.515274
 30
0.0
 40
4.167179
  1
NAME  CLASS 125 FORGED BRASS
 41
0.912486
  7
MX_NOTE_STANDARD
  0
ARC
  8
LY_1
  6
CONTINUOUS
 62
     3
  5
57
 10
-28.0
 20
41.247223
 30
0.0
 40
2.999993
 50
359.999995
 51
59.999913
  0
ARC
  8
LY_1
  6
CONTINUOUS
 62
     3
  5
58
 10
-28.0
 20
33.0
 30
0.0
 40
3.0
 50
269.999997
 51
359.999995
  0
ARC
  8
LY_1
  6
CONTINUOUS
 62
     3
  5
59
 10
-18.501404
 20
27.609055
 30
0.0
 40
2.0
 50
200.000619
 51
270.000004
  0
ARC
  8
LY_1
  6
CONTINUOUS
 62
     3
  5
5A
 10
-17.799988
 20
27.609055
 30
0.0
 40
1.999986
 50
269.999997
 51
359.999995
  0
ARC
  8
LY_1
  6
CONTINUOUS
 62
     3
  5
5B
 10
-1.550364
 20
201.706253
 30
0.0
 40
9.013995
 50
203.474563
 51
221.525332
  0
ARC
  8
LY_1
  6
CONTINUOUS
 62
     3
  5
5C
 10
-1.503716
 20
201.736023
 30
0.0
 40
7.402667
 50
203.198651
 51
221.801777
  0
ARC
  8
LY_1
  6
CONTINUOUS
 62
     3
  5
5D
 10
0.0
 20
202.69397
 30
0.0
 40
10.833336
 50
226.309046
 51
313.690949
  0
ARC
  8
LY_1
  6
CONTINUOUS
 62
     3
  5
5E
 10
0.0
 20
202.69397
 30
0.0
 40
9.166661
 50
227.462092
 51
312.537845
  0
ARC
  8
LY_1
  6
CONTINUOUS
 62
     3
  5
5F
 10
10.04686
 20
203.108017
 30
0.0
 40
1.058331
 50
227.874703
 51
264.434254
  0
ARC
  8
LY_1
  6
CONTINUOUS
 62
     3
  5
60
 10
9.711474
 20
202.737152
 30
0.0
 40
0.558333
 50
176.847927
 51
227.874071
  0
ARC
  8
LY_1
  6
CONTINUOUS
 62
     3
  5
61
 10
9.708367
 20
202.701477
 30
0.0
 40
0.558328
 50
122.12564
 51
173.172357
  0
ARC
  8
LY_1
  6
CONTINUOUS
 62
     3
  5
62
 10
9.974234
 20
202.278061
 30
0.0
 40
1.058326
 50
85.578138
 51
122.125667
  0
ARC
  8
LY_1
  6
CONTINUOUS
 62
     3
  5
63
 10
9.953143
 20
202.279892
 30
0.0
 40
1.058331
 50
47.874705
 51
84.431759
  0
ARC
  8
LY_1
  6
CONTINUOUS
 62
     3
  5
64
 10
10.28851
 20
202.650726
 30
0.0
 40
0.558333
 50
356.847926
 51
47.87505
  0
ARC
  8
LY_1
  6
CONTINUOUS
 62
     3
  5
65
 10
10.291636
 20
202.686432
 30
0.0
 40
0.558329
 50
302.125717
 51
353.172373
  0
ARC
  8
LY_1
  6
CONTINUOUS
 62
     3
  5
66
 10
10.02575
 20
203.109848
 30
0.0
 40
1.058321
 50
265.581364
 51
302.125485
  0
ARC
  8
LY_1
  6
CONTINUOUS
 62
     3
  5
67
 10
9.974234
 20
202.278061
 30
0.0
 40
1.250003
 50
85.485425
 51
122.12534
  0
ARC
  8
LY_1
  6
CONTINUOUS
 62
     3
  5
68
 10
10.28851
 20
202.650726
 30
0.0
 40
0.75
 50
356.378133
 51
47.874592
  0
ARC
  8
LY_1
  6
CONTINUOUS
 62
     3
  5
69
 10
9.953143
 20
202.279892
 30
0.0
 40
1.250006
 50
47.875005
 51
84.514664
  0
ARC
  8
LY_1
  6
CONTINUOUS
 62
     3
  5
6A
 10
9.711474
 20
202.737152
 30
0.0
 40
0.75
 50
176.378133
 51
227.874631
  0
ARC
  8
LY_1
  6
CONTINUOUS
 62
     3
  5
6B
 10
10.04686
 20
203.108017
 30
0.0
 40
1.250006
 50
227.875004
 51
264.514406
  0
ARC
  8
LY_1
  6
CONTINUOUS
 62
     3
  5
6C
 10
9.708367
 20
202.701477
 30
0.0
 40
0.749998
 50
122.12549
 51
173.642123
  0
ARC
  8
LY_1
  6
CONTINUOUS
 62
     3
  5
6D
 10
10.291636
 20
202.686432
 30
0.0
 40
0.749998
 50
302.125485
 51
353.642116
  0
ARC
  8
LY_1
  6
CONTINUOUS
 62
     3
  5
6E
 10
10.02575
 20
203.109848
 30
0.0
 40
1.249987
 50
265.485591
 51
302.125294
  0
ARC
  8
LY_1
  6
CONTINUOUS
 62
     3
  5
6F
 10
2.560425
 20
213.110565
 30
0.0
 40
0.333328
 50
90.000003
 51
180.000005
  0
ARC
  8
LY_1
  6
CONTINUOUS
 62
     3
  5
70
 10
2.482314
 20
213.089783
 30
0.0
 40
0.333346
 50
274.657743
 51
0.0
  0
ARC
  8
LY_1
  6
CONTINUOUS
 62
     3
  5
71
 10
2.535428
 20
213.064789
 30
0.0
 40
0.308332
 50
180.000009
 51
265.157366
  0
ARC
  8
LY_1
  6
CONTINUOUS
 62
     3
  5
72
 10
3.952897
 20
213.150635
 30
0.0
 40
0.012501
 50
312.505081
 51
90.000003
  0
ARC
  8
LY_1
  6
CONTINUOUS
 62
     3
  5
73
 10
4.332661
 20
213.089142
 30
0.0
 40
0.354822
 50
312.504924
 51
90.000003
  0
ARC
  8
LY_1
  6
CONTINUOUS
 62
     3
  5
74
 10
3.299439
 20
211.643936
 30
0.0
 40
0.012501
 50
132.501859
 51
270.000001
  0
ARC
  8
LY_1
  6
CONTINUOUS
 62
     3
  5
75
 10
2.476065
 20
211.298828
 30
0.0
 40
0.354879
 50
132.504031
 51
270.000001
  0
ARC
  8
LY_1
  6
CONTINUOUS
 62
     3
  5
76
 10
4.34374
 20
211.287689
 30
0.0
 40
0.34375
 50
269.999997
 51
90.000003
  0
ARC
  8
LY_1
  6
CONTINUOUS
 62
     3
  5
77
 10
-0.412024
 20
213.110489
 30
0.0
 40
0.333328
 50
90.000003
 51
180.000005
  0
ARC
  8
LY_1
  6
CONTINUOUS
 62
     3
  5
78
 10
-0.490134
 20
213.089676
 30
0.0
 40
0.333331
 50
274.658036
 51
0.0
  0
ARC
  8
LY_1
  6
CONTINUOUS
 62
     3
  5
79
 10
-0.437037
 20
213.064682
 30
0.0
 40
0.308333
 50
180.000009
 51
265.156956
  0
ARC
  8
LY_1
  6
CONTINUOUS
 62
     3
  5
7A
 10
0.580452
 20
211.238251
 30
0.0
 40
0.294306
 50
180.000009
 51
0.0
  0
ARC
  8
LY_1
  6
CONTINUOUS
 62
     3
  5
7B
 10
1.466206
 20
213.100098
 30
0.0
 40
0.343735
 50
269.999997
 51
90.000003
  0
ARC
  8
LY_1
  6
CONTINUOUS
 62
     3
  5
7C
 10
-1.460938
 20
213.149689
 30
0.0
 40
0.294287
 50
0.0
 51
180.000005
  0
ARC
  8
LY_1
  6
CONTINUOUS
 62
     3
  5
7D
 10
-1.460938
 20
211.238251
 30
0.0
 40
0.294286
 50
180.000009
 51
0.0
  0
ARC
  8
LY_1
  6
CONTINUOUS
 62
     3
  5
7E
 10
-2.478608
 20
213.18869
 30
0.0
 40
0.250007
 50
69.541359
 51
129.102678
  0
ARC
  8
LY_1
  6
CONTINUOUS
 62
     3
  5
7F
 10
-2.47118
 20
213.048294
 30
0.0
 40
0.291675
 50
211.49065
 51
266.529141
  0
ARC
  8
LY_1
  6
CONTINUOUS
 62
     3
  5
80
 10
-2.507727
 20
213.089966
 30
0.0
 40
0.33333
 50
273.248961
 51
0.0
  0
ARC
  8
LY_1
  6
CONTINUOUS
 62
     3
  5
81
 10
-2.507727
 20
213.110626
 30
0.0
 40
0.333334
 50
0.0
 51
69.540949
  0
ARC
  8
LY_1
  6
CONTINUOUS
 62
     3
  5
82
 10
-2.472559
 20
211.290848
 30
0.0
 40
0.324955
 50
230.896338
 51
50.89622
  0
ARC
  8
LY_1
  6
CONTINUOUS
 62
     3
  5
83
 10
-4.393223
 20
213.149658
 30
0.0
 40
0.294287
 50
0.0
 51
180.000005
  0
ARC
  8
LY_1
  6
CONTINUOUS
 62
     3
  5
84
 10
-4.393223
 20
211.23822
 30
0.0
 40
0.294286
 50
180.000009
 51
0.0
  0
CIRCLE
  8
LY_1
  6
CONTINUOUS
 62
     3
  5
85
 10
0.0
 20
202.69397
 30
0.0
 40
7.500001
  0
CIRCLE
  8
LY_1
  6
CONTINUOUS
 62
     3
  5
86
 10
0.0
 20
202.69397
 30
0.0
 40
12.5
  0
ARC
  8
LY_1
  6
CONTINUOUS
 62
     3
  5
87
 10
-10.620442
 20
203.678909
 30
0.0
 40
0.124997
 50
329.805079
 51
149.80531
  0
ARC
  8
LY_1
  6
CONTINUOUS
 62
     3
  5
88
 10
-9.24679
 20
201.844269
 30
0.0
 40
0.124998
 50
154.288127
 51
334.373741
  0
ARC
  8
LY_1
  6
CONTINUOUS
 62
     3
  5
89
 10
-9.504881
 20
203.197037
 30
0.0
 40
0.245228
 50
18.468065
 51
169.999092
  0
ARC
  8
LY_1
  6
CONTINUOUS
 62
     3
  5
8A
 10
-10.422715
 20
202.067642
 30
0.0
 40
0.212561
 50
202.731998
 51
349.999943
  0
ARC
  8
LY_1
  6
CONTINUOUS
 62
     3
  5
8B
 10
-10.422715
 20
202.067642
 30
0.0
 40
0.462559
 50
202.731834
 51
350.001881
  0
ARC
  8
LY_1
  6
CONTINUOUS
 62
     3
  5
8C
 10
-9.504881
 20
203.197037
 30
0.0
 40
0.495228
 50
18.467957
 51
169.999625
  0
ARC
  8
LY_1
  6
CONTINUOUS
 62
     3
  5
8D
 10
-11.011195
 20
202.69397
 30
0.0
 40
1.83333
 50
334.286103
 51
18.467937
  0
ARC
  8
LY_1
  6
CONTINUOUS
 62
     3
  5
8E
 10
-8.927861
 20
202.69397
 30
0.0
 40
1.833331
 50
149.803561
 51
202.732405
  0
ARC
  8
LY_1
  6
CONTINUOUS
 62
     3
  5
8F
 10
-8.927861
 20
202.69397
 30
0.0
 40
2.083334
 50
149.803411
 51
202.732268
  0
ARC
  8
LY_1
  6
CONTINUOUS
 62
     3
  5
90
 10
-11.011195
 20
202.69397
 30
0.0
 40
2.083332
 50
334.285967
 51
18.468307
  0
ARC
  8
LY_1
  6
CONTINUOUS
 62
     3
  5
91
 10
-11.398882
 20
236.097473
 30
0.0
 40
7.999995
 50
247.216788
 51
252.880613
  0
ARC
  8
LY_1
  6
CONTINUOUS
 62
     3
  5
92
 10
-16.830185
 20
223.19397
 30
0.0
 40
5.999993
 50
67.114443
 51
90.000003
  0
ARC
  8
LY_1
  6
CONTINUOUS
 62
     3
  5
93
 10
-11.398882
 20
169.290451
 30
0.0
 40
8.000006
 50
107.11938
 51
112.783239
  0
ARC
  8
LY_1
  6
CONTINUOUS
 62
     3
  5
94
 10
-16.830185
 20
182.19397
 30
0.0
 40
6.0
 50
269.999997
 51
292.885516
  0
ARC
  8
LY_1
  6
CONTINUOUS
 62
     3
  5
95
 10
11.398882
 20
236.097473
 30
0.0
 40
8.000005
 50
287.119341
 51
292.783227
  0
ARC
  8
LY_1
  6
CONTINUOUS
 62
     3
  5
96
 10
16.830185
 20
223.19397
 30
0.0
 40
6.0
 50
90.000003
 51
112.885596
  0
ARC
  8
LY_1
  6
CONTINUOUS
 62
     3
  5
97
 10
11.398882
 20
169.290451
 30
0.0
 40
7.99998
 50
67.216773
 51
72.880639
  0
ARC
  8
LY_1
  6
CONTINUOUS
 62
     3
  5
98
 10
16.830185
 20
182.19397
 30
0.0
 40
5.999994
 50
247.114431
 51
269.999997
  0
ARC
  8
LY_1
  6
CONTINUOUS
 62
     3
  5
99
 10
90.0
 20
80.0
 30
0.0
 40
13.0
 50
292.619863
 51
0.0
  0
ARC
  8
LY_1
  6
CONTINUOUS
 62
     3
  5
9A
 10
134.0
 20
80.0
 30
0.0
 40
13.0
 50
180.000009
 51
247.380078
  0
ARC
  8
LY_1
  6
CONTINUOUS
 62
     3
  5
9B
 10
105.099991
 20
117.299988
 30
0.0
 40
0.5
 50
269.999997
 51
0.0
  0
ARC
  8
LY_1
  6
CONTINUOUS
 62
     3
  5
9C
 10
95.524933
 20
119.199997
 30
0.0
 40
2.0
 50
90.000003
 51
180.000005
  0
ARC
  8
LY_1
  6
CONTINUOUS
 62
     3
  5
9D
 10
94.524933
 20
117.799988
 30
0.0
 40
1.0
 50
180.000009
 51
269.999997
  0
ARC
  8
LY_1
  6
CONTINUOUS
 62
     3
  5
9E
 10
81.772339
 20
119.199997
 30
0.0
 40
2.0
 50
90.000003
 51
180.000005
  0
ARC
  8
LY_1
  6
CONTINUOUS
 62
     3
  5
9F
 10
80.772339
 20
117.799988
 30
0.0
 40
1.0
 50
180.000009
 51
269.999997
  0
ARC
  8
LY_1
  6
CONTINUOUS
 62
     3
  5
A0
 10
79.961258
 20
119.599991
 30
0.0
 40
6.400012
 50
46.285187
 51
136.26558
  0
ARC
  8
LY_1
  6
CONTINUOUS
 62
     3
  5
A1
 10
82.301682
 20
117.417694
 30
0.0
 40
9.600002
 50
136.501426
 51
167.154004
  0
ARC
  8
LY_1
  6
CONTINUOUS
 62
     3
  5
A2
 10
115.762482
 20
109.434372
 30
0.0
 40
44.000008
 50
166.706353
 51
174.044066
  0
ARC
  8
LY_1
  6
CONTINUOUS
 62
     3
  5
A3
 10
88.806946
 20
119.599991
 30
0.0
 40
6.399991
 50
38.682254
 51
136.265484
  0
ARC
  8
LY_1
  6
CONTINUOUS
 62
     3
  5
A4
 10
91.147385
 20
117.417694
 30
0.0
 40
9.600014
 50
136.501494
 51
167.154004
  0
ARC
  8
LY_1
  6
CONTINUOUS
 62
     3
  5
A5
 10
124.608185
 20
109.434372
 30
0.0
 40
44.000008
 50
166.706353
 51
174.044066
  0
ARC
  8
LY_1
  6
CONTINUOUS
 62
     3
  5
A6
 10
118.899994
 20
117.299988
 30
0.0
 40
0.5
 50
180.000009
 51
269.999997
  0
ARC
  8
LY_1
  6
CONTINUOUS
 62
     3
  5
A7
 10
112.0
 20
119.599991
 30
0.0
 40
6.399994
 50
0.0
 51
180.000005
  0
ARC
  8
LY_1
  6
CONTINUOUS
 62
     3
  5
A8
 10
128.475052
 20
119.199997
 30
0.0
 40
2.0
 50
0.0
 51
90.000003
  0
ARC
  8
LY_1
  6
CONTINUOUS
 62
     3
  5
A9
 10
129.475052
 20
117.799988
 30
0.0
 40
1.0
 50
269.999997
 51
0.0
  0
ARC
  8
LY_1
  6
CONTINUOUS
 62
     3
  5
AA
 10
142.227646
 20
119.199997
 30
0.0
 40
2.0
 50
0.0
 51
90.000003
  0
ARC
  8
LY_1
  6
CONTINUOUS
 62
     3
  5
AB
 10
143.227646
 20
117.799988
 30
0.0
 40
1.0
 50
269.999997
 51
0.0
  0
ARC
  8
LY_1
  6
CONTINUOUS
 62
     3
  5
AC
 10
144.038727
 20
119.599991
 30
0.0
 40
6.400005
 50
43.734521
 51
133.714818
  0
ARC
  8
LY_1
  6
CONTINUOUS
 62
     3
  5
AD
 10
141.698303
 20
117.417694
 30
0.0
 40
9.6
 50
12.845927
 51
43.498575
  0
ARC
  8
LY_1
  6
CONTINUOUS
 62
     3
  5
AE
 10
108.237503
 20
109.434372
 30
0.0
 40
43.999996
 50
5.955957
 51
13.293654
  0
ARC
  8
LY_1
  6
CONTINUOUS
 62
     3
  5
AF
 10
135.193039
 20
119.599991
 30
0.0
 40
6.399983
 50
43.734712
 51
141.317843
  0
ARC
  8
LY_1
  6
CONTINUOUS
 62
     3
  5
B0
 10
132.8526
 20
117.417694
 30
0.0
 40
9.6
 50
12.845927
 51
43.498575
  0
ARC
  8
LY_1
  6
CONTINUOUS
 62
     3
  5
B1
 10
99.3918
 20
109.434372
 30
0.0
 40
43.999996
 50
5.955957
 51
13.293654
  0
ARC
  8
LY_1
  6
CONTINUOUS
 62
     3
  5
B2
 10
-6.9
 20
117.298203
 30
0.0
 40
0.5
 50
269.999997
 51
0.0
  0
ARC
  8
LY_1
  6
CONTINUOUS
 62
     3
  5
B3
 10
-16.475052
 20
119.198212
 30
0.0
 40
2.0
 50
90.000003
 51
180.000005
  0
ARC
  8
LY_1
  6
CONTINUOUS
 62
     3
  5
B4
 10
-17.475052
 20
117.798203
 30
0.0
 40
1.0
 50
180.000009
 51
269.999997
  0
ARC
  8
LY_1
  6
CONTINUOUS
 62
     3
  5
B5
 10
-30.227646
 20
119.198212
 30
0.0
 40
2.0
 50
90.000003
 51
180.000005
  0
ARC
  8
LY_1
  6
CONTINUOUS
 62
     3
  5
B6
 10
-31.227646
 20
117.798203
 30
0.0
 40
1.0
 50
180.000009
 51
269.999997
  0
ARC
  8
LY_1
  6
CONTINUOUS
 62
     3
  5
B7
 10
-32.038727
 20
119.598206
 30
0.0
 40
6.400011
 50
46.284989
 51
136.26547
  0
ARC
  8
LY_1
  6
CONTINUOUS
 62
     3
  5
B8
 10
-29.698303
 20
117.415909
 30
0.0
 40
9.600002
 50
136.501426
 51
167.154004
  0
ARC
  8
LY_1
  6
CONTINUOUS
 62
     3
  5
B9
 10
3.762486
 20
109.432587
 30
0.0
 40
43.999977
 50
166.706367
 51
174.044053
  0
ARC
  8
LY_1
  6
CONTINUOUS
 62
     3
  5
BA
 10
-23.193039
 20
119.598206
 30
0.0
 40
6.400003
 50
38.682165
 51
136.265389
  0
ARC
  8
LY_1
  6
CONTINUOUS
 62
     3
  5
BB
 10
-20.8526
 20
117.415909
 30
0.0
 40
9.600014
 50
136.501494
 51
167.154004
  0
ARC
  8
LY_1
  6
CONTINUOUS
 62
     3
  5
BC
 10
12.608189
 20
109.432587
 30
0.0
 40
43.999977
 50
166.706367
 51
174.044053
  0
ARC
  8
LY_1
  6
CONTINUOUS
 62
     3
  5
BD
 10
6.9
 20
117.298203
 30
0.0
 40
0.5
 50
180.000009
 51
269.999997
  0
ARC
  8
LY_1
  6
CONTINUOUS
 62
     3
  5
BE
 10
0.0
 20
119.598206
 30
0.0
 40
6.4
 50
0.0
 51
180.000005
  0
ARC
  8
LY_1
  6
CONTINUOUS
 62
     3
  5
BF
 10
16.475052
 20
119.198212
 30
0.0
 40
2.0
 50
0.0
 51
90.000003
  0
ARC
  8
LY_1
  6
CONTINUOUS
 62
     3
  5
C0
 10
17.475052
 20
117.798203
 30
0.0
 40
1.0
 50
269.999997
 51
0.0
  0
ARC
  8
LY_1
  6
CONTINUOUS
 62
     3
  5
C1
 10
30.227646
 20
119.198212
 30
0.0
 40
2.0
 50
0.0
 51
90.000003
  0
ARC
  8
LY_1
  6
CONTINUOUS
 62
     3
  5
C2
 10
31.227646
 20
117.798203
 30
0.0
 40
1.0
 50
269.999997
 51
0.0
  0
ARC
  8
LY_1
  6
CONTINUOUS
 62
     3
  5
C3
 10
32.038727
 20
119.598206
 30
0.0
 40
6.399994
 50
43.73462
 51
133.714914
  0
ARC
  8
LY_1
  6
CONTINUOUS
 62
     3
  5
C4
 10
29.698303
 20
117.415909
 30
0.0
 40
9.6
 50
12.845927
 51
43.498575
  0
ARC
  8
LY_1
  6
CONTINUOUS
 62
     3
  5
C5
 10
-3.762486
 20
109.432587
 30
0.0
 40
43.999985
 50
5.955978
 51
13.293657
  0
CIRCLE
  8
LY_1
  6
CONTINUOUS
 62
   110
  5
C6
 10
0.0
 20
202.69397
 30
0.0
 40
2.299999
  0
CIRCLE
  8
LY_1
  6
CONTINUOUS
 62
     3
  5
C7
 10
0.0
 20
202.69397
 30
0.0
 40
3.0
  0
ARC
  8
LY_1
  6
CONTINUOUS
 62
     3
  5
C8
 10
0.0
 20
202.69397
 30
0.0
 40
24.799992
 50
100.689351
 51
169.310677
  0
ARC
  8
LY_1
  6
CONTINUOUS
 62
     3
  5
C9
 10
0.0
 20
202.69397
 30
0.0
 40
24.799992
 50
190.689364
 51
259.310669
  0
ARC
  8
LY_1
  6
CONTINUOUS
 62
     3
  5
CA
 10
0.0
 20
202.69397
 30
0.0
 40
24.800024
 50
280.689346
 51
349.310644
  0
ARC
  8
LY_1
  6
CONTINUOUS
 62
     3
  5
CB
 10
0.0
 20
202.69397
 30
0.0
 40
24.799976
 50
10.689369
 51
79.310688
  0
ARC
  8
LY_1
  6
CONTINUOUS
 62
     3
  5
CC
 10
29.666565
 20
195.194061
 30
0.0
 40
1.399994
 50
90.000003
 51
165.812158
  0
ARC
  8
LY_1
  6
CONTINUOUS
 62
     3
  5
CD
 10
26.280716
 20
187.019699
 30
0.0
 40
1.400002
 50
149.187792
 51
224.999996
  0
ARC
  8
LY_1
  6
CONTINUOUS
 62
     3
  5
CE
 10
0.0
 20
202.69397
 30
0.0
 40
29.199976
 50
329.187651
 51
345.812401
  0
ARC
  8
LY_1
  6
CONTINUOUS
 62
     3
  5
CF
 10
0.0
 20
202.69397
 30
0.0
 40
32.799992
 50
325.718048
 51
349.281999
  0
ARC
  8
LY_1
  6
CONTINUOUS
 62
     3
  5
D0
 10
74.807999
 20
171.707489
 30
0.0
 40
44.999996
 50
143.586545
 51
171.413815
  0
ARC
  8
LY_1
  6
CONTINUOUS
 62
     3
  5
D1
 10
23.193039
 20
179.500946
 30
0.0
 40
7.200017
 50
278.418554
 51
351.413576
  0
ARC
  8
LY_1
  6
CONTINUOUS
 62
     3
  5
D2
 10
15.67421
 20
176.413284
 30
0.0
 40
1.399993
 50
45.000005
 51
120.812058
  0
ARC
  8
LY_1
  6
CONTINUOUS
 62
     3
  5
D3
 10
7.499908
 20
173.027298
 30
0.0
 40
1.400017
 50
104.187555
 51
180.000005
  0
ARC
  8
LY_1
  6
CONTINUOUS
 62
     3
  5
D4
 10
0.0
 20
202.69397
 30
0.0
 40
29.200012
 50
284.187673
 51
300.812408
  0
ARC
  8
LY_1
  6
CONTINUOUS
 62
     3
  5
D5
 10
0.0
 20
202.69397
 30
0.0
 40
32.800003
 50
280.718087
 51
304.282011
  0
ARC
  8
LY_1
  6
CONTINUOUS
 62
     3
  5
D6
 10
30.986496
 20
127.885971
 30
0.0
 40
45.000004
 50
98.586554
 51
126.413797
  0
ARC
  8
LY_1
  6
CONTINUOUS
 62
     3
  5
D7
 10
0.000011
 20
169.894058
 30
0.0
 40
7.199985
 50
233.418536
 51
306.4137
  0
ARC
  8
LY_1
  6
CONTINUOUS
 62
     3
  5
D8
 10
-7.4999
 20
173.027374
 30
0.0
 40
1.400001
 50
0.0
 51
75.812299
  0
ARC
  8
LY_1
  6
CONTINUOUS
 62
     3
  5
D9
 10
-15.674257
 20
176.413223
 30
0.0
 40
1.400002
 50
59.187749
 51
134.999509
  0
ARC
  8
LY_1
  6
CONTINUOUS
 62
     3
  5
DA
 10
0.0
 20
202.69397
 30
0.0
 40
29.200003
 50
239.187669
 51
255.812417
  0
ARC
  8
LY_1
  6
CONTINUOUS
 62
     3
  5
DB
 10
0.0
 20
202.69397
 30
0.0
 40
32.800003
 50
235.718055
 51
259.282017
  0
ARC
  8
LY_1
  6
CONTINUOUS
 62
     3
  5
DC
 10
-30.986481
 20
127.885971
 30
0.0
 40
44.999989
 50
53.586488
 51
81.413751
  0
ARC
  8
LY_1
  6
CONTINUOUS
 62
     3
  5
DD
 10
-23.193024
 20
179.500931
 30
0.0
 40
7.199987
 50
188.418586
 51
261.413794
  0
ARC
  8
LY_1
  6
CONTINUOUS
 62
     3
  5
DE
 10
-26.280655
 20
187.019745
 30
0.0
 40
1.400004
 50
315.000439
 51
30.812752
  0
ARC
  8
LY_1
  6
CONTINUOUS
 62
     3
  5
DF
 10
-29.666641
 20
195.194046
 30
0.0
 40
1.400003
 50
14.187701
 51
90.000003
  0
ARC
  8
LY_1
  6
CONTINUOUS
 62
     3
  5
E0
 10
0.0
 20
202.69397
 30
0.0
 40
29.199995
 50
194.18765
 51
210.812426
  0
ARC
  8
LY_1
  6
CONTINUOUS
 62
     3
  5
E1
 10
0.0
 20
202.69397
 30
0.0
 40
32.800003
 50
190.718051
 51
214.282026
  0
ARC
  8
LY_1
  6
CONTINUOUS
 62
     3
  5
E2
 10
-74.807999
 20
171.707474
 30
0.0
 40
45.000011
 50
8.586486
 51
36.413757
  0
ARC
  8
LY_1
  6
CONTINUOUS
 62
     3
  5
E3
 10
-32.799881
 20
202.693939
 30
0.0
 40
7.199996
 50
143.418618
 51
216.413656
  0
ARC
  8
LY_1
  6
CONTINUOUS
 62
     3
  5
E4
 10
-29.666565
 20
210.193863
 30
0.0
 40
1.399994
 50
269.999997
 51
345.812751
  0
ARC
  8
LY_1
  6
CONTINUOUS
 62
     3
  5
E5
 10
-26.280716
 20
218.368225
 30
0.0
 40
1.40001
 50
329.187248
 51
44.999561
  0
ARC
  8
LY_1
  6
CONTINUOUS
 62
     3
  5
E6
 10
0.0
 20
202.69397
 30
0.0
 40
29.199982
 50
149.187697
 51
165.812432
  0
ARC
  8
LY_1
  6
CONTINUOUS
 62
     3
  5
E7
 10
0.0
 20
202.69397
 30
0.0
 40
32.799992
 50
145.718056
 51
169.282059
  0
ARC
  8
LY_1
  6
CONTINUOUS
 62
     3
  5
E8
 10
-74.807999
 20
233.680435
 30
0.0
 40
45.000015
 50
323.58651
 51
351.413771
  0
ARC
  8
LY_1
  6
CONTINUOUS
 62
     3
  5
E9
 10
-23.193039
 20
225.886978
 30
0.0
 40
7.200002
 50
98.418586
 51
171.413583
  0
ARC
  8
LY_1
  6
CONTINUOUS
 62
     3
  5
EA
 10
-15.674203
 20
228.97464
 30
0.0
 40
1.399998
 50
224.999808
 51
300.812142
  0
ARC
  8
LY_1
  6
CONTINUOUS
 62
     3
  5
EB
 10
-7.49992
 20
232.360611
 30
0.0
 40
1.399988
 50
284.187817
 51
0.0
  0
ARC
  8
LY_1
  6
CONTINUOUS
 62
     3
  5
EC
 10
0.0
 20
202.69397
 30
0.0
 40
29.19998
 50
104.187665
 51
120.812386
  0
ARC
  8
LY_1
  6
CONTINUOUS
 62
     3
  5
ED
 10
0.0
 20
202.69397
 30
0.0
 40
32.799984
 50
100.718058
 51
124.282013
  0
ARC
  8
LY_1
  6
CONTINUOUS
 62
     3
  5
EE
 10
-30.986481
 20
277.501984
 30
0.0
 40
45.000004
 50
278.586549
 51
306.413758
  0
ARC
  8
LY_1
  6
CONTINUOUS
 62
     3
  5
EF
 10
0.000054
 20
235.493927
 30
0.0
 40
7.199996
 50
53.418612
 51
126.413701
  0
ARC
  8
LY_1
  6
CONTINUOUS
 62
     3
  5
F0
 10
7.499987
 20
232.360611
 30
0.0
 40
1.400001
 50
180.000009
 51
255.812165
  0
ARC
  8
LY_1
  6
CONTINUOUS
 62
     3
  5
F1
 10
15.674182
 20
228.97464
 30
0.0
 40
1.400002
 50
239.187751
 51
314.999476
  0
ARC
  8
LY_1
  6
CONTINUOUS
 62
     3
  5
F2
 10
0.0
 20
202.69397
 30
0.0
 40
29.199999
 50
59.187633
 51
75.812354
  0
ARC
  8
LY_1
  6
CONTINUOUS
 62
     3
  5
F3
 10
0.0
 20
202.69397
 30
0.0
 40
32.799988
 50
55.718006
 51
79.281988
  0
ARC
  8
LY_1
  6
CONTINUOUS
 62
     3
  5
F4
 10
30.986496
 20
277.501984
 30
0.0
 40
44.999989
 50
233.586476
 51
261.413746
  0
ARC
  8
LY_1
  6
CONTINUOUS
 62
     3
  5
F5
 10
23.1931
 20
225.886978
 30
0.0
 40
7.199987
 50
8.418596
 51
81.413799
  0
ARC
  8
LY_1
  6
CONTINUOUS
 62
     3
  5
F6
 10
26.280777
 20
218.368164
 30
0.0
 40
1.400014
 50
135.000888
 51
210.812423
  0
ARC
  8
LY_1
  6
CONTINUOUS
 62
     3
  5
F7
 10
29.666626
 20
210.19397
 30
0.0
 40
1.400003
 50
194.187691
 51
269.999997
  0
ARC
  8
LY_1
  6
CONTINUOUS
 62
     3
  5
F8
 10
0.0
 20
202.69397
 30
0.0
 40
29.199991
 50
14.187627
 51
30.812418
  0
ARC
  8
LY_1
  6
CONTINUOUS
 62
     3
  5
F9
 10
0.0
 20
202.69397
 30
0.0
 40
32.800003
 50
10.718028
 51
34.28201
  0
ARC
  8
LY_1
  6
CONTINUOUS
 62
     3
  5
FA
 10
74.808014
 20
233.680435
 30
0.0
 40
45.000008
 50
188.586431
 51
216.413742
  0
ARC
  8
LY_1
  6
CONTINUOUS
 62
     3
  5
FB
 10
32.799988
 20
202.69397
 30
0.0
 40
7.199996
 50
323.41861
 51
36.413671
  0
ARC
  8
LY_1
  6
CONTINUOUS
 62
     3
  5
FC
 10
23.193039
 20
119.598206
 30
0.0
 40
6.399983
 50
43.734712
 51
141.317843
  0
ARC
  8
LY_1
  6
CONTINUOUS
 62
     3
  5
FD
 10
20.8526
 20
117.415909
 30
0.0
 40
9.6
 50
12.845927
 51
43.498575
  0
ARC
  8
LY_1
  6
CONTINUOUS
 62
     3
  5
FE
 10
-12.608189
 20
109.432587
 30
0.0
 40
43.999969
 50
5.95598
 51
13.293642
  0
ARC
  8
LY_1
  6
CONTINUOUS
 62
     3
  5
FF
 10
-22.0
 20
80.639542
 30
0.0
 40
13.000011
 50
285.000158
 51
0.0
  0
ARC
  8
LY_1
  6
CONTINUOUS
 62
     3
  5
100
 10
22.0
 20
80.639542
 30
0.0
 40
13.0
 50
180.000009
 51
254.999946
  0
ARC
  8
LY_1
  6
CONTINUOUS
 62
     3
  5
101
 10
1.550364
 20
201.706253
 30
0.0
 40
9.013993
 50
318.474728
 51
336.525427
  0
ARC
  8
LY_1
  6
CONTINUOUS
 62
     3
  5
102
 10
1.503697
 20
201.736023
 30
0.0
 40
7.402665
 50
318.1983
 51
336.801336
  0
ARC
  8
LY_1
  6
CONTINUOUS
 62
     3
  5
103
 10
2.434203
 20
3.917786
 30
0.0
 40
0.917749
 50
217.524084
 51
359.99994
  0
ARC
  8
LY_1
  6
CONTINUOUS
 62
     3
  5
104
 10
-2.430144
 20
3.921753
 30
0.0
 40
0.921781
 50
180.00005
 51
359.999941
  0
ARC
  8
LY_1
  6
CONTINUOUS
 62
     3
  5
105
 10
-2.434081
 20
10.29425
 30
0.0
 40
0.917907
 50
37.524106
 51
180.000005
  0
ARC
  8
LY_1
  6
CONTINUOUS
 62
     3
  5
106
 10
2.410216
 20
9.931534
 30
0.0
 40
0.941759
 50
0.0
 51
270.000001
  0
ARC
  8
LY_1
  6
CONTINUOUS
 62
     3
  5
107
 10
2.429961
 20
13.129958
 30
0.0
 40
0.921741
 50
180.00005
 51
0.0
  0
ARC
  8
LY_1
  6
CONTINUOUS
 62
     3
  5
108
 10
-2.410155
 20
16.142578
 30
0.0
 40
0.941772
 50
90.000003
 51
270.000001
  0
ARC
  8
LY_1
  6
CONTINUOUS
 62
     3
  5
109
 10
2.409972
 20
19.443466
 30
0.0
 40
0.941707
 50
0.0
 51
270.000001
  0
ARC
  8
LY_1
  6
CONTINUOUS
 62
     3
  5
10A
 10
-2.410155
 20
22.674881
 30
0.0
 40
0.941772
 50
90.000003
 51
270.000001
  0
ARC
  8
LY_1
  6
CONTINUOUS
 62
     3
  5
10B
 10
2.410216
 20
22.674881
 30
0.0
 40
0.941788
 50
269.999997
 51
90.000003
  0
ARC
  8
LY_1
  6
CONTINUOUS
 62
     3
  5
10C
 10
2.235001
 20
25.850601
 30
0.0
 40
1.117021
 50
0.778786
 51
34.259078
  0
ARC
  8
LY_1
  6
CONTINUOUS
 62
     3
  5
10D
 10
2.430481
 20
25.879654
 30
0.0
 40
0.921553
 50
123.574624
 51
359.142357
  0
ARC
  8
LY_1
  6
CONTINUOUS
 62
     3
  5
10E
 10
-2.432343
 20
25.896637
 30
0.0
 40
0.928116
 50
145.740445
 51
325.740983
  0
ARC
  8
LY_1
  6
CONTINUOUS
 62
     3
  5
10F
 10
-2.410248
 20
32.058304
 30
0.0
 40
0.941696
 50
90.000003
 51
270.000001
  0
ARC
  8
LY_1
  6
CONTINUOUS
 62
     3
  5
110
 10
2.410277
 20
32.058304
 30
0.0
 40
0.941742
 50
269.999997
 51
90.000003
  0
ARC
  8
LY_1
  6
CONTINUOUS
 62
     3
  5
111
 10
-18.799988
 20
42.0
 30
0.0
 40
2.999986
 50
0.0
 51
90.000003
  0
ARC
  8
LY_1
  6
CONTINUOUS
 62
     3
  5
112
 10
18.799988
 20
42.0
 30
0.0
 40
3.0
 50
90.000003
 51
180.000005
  0
ARC
  8
LY_1
  6
CONTINUOUS
 62
     3
  5
113
 10
28.0
 20
33.0
 30
0.0
 40
3.0
 50
180.000009
 51
269.999997
  0
ARC
  8
LY_1
  6
CONTINUOUS
 62
     3
  5
114
 10
28.0
 20
41.247223
 30
0.0
 40
2.999993
 50
120.000085
 51
180.000005
  0
ARC
  8
LY_1
  6
CONTINUOUS
 62
     3
  5
115
 10
107.0
 20
42.0
 30
0.0
 40
3.0
 50
0.0
 51
90.000003
  0
ARC
  8
LY_1
  6
CONTINUOUS
 62
     3
  5
116
 10
82.329834
 20
42.288147
 30
0.0
 40
2.999977
 50
0.499798
 51
50.651891
  0
ARC
  8
LY_1
  6
CONTINUOUS
 62
     3
  5
117
 10
85.5
 20
46.154694
 30
0.0
 40
2.0
 50
180.000432
 51
230.651749
  0
ARC
  8
LY_1
  6
CONTINUOUS
 62
     3
  5
118
 10
-19.799988
 20
35.358246
 30
0.0
 40
3.999986
 50
359.999781
 51
59.999954
  0
ARC
  8
LY_1
  6
CONTINUOUS
 62
     3
  5
119
 10
-26.5
 20
46.154694
 30
0.0
 40
1.999985
 50
180.000432
 51
240.000652
  0
ARC
  8
LY_1
  6
CONTINUOUS
 62
     3
  5
11A
 10
18.501404
 20
27.609055
 30
0.0
 40
2.0
 50
269.999997
 51
339.999376
  0
ARC
  8
LY_1
  6
CONTINUOUS
 62
     3
  5
11B
 10
17.799988
 20
27.609055
 30
0.0
 40
1.999986
 50
180.000009
 51
269.999997
  0
ARC
  8
LY_1
  6
CONTINUOUS
 62
     3
  5
11C
 10
117.0
 20
42.0
 30
0.0
 40
3.0
 50
90.000003
 51
180.000005
  0
ARC
  8
LY_1
  6
CONTINUOUS
 62
     3
  5
11D
 10
141.670151
 20
42.288147
 30
0.0
 40
2.999999
 50
129.348347
 51
179.500213
  0
ARC
  8
LY_1
  6
CONTINUOUS
 62
     3
  5
11E
 10
138.5
 20
46.154694
 30
0.0
 40
1.999993
 50
309.347905
 51
359.999563
  0
CIRCLE
  8
LY_1
  6
CONTINUOUS
 62
     3
  5
11F
 10
112.0
 20
0.0
 30
0.0
 40
22.399994
  0
CIRCLE
  8
LY_1
  6
CONTINUOUS
 62
   110
  5
120
 10
112.0
 20
0.0
 30
0.0
 40
23.899994
  0
ARC
  8
LY_1
  6
CONTINUOUS
 62
     3
  5
121
 10
19.799988
 20
35.358246
 30
0.0
 40
4.000003
 50
120.000236
 51
180.00021
  0
ARC
  8
LY_1
  6
CONTINUOUS
 62
     3
  5
122
 10
26.5
 20
46.154694
 30
0.0
 40
1.999997
 50
299.999554
 51
359.999563
  0
ARC
  8
LY_1
  6
CONTINUOUS
 62
     3
  5
123
 10
-12.092912
 20
-31.10083
 30
0.0
 40
6.000023
 50
68.013262
 51
114.137188
  0
ARC
  8
LY_1
  6
CONTINUOUS
 62
     3
  5
124
 10
-17.0
 20
-20.150009
 30
0.0
 40
6.0
 50
269.999997
 51
294.137312
  0
ARC
  8
LY_1
  6
CONTINUOUS
 62
     3
  5
125
 10
-18.33432
 20
-28.150009
 30
0.0
 40
2.0
 50
90.000003
 51
159.999381
  0
ARC
  8
LY_1
  6
CONTINUOUS
 62
     3
  5
126
 10
12.092912
 20
-31.10083
 30
0.0
 40
6.000006
 50
65.862783
 51
111.986805
  0
ARC
  8
LY_1
  6
CONTINUOUS
 62
     3
  5
127
 10
0.0
 20
-1.150009
 30
0.0
 40
26.299995
 50
248.01314
 51
291.986841
  0
ARC
  8
LY_1
  6
CONTINUOUS
 62
     3
  5
128
 10
17.0
 20
-20.150009
 30
0.0
 40
5.999979
 50
245.862635
 51
269.999997
  0
ARC
  8
LY_1
  6
CONTINUOUS
 62
     3
  5
129
 10
18.33432
 20
-28.150009
 30
0.0
 40
1.999998
 50
20.00036
 51
90.000003
  0
LINE
  8
LY_1
  6
CONTINUOUS
 62
     3
  5
12A
 10
-28.968098
 20
230.186829
 30
0.0
 11
-31.5
 21
230.186829
 31
0.0
  0
LINE
  8
LY_1
  6
CONTINUOUS
 62
     3
  5
12B
 10
-28.957426
 20
175.186829
 30
0.0
 11
-31.5
 21
175.186829
 31
0.0
  0
LINE
  8
LY_1
  6
CONTINUOUS
 62
     3
  5
12C
 10
28.957468
 20
175.186829
 30
0.0
 11
31.5
 21
175.186829
 31
0.0
  0
LINE
  8
LY_1
  6
CONTINUOUS
 62
     3
  5
12D
 10
28.968142
 20
230.186829
 30
0.0
 11
31.5
 21
230.186829
 31
0.0
  0
LINE
  8
LY_1
  6
CONTINUOUS
 62
     3
  5
12E
 10
18.949998
 20
60.498218
 30
0.0
 11
29.0
 21
59.38
 31
0.0
  0
LINE
  8
LY_1
  6
CONTINUOUS
 62
     3
  5
12F
 10
-18.949998
 20
60.498218
 30
0.0
 11
-29.0
 21
59.38
 31
0.0
  0
LINE
  8
LY_1
  6
CONTINUOUS
 62
     3
  5
130
 10
-29.0
 20
59.380001
 30
0.0
 11
29.0
 21
59.380001
 31
0.0
  0
LINE
  8
LY_1
  6
CONTINUOUS
 62
     3
  5
131
 10
83.0
 20
59.379757
 30
0.0
 11
140.999588
 21
59.379757
 31
0.0
  0
LINE
  8
LY_1
  6
CONTINUOUS
 62
     3
  5
132
 10
-29.0
 20
56.5
 30
0.0
 11
29.0
 21
56.5
 31
0.0
  0
LINE
  8
LY_1
  6
CONTINUOUS
 62
     3
  5
133
 10
-17.799988
 20
25.609055
 30
0.0
 11
-18.501404
 21
25.609055
 31
0.0
  0
LINE
  8
LY_1
  6
CONTINUOUS
 62
     3
  5
134
 10
-25.0
 20
41.247223
 30
0.0
 11
-25.0
 21
33.0
 31
0.0
  0
LINE
  8
LY_1
  6
CONTINUOUS
 62
     3
  5
135
 10
-21.499985
 20
29.999986
 30
0.0
 11
-20.380783
 21
26.924988
 31
0.0
  0
LINE
  8
LY_1
  6
CONTINUOUS
 62
     3
  5
136
 10
-21.5
 20
-31.0
 30
0.0
 11
-31.5
 21
-31.0
 31
0.0
  0
LINE
  8
LY_1
  6
CONTINUOUS
 62
     3
  5
137
 10
-21.5
 20
-15.877112
 30
0.0
 11
-31.5
 21
-15.877112
 31
0.0
  0
LINE
  8
LY_1
  6
CONTINUOUS
 62
     3
  5
138
 10
-31.5
 20
30.0
 30
0.0
 11
-31.5
 21
-31.0
 31
0.0
  0
LINE
  8
LY_1
  6
CONTINUOUS
 62
     3
  5
139
 10
-21.5
 20
15.87711
 30
0.0
 11
-31.5
 21
15.87711
 31
0.0
  0
LINE
  8
LY_1
  6
CONTINUOUS
 62
     3
  5
13A
 10
-21.5
 20
30.0
 30
0.0
 11
-21.5
 21
-31.0
 31
0.0
  0
LINE
  8
LY_1
  6
CONTINUOUS
 62
     3
  5
13B
 10
-21.5
 20
30.0
 30
0.0
 11
-31.5
 21
30.0
 31
0.0
  0
LINE
  8
LY_1
  6
CONTINUOUS
 62
     3
  5
13C
 10
21.5
 20
30.0
 30
0.0
 11
31.5
 21
30.0
 31
0.0
  0
LINE
  8
LY_1
  6
CONTINUOUS
 62
     3
  5
13D
 10
21.5
 20
15.87711
 30
0.0
 11
31.5
 21
15.87711
 31
0.0
  0
LINE
  8
LY_1
  6
CONTINUOUS
 62
     3
  5
13E
 10
21.5
 20
-15.877112
 30
0.0
 11
31.5
 21
-15.877112
 31
0.0
  0
LINE
  8
LY_1
  6
CONTINUOUS
 62
     3
  5
13F
 10
21.5
 20
-31.0
 30
0.0
 11
31.5
 21
-31.0
 31
0.0
  0
LINE
  8
LY_1
  6
CONTINUOUS
 62
     3
  5
140
 10
83.0
 20
56.5
 30
0.0
 11
141.0
 21
56.5
 31
0.0
  0
LINE
  8
LY_1
  6
CONTINUOUS
 62
     3
  5
141
 10
110.693596
 20
-31.0
 30
0.0
 11
113.306389
 21
-31.0
 31
0.0
  0
LINE
  8
LY_1
  6
CONTINUOUS
 62
     3
  5
142
 10
108.961525
 20
30.0
 30
0.0
 11
115.038452
 21
30.0
 31
0.0
  0
LINE
  8
LY_1
  6
CONTINUOUS
 62
     3
  5
143
 10
110.0
 20
42.0
 30
0.0
 11
110.0
 21
30.0
 31
0.0
  0
LINE
  8
LY_1
  6
CONTINUOUS
 62
     3
  5
144
 10
115.038449
 20
29.999997
 30
0.0
 11
139.499996
 21
15.877108
 31
0.0
  0
LINE
  8
LY_1
  6
CONTINUOUS
 62
     3
  5
145
 10
139.5
 20
15.87711
 30
0.0
 11
139.5
 21
-15.877118
 31
0.0
  0
LINE
  8
LY_1
  6
CONTINUOUS
 62
     3
  5
146
 10
113.306387
 20
-31.000005
 30
0.0
 11
139.499998
 21
-15.877123
 31
0.0
  0
LINE
  8
LY_1
  6
CONTINUOUS
 62
     3
  5
147
 10
84.500004
 20
-15.877114
 30
0.0
 11
110.693594
 21
-31.0
 31
0.0
  0
LINE
  8
LY_1
  6
CONTINUOUS
 62
     3
  5
148
 10
84.5
 20
15.87711
 30
0.0
 11
84.5
 21
-15.877112
 31
0.0
  0
LINE
  8
LY_1
  6
CONTINUOUS
 62
     3
  5
149
 10
84.499999
 20
15.877111
 30
0.0
 11
108.96152
 21
29.999999
 31
0.0
  0
LINE
  8
LY_1
  6
CONTINUOUS
 62
     3
  5
14A
 10
29.0
 20
59.380001
 30
0.0
 11
29.0
 21
53.5
 31
0.0
  0
LINE
  8
LY_1
  6
CONTINUOUS
 62
     3
  5
14B
 10
-29.0
 20
59.380001
 30
0.0
 11
-29.0
 21
53.5
 31
0.0
  0
LINE
  8
LY_1
  6
CONTINUOUS
 62
     3
  5
14C
 10
7.022066
 20
196.801726
 30
0.0
 11
8.298809
 21
195.73042
 31
0.0
  0
LINE
  8
LY_1
  6
CONTINUOUS
 62
     3
  5
14D
 10
7.55255
 20
199.172156
 30
0.0
 11
8.3078
 21
198.819953
 31
0.0
  0
LINE
  8
LY_1
  6
CONTINUOUS
 62
     3
  5
14E
 10
10.573589
 20
197.763408
 30
0.0
 11
9.818324
 21
198.115597
 31
0.0
  0
LINE
  8
LY_1
  6
CONTINUOUS
 62
     3
  5
14F
 10
9.848081
 20
200.957443
 30
0.0
 11
7.552568
 21
199.172119
 31
0.0
  0
LINE
  8
LY_1
  6
CONTINUOUS
 62
     3
  5
150
 10
9.848074
 20
200.957479
 30
0.0
 11
10.573576
 21
197.763433
 31
0.0
  0
LINE
  8
LY_1
  6
CONTINUOUS
 62
     3
  5
151
 10
-7.022073
 20
196.801717
 30
0.0
 11
-8.298816
 21
195.730412
 31
0.0
  0
LINE
  8
LY_1
  6
CONTINUOUS
 62
     3
  5
152
 10
-7.552568
 20
199.172146
 30
0.0
 11
-8.307834
 21
198.819942
 31
0.0
  0
LINE
  8
LY_1
  6
CONTINUOUS
 62
     3
  5
153
 10
-10.573591
 20
197.763403
 30
0.0
 11
-9.818336
 21
198.115593
 31
0.0
  0
LINE
  8
LY_1
  6
CONTINUOUS
 62
     3
  5
154
 10
-9.848096
 20
200.957473
 30
0.0
 11
-7.552571
 21
199.17214
 31
0.0
  0
LINE
  8
LY_1
  6
CONTINUOUS
 62
     3
  5
155
 10
-9.848091
 20
200.957482
 30
0.0
 11
-10.573593
 21
197.763436
 31
0.0
  0
LINE
  8
LY_1
  6
CONTINUOUS
 62
     3
  5
156
 10
2.227076
 20
213.110565
 30
0.0
 11
2.227076
 21
213.064789
 31
0.0
  0
LINE
  8
LY_1
  6
CONTINUOUS
 62
     3
  5
157
 10
2.815646
 20
213.163086
 30
0.0
 11
2.815646
 21
213.089783
 31
0.0
  0
LINE
  8
LY_1
  6
CONTINUOUS
 62
     3
  5
158
 10
-0.156802
 20
213.163025
 30
0.0
 11
-0.156802
 21
213.089676
 31
0.0
  0
LINE
  8
LY_1
  6
CONTINUOUS
 62
     3
  5
159
 10
-0.745355
 20
213.110489
 30
0.0
 11
-0.745355
 21
213.064682
 31
0.0
  0
LINE
  8
LY_1
  6
CONTINUOUS
 62
     3
  5
15A
 10
-1.166661
 20
213.149689
 30
0.0
 11
-1.166661
 21
211.238251
 31
0.0
  0
LINE
  8
LY_1
  6
CONTINUOUS
 62
     3
  5
15B
 10
-1.755215
 20
213.149689
 30
0.0
 11
-1.755215
 21
211.238251
 31
0.0
  0
LINE
  8
LY_1
  6
CONTINUOUS
 62
     3
  5
15C
 10
-2.174397
 20
213.110626
 30
0.0
 11
-2.174397
 21
213.089966
 31
0.0
  0
LINE
  8
LY_1
  6
CONTINUOUS
 62
     3
  5
15D
 10
-0.156802
 20
213.163025
 30
0.0
 11
0.286157
 21
213.163025
 31
0.0
  0
LINE
  8
LY_1
  6
CONTINUOUS
 62
     3
  5
15E
 10
0.874765
 20
212.756363
 30
0.0
 11
1.466206
 21
212.756363
 31
0.0
  0
LINE
  8
LY_1
  6
CONTINUOUS
 62
     3
  5
15F
 10
0.874765
 20
212.756363
 30
0.0
 11
0.874765
 21
211.238251
 31
0.0
  0
LINE
  8
LY_1
  6
CONTINUOUS
 62
     3
  5
160
 10
0.286157
 20
213.163025
 30
0.0
 11
0.286157
 21
211.238251
 31
0.0
  0
LINE
  8
LY_1
  6
CONTINUOUS
 62
     3
  5
161
 10
-0.412024
 20
213.443802
 30
0.0
 11
1.466206
 21
213.443802
 31
0.0
  0
LINE
  8
LY_1
  6
CONTINUOUS
 62
     3
  5
162
 10
2.815646
 20
213.163132
 30
0.0
 11
3.952897
 21
213.163132
 31
0.0
  0
LINE
  8
LY_1
  6
CONTINUOUS
 62
     3
  5
163
 10
2.476065
 20
210.943939
 30
0.0
 11
4.34374
 21
210.943939
 31
0.0
  0
LINE
  8
LY_1
  6
CONTINUOUS
 62
     3
  5
164
 10
4.34374
 20
211.631439
 30
0.0
 11
3.299439
 21
211.631439
 31
0.0
  0
LINE
  8
LY_1
  6
CONTINUOUS
 62
     3
  5
165
 10
4.572404
 20
212.827534
 30
0.0
 11
3.291022
 21
211.653184
 31
0.0
  0
LINE
  8
LY_1
  6
CONTINUOUS
 62
     3
  5
166
 10
3.961339
 20
213.1414
 30
0.0
 11
2.233834
 21
211.558198
 31
0.0
  0
LINE
  8
LY_1
  6
CONTINUOUS
 62
     3
  5
167
 10
2.560425
 20
213.443939
 30
0.0
 11
4.332661
 21
213.443939
 31
0.0
  0
LINE
  8
LY_1
  6
CONTINUOUS
 62
     3
  5
168
 10
-3.326012
 20
212.403301
 30
0.0
 11
-2.719879
 21
212.895939
 31
0.0
  0
LINE
  8
LY_1
  6
CONTINUOUS
 62
     3
  5
169
 10
-3.326043
 20
212.403278
 30
0.0
 11
-2.267614
 21
211.54299
 31
0.0
  0
LINE
  8
LY_1
  6
CONTINUOUS
 62
     3
  5
16A
 10
-4.086254
 20
212.204185
 30
0.0
 11
-2.636264
 21
213.382715
 31
0.0
  0
LINE
  8
LY_1
  6
CONTINUOUS
 62
     3
  5
16B
 10
-4.086257
 20
212.183701
 30
0.0
 11
-2.677507
 21
211.038694
 31
0.0
  0
LINE
  8
LY_1
  6
CONTINUOUS
 62
     3
  5
16C
 10
-4.098948
 20
213.149658
 30
0.0
 11
-4.098948
 21
211.23822
 31
0.0
  0
LINE
  8
LY_1
  6
CONTINUOUS
 62
     3
  5
16D
 10
-4.687518
 20
213.149658
 30
0.0
 11
-4.687518
 21
211.23822
 31
0.0
  0
LINE
  8
LY_1
  6
CONTINUOUS
 62
     3
  5
16E
 10
-9.992594
 20
203.283025
 30
0.0
 11
-10.213408
 21
202.030721
 31
0.0
  0
LINE
  8
LY_1
  6
CONTINUOUS
 62
     3
  5
16F
 10
-9.74638
 20
203.239631
 30
0.0
 11
-9.967194
 21
201.987328
 31
0.0
  0
LINE
  8
LY_1
  6
CONTINUOUS
 62
     3
  5
170
 10
-22.5
 20
207.402893
 30
0.0
 11
-22.5
 21
213.124222
 31
0.0
  0
LINE
  8
LY_1
  6
CONTINUOUS
 62
     3
  5
171
 10
-9.814958
 20
185.693968
 30
0.0
 11
-16.716613
 21
197.64799
 31
0.0
  0
LINE
  8
LY_1
  6
CONTINUOUS
 62
     3
  5
172
 10
-26.886566
 20
214.084839
 30
0.0
 11
-30.758545
 21
214.084839
 31
0.0
  0
LINE
  8
LY_1
  6
CONTINUOUS
 62
     3
  5
173
 10
-16.830185
 20
229.19397
 30
0.0
 11
-17.873245
 21
229.19397
 31
0.0
  0
LINE
  8
LY_1
  6
CONTINUOUS
 62
     3
  5
174
 10
-5.029387
 20
185.69397
 30
0.0
 11
-9.814955
 21
185.69397
 31
0.0
  0
LINE
  8
LY_1
  6
CONTINUOUS
 62
     3
  5
175
 10
-22.5
 20
197.985031
 30
0.0
 11
-22.5
 21
192.263718
 31
0.0
  0
LINE
  8
LY_1
  6
CONTINUOUS
 62
     3
  5
176
 10
-9.814957
 20
219.693981
 30
0.0
 11
-16.716614
 21
207.739925
 31
0.0
  0
LINE
  8
LY_1
  6
CONTINUOUS
 62
     3
  5
177
 10
-26.886566
 20
191.303085
 30
0.0
 11
-30.758545
 21
191.303085
 31
0.0
  0
LINE
  8
LY_1
  6
CONTINUOUS
 62
     3
  5
178
 10
-16.830185
 20
176.19397
 30
0.0
 11
-17.873245
 21
176.19397
 31
0.0
  0
LINE
  8
LY_1
  6
CONTINUOUS
 62
     3
  5
179
 10
-5.029387
 20
219.69397
 30
0.0
 11
-9.814955
 21
219.69397
 31
0.0
  0
LINE
  8
LY_1
  6
CONTINUOUS
 62
     3
  5
17A
 10
22.5
 20
207.402893
 30
0.0
 11
22.5
 21
213.124222
 31
0.0
  0
LINE
  8
LY_1
  6
CONTINUOUS
 62
     3
  5
17B
 10
9.814958
 20
185.693968
 30
0.0
 11
16.716613
 21
197.64799
 31
0.0
  0
LINE
  8
LY_1
  6
CONTINUOUS
 62
     3
  5
17C
 10
26.886566
 20
214.084839
 30
0.0
 11
30.758545
 21
214.084839
 31
0.0
  0
LINE
  8
LY_1
  6
CONTINUOUS
 62
     3
  5
17D
 10
16.830185
 20
229.19397
 30
0.0
 11
17.873245
 21
229.19397
 31
0.0
  0
LINE
  8
LY_1
  6
CONTINUOUS
 62
     3
  5
17E
 10
5.029387
 20
185.69397
 30
0.0
 11
9.814955
 21
185.69397
 31
0.0
  0
LINE
  8
LY_1
  6
CONTINUOUS
 62
     3
  5
17F
 10
22.5
 20
197.985031
 30
0.0
 11
22.5
 21
192.263718
 31
0.0
  0
LINE
  8
LY_1
  6
CONTINUOUS
 62
     3
  5
180
 10
9.814957
 20
219.693981
 30
0.0
 11
16.716614
 21
207.739925
 31
0.0
  0
LINE
  8
LY_1
  6
CONTINUOUS
 62
     3
  5
181
 10
26.886566
 20
191.303085
 30
0.0
 11
30.758545
 21
191.303085
 31
0.0
  0
LINE
  8
LY_1
  6
CONTINUOUS
 62
     3
  5
182
 10
16.830185
 20
176.19397
 30
0.0
 11
17.873245
 21
176.19397
 31
0.0
  0
LINE
  8
LY_1
  6
CONTINUOUS
 62
     3
  5
183
 10
5.029387
 20
219.69397
 30
0.0
 11
9.814955
 21
219.69397
 31
0.0
  0
LINE
  8
LY_1
  6
CONTINUOUS
 62
     3
  5
184
 10
112.0
 20
68.0
 30
0.0
 11
112.0
 21
60.5
 31
0.0
  0
LINE
  8
LY_1
  6
CONTINUOUS
 62
     3
  5
185
 10
112.0
 20
98.0
 30
0.0
 11
112.0
 21
85.5
 31
0.0
  0
LINE
  8
LY_1
  6
CONTINUOUS
 62
     3
  5
186
 10
95.000022
 20
60.499994
 30
0.0
 11
82.999997
 21
59.379755
 31
0.0
  0
LINE
  8
LY_1
  6
CONTINUOUS
 62
     3
  5
187
 10
95.0
 20
68.0
 30
0.0
 11
95.0
 21
60.5
 31
0.0
  0
LINE
  8
LY_1
  6
CONTINUOUS
 62
     3
  5
188
 10
103.0
 20
85.5
 30
0.0
 11
103.0
 21
80.0
 31
0.0
  0
LINE
  8
LY_1
  6
CONTINUOUS
 62
     3
  5
189
 10
83.0
 20
59.379757
 30
0.0
 11
83.0
 21
53.5
 31
0.0
  0
LINE
  8
LY_1
  6
CONTINUOUS
 62
     3
  5
18A
 10
129.000035
 20
60.49996
 30
0.0
 11
141.000007
 21
59.37972
 31
0.0
  0
LINE
  8
LY_1
  6
CONTINUOUS
 62
     3
  5
18B
 10
129.0
 20
68.0
 30
0.0
 11
129.0
 21
60.5
 31
0.0
  0
LINE
  8
LY_1
  6
CONTINUOUS
 62
   110
  5
18C
 10
103.649994
 20
85.5
 30
0.0
 11
103.649994
 21
80.0
 31
0.0
  0
LINE
  8
LY_1
  6
CONTINUOUS
 62
   110
  5
18D
 10
120.349991
 20
85.5
 30
0.0
 11
120.349991
 21
80.0
 31
0.0
  0
LINE
  8
LY_1
  6
CONTINUOUS
 62
     3
  5
18E
 10
121.0
 20
85.5
 30
0.0
 11
121.0
 21
80.0
 31
0.0
  0
LINE
  8
LY_1
  6
CONTINUOUS
 62
     3
  5
18F
 10
103.0
 20
80.0
 30
0.0
 11
121.0
 21
80.0
 31
0.0
  0
LINE
  8
LY_1
  6
CONTINUOUS
 62
     3
  5
190
 10
95.0
 20
68.0
 30
0.0
 11
129.0
 21
68.0
 31
0.0
  0
LINE
  8
LY_1
  6
CONTINUOUS
 62
     3
  5
191
 10
95.0
 20
60.5
 30
0.0
 11
129.0
 21
60.5
 31
0.0
  0
LINE
  8
LY_1
  6
CONTINUOUS
 62
     3
  5
192
 10
141.0
 20
59.379757
 30
0.0
 11
141.0
 21
53.5
 31
0.0
  0
LINE
  8
LY_1
  6
CONTINUOUS
 62
     3
  5
193
 10
-9.814955
 20
67.998215
 30
0.0
 11
-9.814955
 21
60.498219
 31
0.0
  0
LINE
  8
LY_1
  6
CONTINUOUS
 62
     3
  5
194
 10
9.814955
 20
67.998215
 30
0.0
 11
9.814955
 21
60.498219
 31
0.0
  0
LINE
  8
LY_1
  6
CONTINUOUS
 62
     3
  5
195
 10
102.0
 20
98.0
 30
0.0
 11
102.0
 21
85.5
 31
0.0
  0
LINE
  8
LY_1
  6
CONTINUOUS
 62
     3
  5
196
 10
122.0
 20
98.0
 30
0.0
 11
122.0
 21
85.5
 31
0.0
  0
LINE
  8
LY_1
  6
CONTINUOUS
 62
     3
  5
197
 10
105.599991
 20
119.599991
 30
0.0
 11
105.599991
 21
117.299988
 31
0.0
  0
LINE
  8
LY_1
  6
CONTINUOUS
 62
     3
  5
198
 10
105.803223
 20
121.199997
 30
0.0
 11
95.524933
 21
121.199997
 31
0.0
  0
LINE
  8
LY_1
  6
CONTINUOUS
 62
     3
  5
199
 10
105.599991
 20
118.0
 30
0.0
 11
93.524933
 21
118.0
 31
0.0
  0
LINE
  8
LY_1
  6
CONTINUOUS
 62
     3
  5
19A
 10
105.099991
 20
116.799988
 30
0.0
 11
94.524933
 21
116.799988
 31
0.0
  0
LINE
  8
LY_1
  6
CONTINUOUS
 62
     3
  5
19B
 10
93.524933
 20
119.199997
 30
0.0
 11
93.524933
 21
117.799988
 31
0.0
  0
LINE
  8
LY_1
  6
CONTINUOUS
 62
     3
  5
19C
 10
82.323868
 20
121.199997
 30
0.0
 11
81.772339
 21
121.199997
 31
0.0
  0
LINE
  8
LY_1
  6
CONTINUOUS
 62
     3
  5
19D
 10
107.003998
 20
123.599991
 30
0.0
 11
93.802948
 21
123.599991
 31
0.0
  0
LINE
  8
LY_1
  6
CONTINUOUS
 62
     3
  5
19E
 10
81.449997
 20
118.0
 30
0.0
 11
79.772339
 21
118.0
 31
0.0
  0
LINE
  8
LY_1
  6
CONTINUOUS
 62
     3
  5
19F
 10
81.229065
 20
116.799988
 30
0.0
 11
80.772339
 21
116.799988
 31
0.0
  0
LINE
  8
LY_1
  6
CONTINUOUS
 62
     3
  5
1A0
 10
79.772339
 20
119.199997
 30
0.0
 11
79.772339
 21
117.799988
 31
0.0
  0
LINE
  8
LY_1
  6
CONTINUOUS
 62
     3
  5
1A1
 10
71.999998
 20
113.999984
 30
0.0
 11
72.209959
 21
111.599986
 31
0.0
  0
LINE
  8
LY_1
  6
CONTINUOUS
 62
     3
  5
1A2
 10
80.84568
 20
114.000003
 30
0.0
 11
81.055656
 21
111.599991
 31
0.0
  0
LINE
  8
LY_1
  6
CONTINUOUS
 62
     3
  5
1A3
 10
104.473817
 20
106.099996
 30
0.0
 11
94.129824
 21
111.599996
 31
0.0
  0
LINE
  8
LY_1
  6
CONTINUOUS
 62
     3
  5
1A4
 10
104.185545
 20
111.599977
 30
0.0
 11
104.499998
 21
105.599949
 31
0.0
  0
LINE
  8
LY_1
  6
CONTINUOUS
 62
     3
  5
1A5
 10
107.25
 20
105.599991
 30
0.0
 11
107.25
 21
98.0
 31
0.0
  0
LINE
  8
LY_1
  6
CONTINUOUS
 62
     3
  5
1A6
 10
118.399994
 20
119.599991
 30
0.0
 11
118.399994
 21
117.299988
 31
0.0
  0
LINE
  8
LY_1
  6
CONTINUOUS
 62
     3
  5
1A7
 10
118.196762
 20
121.199997
 30
0.0
 11
128.475052
 21
121.199997
 31
0.0
  0
LINE
  8
LY_1
  6
CONTINUOUS
 62
     3
  5
1A8
 10
118.399994
 20
118.0
 30
0.0
 11
130.475052
 21
118.0
 31
0.0
  0
LINE
  8
LY_1
  6
CONTINUOUS
 62
     3
  5
1A9
 10
118.899994
 20
116.799988
 30
0.0
 11
129.475052
 21
116.799988
 31
0.0
  0
LINE
  8
LY_1
  6
CONTINUOUS
 62
     3
  5
1AA
 10
130.475052
 20
119.199997
 30
0.0
 11
130.475052
 21
117.799988
 31
0.0
  0
LINE
  8
LY_1
  6
CONTINUOUS
 62
     3
  5
1AB
 10
141.676117
 20
121.199997
 30
0.0
 11
142.227646
 21
121.199997
 31
0.0
  0
LINE
  8
LY_1
  6
CONTINUOUS
 62
     3
  5
1AC
 10
116.995987
 20
123.599991
 30
0.0
 11
130.197037
 21
123.599991
 31
0.0
  0
LINE
  8
LY_1
  6
CONTINUOUS
 62
     3
  5
1AD
 10
142.549988
 20
118.0
 30
0.0
 11
144.227646
 21
118.0
 31
0.0
  0
LINE
  8
LY_1
  6
CONTINUOUS
 62
     3
  5
1AE
 10
142.77092
 20
116.799988
 30
0.0
 11
143.227646
 21
116.799988
 31
0.0
  0
LINE
  8
LY_1
  6
CONTINUOUS
 62
     3
  5
1AF
 10
144.227646
 20
119.199997
 30
0.0
 11
144.227646
 21
117.799988
 31
0.0
  0
LINE
  8
LY_1
  6
CONTINUOUS
 62
     3
  5
1B0
 10
152.000014
 20
113.999995
 30
0.0
 11
151.790038
 21
111.599984
 31
0.0
  0
LINE
  8
LY_1
  6
CONTINUOUS
 62
     3
  5
1B1
 10
143.154287
 20
113.999998
 30
0.0
 11
142.94431
 21
111.600001
 31
0.0
  0
LINE
  8
LY_1
  6
CONTINUOUS
 62
     3
  5
1B2
 10
72.0
 20
114.0
 30
0.0
 11
152.0
 21
114.0
 31
0.0
  0
LINE
  8
LY_1
  6
CONTINUOUS
 62
     3
  5
1B3
 10
119.526238
 20
106.099984
 30
0.0
 11
129.870269
 21
111.599987
 31
0.0
  0
LINE
  8
LY_1
  6
CONTINUOUS
 62
     3
  5
1B4
 10
119.814417
 20
111.600017
 30
0.0
 11
119.499979
 21
105.600018
 31
0.0
  0
LINE
  8
LY_1
  6
CONTINUOUS
 62
     3
  5
1B5
 10
72.209961
 20
111.599991
 30
0.0
 11
151.790024
 21
111.599991
 31
0.0
  0
LINE
  8
LY_1
  6
CONTINUOUS
 62
     3
  5
1B6
 10
116.75
 20
105.599991
 30
0.0
 11
116.75
 21
98.0
 31
0.0
  0
LINE
  8
LY_1
  6
CONTINUOUS
 62
     3
  5
1B7
 10
104.5
 20
105.599991
 30
0.0
 11
119.5
 21
105.599991
 31
0.0
  0
LINE
  8
LY_1
  6
CONTINUOUS
 62
     3
  5
1B8
 10
102.0
 20
85.5
 30
0.0
 11
122.0
 21
85.5
 31
0.0
  0
LINE
  8
LY_1
  6
CONTINUOUS
 62
     3
  5
1B9
 10
102.0
 20
98.0
 30
0.0
 11
122.0
 21
98.0
 31
0.0
  0
LINE
  8
LY_1
  6
CONTINUOUS
 62
     3
  5
1BA
 10
-6.4
 20
119.598206
 30
0.0
 11
-6.4
 21
117.298203
 31
0.0
  0
LINE
  8
LY_1
  6
CONTINUOUS
 62
     3
  5
1BB
 10
-6.196772
 20
121.198212
 30
0.0
 11
-16.475052
 21
121.198212
 31
0.0
  0
LINE
  8
LY_1
  6
CONTINUOUS
 62
     3
  5
1BC
 10
-6.4
 20
117.998215
 30
0.0
 11
-18.475052
 21
117.998215
 31
0.0
  0
LINE
  8
LY_1
  6
CONTINUOUS
 62
     3
  5
1BD
 10
-6.9
 20
116.798203
 30
0.0
 11
-17.475052
 21
116.798203
 31
0.0
  0
LINE
  8
LY_1
  6
CONTINUOUS
 62
     3
  5
1BE
 10
-18.475052
 20
119.198212
 30
0.0
 11
-18.475052
 21
117.798203
 31
0.0
  0
LINE
  8
LY_1
  6
CONTINUOUS
 62
     3
  5
1BF
 10
-29.676117
 20
121.198212
 30
0.0
 11
-30.227646
 21
121.198212
 31
0.0
  0
LINE
  8
LY_1
  6
CONTINUOUS
 62
     3
  5
1C0
 10
-4.995997
 20
123.598206
 30
0.0
 11
-18.197037
 21
123.598206
 31
0.0
  0
LINE
  8
LY_1
  6
CONTINUOUS
 62
     3
  5
1C1
 10
-30.549988
 20
117.998215
 30
0.0
 11
-32.227646
 21
117.998215
 31
0.0
  0
LINE
  8
LY_1
  6
CONTINUOUS
 62
     3
  5
1C2
 10
-30.77092
 20
116.798203
 30
0.0
 11
-31.227646
 21
116.798203
 31
0.0
  0
LINE
  8
LY_1
  6
CONTINUOUS
 62
     3
  5
1C3
 10
-32.227646
 20
119.198212
 30
0.0
 11
-32.227646
 21
117.798203
 31
0.0
  0
LINE
  8
LY_1
  6
CONTINUOUS
 62
     3
  5
1C4
 10
-40.000001
 20
113.998217
 30
0.0
 11
-39.790025
 21
111.598205
 31
0.0
  0
LINE
  8
LY_1
  6
CONTINUOUS
 62
     3
  5
1C5
 10
-31.154297
 20
113.998215
 30
0.0
 11
-30.944321
 21
111.598203
 31
0.0
  0
LINE
  8
LY_1
  6
CONTINUOUS
 62
     3
  5
1C6
 10
-7.526218
 20
106.098214
 30
0.0
 11
-17.870204
 21
111.598211
 31
0.0
  0
LINE
  8
LY_1
  6
CONTINUOUS
 62
     3
  5
1C7
 10
-7.814447
 20
111.59821
 30
0.0
 11
-7.5
 21
105.598205
 31
0.0
  0
LINE
  8
LY_1
  6
CONTINUOUS
 62
     3
  5
1C8
 10
-4.75
 20
105.598206
 30
0.0
 11
-4.75
 21
97.998215
 31
0.0
  0
LINE
  8
LY_1
  6
CONTINUOUS
 62
     3
  5
1C9
 10
6.4
 20
119.598206
 30
0.0
 11
6.4
 21
117.298203
 31
0.0
  0
LINE
  8
LY_1
  6
CONTINUOUS
 62
     3
  5
1CA
 10
6.196772
 20
121.198212
 30
0.0
 11
16.475052
 21
121.198212
 31
0.0
  0
LINE
  8
LY_1
  6
CONTINUOUS
 62
     3
  5
1CB
 10
6.4
 20
117.998215
 30
0.0
 11
18.475052
 21
117.998215
 31
0.0
  0
LINE
  8
LY_1
  6
CONTINUOUS
 62
     3
  5
1CC
 10
6.9
 20
116.798203
 30
0.0
 11
17.475052
 21
116.798203
 31
0.0
  0
LINE
  8
LY_1
  6
CONTINUOUS
 62
     3
  5
1CD
 10
18.475052
 20
119.198212
 30
0.0
 11
18.475052
 21
117.798203
 31
0.0
  0
LINE
  8
LY_1
  6
CONTINUOUS
 62
     3
  5
1CE
 10
29.676117
 20
121.198212
 30
0.0
 11
30.227646
 21
121.198212
 31
0.0
  0
LINE
  8
LY_1
  6
CONTINUOUS
 62
     3
  5
1CF
 10
4.995997
 20
123.598206
 30
0.0
 11
18.197037
 21
123.598206
 31
0.0
  0
LINE
  8
LY_1
  6
CONTINUOUS
 62
     3
  5
1D0
 10
30.549988
 20
117.998215
 30
0.0
 11
32.227646
 21
117.998215
 31
0.0
  0
LINE
  8
LY_1
  6
CONTINUOUS
 62
     3
  5
1D1
 10
30.77092
 20
116.798203
 30
0.0
 11
31.227646
 21
116.798203
 31
0.0
  0
LINE
  8
LY_1
  6
CONTINUOUS
 62
     3
  5
1D2
 10
32.227646
 20
119.198212
 30
0.0
 11
32.227646
 21
117.798203
 31
0.0
  0
LINE
  8
LY_1
  6
CONTINUOUS
 62
     3
  5
1D3
 10
40.000001
 20
113.998217
 30
0.0
 11
39.790025
 21
111.598205
 31
0.0
  0
LINE
  8
LY_1
  6
CONTINUOUS
 62
     3
  5
1D4
 10
-2.886748
 20
197.693965
 30
0.0
 11
-5.773502
 21
202.693976
 31
0.0
  0
LINE
  8
LY_1
  6
CONTINUOUS
 62
     3
  5
1D5
 10
5.773502
 20
202.693976
 30
0.0
 11
2.886754
 21
207.693973
 31
0.0
  0
LINE
  8
LY_1
  6
CONTINUOUS
 62
     3
  5
1D6
 10
-5.773502
 20
202.693976
 30
0.0
 11
-2.886754
 21
207.693973
 31
0.0
  0
LINE
  8
LY_1
  6
CONTINUOUS
 62
     3
  5
1D7
 10
2.886748
 20
197.693965
 30
0.0
 11
5.773502
 21
202.693976
 31
0.0
  0
LINE
  8
LY_1
  6
CONTINUOUS
 62
     3
  5
1D8
 10
-2.88675
 20
207.69397
 30
0.0
 11
2.88675
 21
207.69397
 31
0.0
  0
LINE
  8
LY_1
  6
CONTINUOUS
 62
     3
  5
1D9
 10
-2.88675
 20
197.69397
 30
0.0
 11
2.88675
 21
197.69397
 31
0.0
  0
LINE
  8
LY_1
  6
CONTINUOUS
 62
     3
  5
1DA
 10
-5.362064
 20
191.40247
 30
0.0
 11
-4.600003
 21
178.324419
 31
0.0
  0
LINE
  8
LY_1
  6
CONTINUOUS
 62
     3
  5
1DB
 10
5.362077
 20
191.402469
 30
0.0
 11
4.600016
 21
178.324418
 31
0.0
  0
LINE
  8
LY_1
  6
CONTINUOUS
 62
     3
  5
1DC
 10
-11.291507
 20
208.056029
 30
0.0
 11
-24.369522
 21
207.293975
 31
0.0
  0
LINE
  8
LY_1
  6
CONTINUOUS
 62
     3
  5
1DD
 10
-11.291483
 20
197.331907
 30
0.0
 11
-24.369507
 21
198.093977
 31
0.0
  0
LINE
  8
LY_1
  6
CONTINUOUS
 62
     3
  5
1DE
 10
5.362021
 20
213.985481
 30
0.0
 11
4.59996
 21
227.063502
 31
0.0
  0
LINE
  8
LY_1
  6
CONTINUOUS
 62
     3
  5
1DF
 10
-5.362036
 20
213.985482
 30
0.0
 11
-4.599975
 21
227.063502
 31
0.0
  0
LINE
  8
LY_1
  6
CONTINUOUS
 62
     3
  5
1E0
 10
11.29148
 20
197.331901
 30
0.0
 11
24.369629
 21
198.093986
 31
0.0
  0
LINE
  8
LY_1
  6
CONTINUOUS
 62
     3
  5
1E1
 10
11.291506
 20
208.056056
 30
0.0
 11
24.369628
 21
207.293987
 31
0.0
  0
LINE
  8
LY_1
  6
CONTINUOUS
 62
     3
  5
1E2
 10
29.666672
 20
196.593964
 30
0.0
 11
32.227707
 21
196.593964
 31
0.0
  0
LINE
  8
LY_1
  6
CONTINUOUS
 62
     3
  5
1E3
 10
25.290855
 20
186.029777
 30
0.0
 11
27.101769
 21
184.218863
 31
0.0
  0
LINE
  8
LY_1
  6
CONTINUOUS
 62
     3
  5
1E4
 10
16.664149
 20
177.403082
 30
0.0
 11
18.475063
 21
175.592168
 31
0.0
  0
LINE
  8
LY_1
  6
CONTINUOUS
 62
     3
  5
1E5
 10
6.100012
 20
173.027298
 30
0.0
 11
6.100012
 21
170.466263
 31
0.0
  0
LINE
  8
LY_1
  6
CONTINUOUS
 62
     3
  5
1E6
 10
-6.099994
 20
173.027298
 30
0.0
 11
-6.099994
 21
170.466263
 31
0.0
  0
LINE
  8
LY_1
  6
CONTINUOUS
 62
     3
  5
1E7
 10
-16.664144
 20
177.40306
 30
0.0
 11
-18.475054
 21
175.59212
 31
0.0
  0
LINE
  8
LY_1
  6
CONTINUOUS
 62
     3
  5
1E8
 10
-25.290855
 20
186.029777
 30
0.0
 11
-27.101769
 21
184.218863
 31
0.0
  0
LINE
  8
LY_1
  6
CONTINUOUS
 62
     3
  5
1E9
 10
-29.666672
 20
196.593933
 30
0.0
 11
-32.227707
 21
196.593933
 31
0.0
  0
LINE
  8
LY_1
  6
CONTINUOUS
 62
     3
  5
1EA
 10
-29.666626
 20
208.793945
 30
0.0
 11
-32.227661
 21
208.793945
 31
0.0
  0
LINE
  8
LY_1
  6
CONTINUOUS
 62
     3
  5
1EB
 10
-25.290842
 20
219.358068
 30
0.0
 11
-27.101749
 21
221.16899
 31
0.0
  0
LINE
  8
LY_1
  6
CONTINUOUS
 62
     3
  5
1EC
 10
-16.664149
 20
227.984786
 30
0.0
 11
-18.475072
 21
229.795693
 31
0.0
  0
LINE
  8
LY_1
  6
CONTINUOUS
 62
     3
  5
1ED
 10
-6.100016
 20
232.360611
 30
0.0
 11
-6.100016
 21
234.921646
 31
0.0
  0
LINE
  8
LY_1
  6
CONTINUOUS
 62
     3
  5
1EE
 10
6.099998
 20
232.360611
 30
0.0
 11
6.099998
 21
234.921646
 31
0.0
  0
LINE
  8
LY_1
  6
CONTINUOUS
 62
     3
  5
1EF
 10
16.664127
 20
227.984781
 30
0.0
 11
18.475117
 21
229.795771
 31
0.0
  0
LINE
  8
LY_1
  6
CONTINUOUS
 62
     3
  5
1F0
 10
25.290799
 20
219.358061
 30
0.0
 11
27.101815
 21
221.169047
 31
0.0
  0
LINE
  8
LY_1
  6
CONTINUOUS
 62
     3
  5
1F1
 10
29.666626
 20
208.793976
 30
0.0
 11
32.227768
 21
208.793976
 31
0.0
  0
LINE
  8
LY_1
  6
CENTER
 62
   110
  5
1F3
 10
-44.999893
 20
202.69397
 30
0.0
 11
44.999893
 21
202.69397
 31
0.0
  0
LINE
  8
LY_1
  6
CONTINUOUS
 62
     3
  5
1F4
 10
31.154297
 20
113.998215
 30
0.0
 11
30.944321
 21
111.598203
 31
0.0
  0
LINE
  8
LY_1
  6
CONTINUOUS
 62
     3
  5
1F5
 10
-40.0
 20
113.998215
 30
0.0
 11
40.0
 21
113.998215
 31
0.0
  0
LINE
  8
LY_1
  6
CONTINUOUS
 62
     3
  5
1F6
 10
7.526218
 20
106.098214
 30
0.0
 11
17.870204
 21
111.598211
 31
0.0
  0
LINE
  8
LY_1
  6
CONTINUOUS
 62
     3
  5
1F7
 10
7.814447
 20
111.59821
 30
0.0
 11
7.5
 21
105.598205
 31
0.0
  0
LINE
  8
LY_1
  6
CONTINUOUS
 62
     3
  5
1F8
 10
-39.790024
 20
111.598206
 30
0.0
 11
39.790024
 21
111.598206
 31
0.0
  0
LINE
  8
LY_1
  6
CONTINUOUS
 62
     3
  5
1F9
 10
4.75
 20
105.598206
 30
0.0
 11
4.75
 21
97.998215
 31
0.0
  0
LINE
  8
LY_1
  6
CONTINUOUS
 62
     3
  5
1FA
 10
-7.5
 20
105.598206
 30
0.0
 11
7.5
 21
105.598206
 31
0.0
  0
LINE
  8
LY_1
  6
CONTINUOUS
 62
   110
  5
1FB
 10
-8.349999
 20
85.498215
 30
0.0
 11
-8.349999
 21
79.998215
 31
0.0
  0
LINE
  8
LY_1
  6
CONTINUOUS
 62
   110
  5
1FC
 10
8.349999
 20
85.498215
 30
0.0
 11
8.349999
 21
79.998215
 31
0.0
  0
LINE
  8
LY_1
  6
CONTINUOUS
 62
     3
  5
1FD
 10
-5.773494
 20
97.998215
 30
0.0
 11
-5.773494
 21
85.498215
 31
0.0
  0
LINE
  8
LY_1
  6
CONTINUOUS
 62
     3
  5
1FE
 10
5.773494
 20
97.998215
 30
0.0
 11
5.773494
 21
85.498215
 31
0.0
  0
LINE
  8
LY_1
  6
CONTINUOUS
 62
     3
  5
1FF
 10
10.9
 20
97.998215
 30
0.0
 11
10.9
 21
85.498215
 31
0.0
  0
LINE
  8
LY_1
  6
CONTINUOUS
 62
     3
  5
200
 10
-10.9
 20
97.998215
 30
0.0
 11
-10.9
 21
85.498215
 31
0.0
  0
LINE
  8
LY_1
  6
CONTINUOUS
 62
     3
  5
201
 10
-10.9
 20
85.498215
 30
0.0
 11
10.9
 21
85.498215
 31
0.0
  0
LINE
  8
LY_1
  6
CONTINUOUS
 62
     3
  5
202
 10
-10.9
 20
97.998215
 30
0.0
 11
10.9
 21
97.998215
 31
0.0
  0
LINE
  8
LY_1
  6
CENTER
 62
   110
  5
203
 10
0.0
 20
247.693863
 30
0.0
 11
0.0
 21
157.694046
 31
0.0
  0
LINE
  8
LY_1
  6
CONTINUOUS
 62
     3
  5
204
 10
-18.635331
 20
68.082524
 30
0.0
 11
-18.949998
 21
67.998204
 31
0.0
  0
LINE
  8
LY_1
  6
CONTINUOUS
 62
     3
  5
205
 10
-9.0
 20
85.498215
 30
0.0
 11
-9.0
 21
80.639542
 31
0.0
  0
LINE
  8
LY_1
  6
CONTINUOUS
 62
     3
  5
206
 10
-18.949997
 20
67.998215
 30
0.0
 11
-18.949997
 21
60.498219
 31
0.0
  0
LINE
  8
LY_1
  6
CONTINUOUS
 62
     3
  5
207
 10
18.635331
 20
68.082524
 30
0.0
 11
18.949998
 21
67.998204
 31
0.0
  0
LINE
  8
LY_1
  6
CONTINUOUS
 62
     3
  5
208
 10
9.0
 20
85.498215
 30
0.0
 11
9.0
 21
80.639542
 31
0.0
  0
LINE
  8
LY_1
  6
CONTINUOUS
 62
     3
  5
209
 10
18.949997
 20
67.998215
 30
0.0
 11
18.949997
 21
60.498219
 31
0.0
  0
LINE
  8
LY_1
  6
CONTINUOUS
 62
     3
  5
20A
 10
-9.0
 20
79.998215
 30
0.0
 11
9.0
 21
79.998215
 31
0.0
  0
LINE
  8
LY_1
  6
CONTINUOUS
 62
     3
  5
20B
 10
-18.949997
 20
67.998215
 30
0.0
 11
18.949997
 21
67.998215
 31
0.0
  0
LINE
  8
LY_1
  6
CONTINUOUS
 62
     3
  5
20C
 10
-18.949997
 20
60.498219
 30
0.0
 11
18.949997
 21
60.498219
 31
0.0
  0
LINE
  8
LY_1
  6
CONTINUOUS
 62
     3
  5
20D
 10
2.598938
 20
8.989745
 30
0.0
 11
2.410216
 21
8.989745
 31
0.0
  0
LINE
  8
LY_1
  6
CONTINUOUS
 62
     3
  5
20E
 10
2.598647
 20
18.501709
 30
0.0
 11
2.409972
 21
18.501709
 31
0.0
  0
LINE
  8
LY_1
  6
CONTINUOUS
 62
     3
  5
20F
 10
2.598647
 20
18.501709
 30
0.0
 11
2.598647
 21
17.084305
 31
0.0
  0
LINE
  8
LY_1
  6
CONTINUOUS
 62
     3
  5
210
 10
1.508208
 20
15.200745
 30
0.0
 11
1.508208
 21
13.129958
 31
0.0
  0
LINE
  8
LY_1
  6
CONTINUOUS
 62
     3
  5
211
 10
1.508208
 20
15.200745
 30
0.0
 11
-2.410155
 21
15.200745
 31
0.0
  0
LINE
  8
LY_1
  6
CONTINUOUS
 62
     3
  5
212
 10
2.598647
 20
17.084305
 30
0.0
 11
-2.410155
 21
17.084305
 31
0.0
  0
LINE
  8
LY_1
  6
CONTINUOUS
 62
     3
  5
213
 10
3.351624
 20
19.443466
 30
0.0
 11
3.351624
 21
13.129958
 31
0.0
  0
LINE
  8
LY_1
  6
CONTINUOUS
 62
     3
  5
214
 10
2.598938
 20
8.989745
 30
0.0
 11
2.598938
 21
5.34697
 31
0.0
  0
LINE
  8
LY_1
  6
CONTINUOUS
 62
     3
  5
215
 10
-3.351929
 20
10.29425
 30
0.0
 11
-3.351929
 21
3.921753
 31
0.0
  0
LINE
  8
LY_1
  6
CONTINUOUS
 62
     3
  5
216
 10
-1.508362
 20
3.921753
 30
0.0
 11
-1.508362
 21
7.445618
 31
0.0
  0
LINE
  8
LY_1
  6
CONTINUOUS
 62
     3
  5
217
 10
1.706355
 20
3.358759
 30
0.0
 11
-1.448592
 21
7.46679
 31
0.0
  0
LINE
  8
LY_1
  6
CONTINUOUS
 62
     3
  5
218
 10
2.539054
 20
5.325791
 30
0.0
 11
-1.706051
 21
10.853306
 31
0.0
  0
LINE
  8
LY_1
  6
CONTINUOUS
 62
     3
  5
219
 10
3.351958
 20
9.931534
 30
0.0
 11
3.351958
 21
3.917786
 31
0.0
  0
LINE
  8
LY_1
  6
CONTINUOUS
 62
     3
  5
21A
 10
-2.410155
 20
23.616699
 30
0.0
 11
2.410216
 21
23.616699
 31
0.0
  0
LINE
  8
LY_1
  6
CONTINUOUS
 62
     3
  5
21B
 10
2.410216
 20
21.733124
 30
0.0
 11
-2.410155
 21
21.733124
 31
0.0
  0
LINE
  8
LY_1
  6
CONTINUOUS
 62
     3
  5
21C
 10
0.561441
 20
28.64325
 30
0.0
 11
1.920788
 21
26.647462
 31
0.0
  0
LINE
  8
LY_1
  6
CONTINUOUS
 62
     3
  5
21D
 10
0.56141
 20
28.643265
 30
0.0
 11
-1.665267
 21
25.374054
 31
0.0
  0
LINE
  8
LY_1
  6
CONTINUOUS
 62
     3
  5
21E
 10
0.027373
 20
31.076049
 30
0.0
 11
3.158151
 21
26.479431
 31
0.0
  0
LINE
  8
LY_1
  6
CONTINUOUS
 62
     3
  5
21F
 10
-0.027572
 20
31.075989
 30
0.0
 11
-3.199469
 21
26.419022
 31
0.0
  0
LINE
  8
LY_1
  6
CONTINUOUS
 62
     3
  5
220
 10
2.410277
 20
31.116623
 30
0.0
 11
-2.410248
 21
31.116623
 31
0.0
  0
LINE
  8
LY_1
  6
CONTINUOUS
 62
     3
  5
221
 10
2.410277
 20
33.000031
 30
0.0
 11
-2.410248
 21
33.000031
 31
0.0
  0
LINE
  8
LY_1
  6
CONTINUOUS
 62
     3
  5
222
 10
-15.799999
 20
42.0
 30
0.0
 11
-15.799999
 21
20.067093
 31
0.0
  0
LINE
  8
LY_1
  6
CONTINUOUS
 62
     3
  5
223
 10
25.0
 20
41.247223
 30
0.0
 11
25.0
 21
33.0
 31
0.0
  0
LINE
  8
LY_1
  6
CONTINUOUS
 62
     3
  5
224
 10
-31.5
 20
175.186829
 30
0.0
 11
-31.5
 21
183.923767
 31
0.0
  0
LINE
  8
LY_1
  6
CONTINUOUS
 62
     3
  5
225
 10
31.5
 20
175.186829
 30
0.0
 11
31.5
 21
183.923767
 31
0.0
  0
LINE
  8
LY_1
  6
CONTINUOUS
 62
     3
  5
226
 10
-31.5
 20
230.186829
 30
0.0
 11
-31.5
 21
221.449875
 31
0.0
  0
LINE
  8
LY_1
  6
CONTINUOUS
 62
     3
  5
227
 10
31.5
 20
230.186829
 30
0.0
 11
31.5
 21
221.449875
 31
0.0
  0
LINE
  8
LY_1
  6
CONTINUOUS
 62
     3
  5
228
 10
110.0
 20
42.0
 30
0.0
 11
110.0
 21
32.0
 31
0.0
  0
LINE
  8
LY_1
  6
CONTINUOUS
 62
     3
  5
229
 10
83.5
 20
53.5
 30
0.0
 11
83.5
 21
46.154694
 31
0.0
  0
LINE
  8
LY_1
  6
CONTINUOUS
 62
     3
  5
22A
 10
85.329649
 20
42.314376
 30
0.0
 11
85.555056
 21
16.486249
 31
0.0
  0
LINE
  8
LY_1
  6
CENTER
 62
   110
  5
22B
 10
74.668381
 20
0.0
 30
0.0
 11
149.331604
 21
0.0
 31
0.0
  0
LINE
  8
LY_1
  6
CONTINUOUS
 62
     3
  5
22C
 10
-17.799989
 20
38.822342
 30
0.0
 11
-27.5
 21
44.422638
 31
0.0
  0
LINE
  8
LY_1
  6
CONTINUOUS
 62
     3
  5
22D
 10
-28.5
 20
53.5
 30
0.0
 11
-28.5
 21
46.154694
 31
0.0
  0
LINE
  8
LY_1
  6
CONTINUOUS
 62
     3
  5
22E
 10
21.499985
 20
29.999986
 30
0.0
 11
20.380783
 21
26.924988
 31
0.0
  0
LINE
  8
LY_1
  6
CONTINUOUS
 62
     3
  5
22F
 10
17.799988
 20
25.609055
 30
0.0
 11
18.501404
 21
25.609055
 31
0.0
  0
LINE
  8
LY_1
  6
CONTINUOUS
 62
     3
  5
230
 10
114.0
 20
42.0
 30
0.0
 11
114.0
 21
30.0
 31
0.0
  0
LINE
  8
LY_1
  6
CONTINUOUS
 62
     3
  5
231
 10
84.542557
 20
45.0
 30
0.0
 11
139.457428
 21
45.0
 31
0.0
  0
LINE
  8
LY_1
  6
CONTINUOUS
 62
     3
  5
232
 10
140.5
 20
53.5
 30
0.0
 11
140.5
 21
46.154694
 31
0.0
  0
LINE
  8
LY_1
  6
CONTINUOUS
 62
     3
  5
233
 10
83.0
 20
53.5
 30
0.0
 11
141.0
 21
53.5
 31
0.0
  0
LINE
  8
LY_1
  6
CONTINUOUS
 62
     3
  5
234
 10
138.670205
 20
42.314268
 30
0.0
 11
138.444817
 21
16.486318
 31
0.0
  0
LINE
  8
LY_1
  6
CENTER
 62
   110
  5
235
 10
112.0
 20
134.911209
 30
0.0
 11
112.0
 21
-34.269821
 31
0.0
  0
LINE
  8
LY_1
  6
CENTER
 62
   110
  5
236
 10
-44.999893
 20
202.686829
 30
0.0
 11
44.999893
 21
202.686829
 31
0.0
  0
LINE
  8
LY_1
  6
CENTER
 62
   110
  5
237
 10
0.0
 20
247.686768
 30
0.0
 11
0.0
 21
157.68692
 31
0.0
  0
LINE
  8
LY_1
  6
CONTINUOUS
 62
     3
  5
238
 10
15.799999
 20
42.0
 30
0.0
 11
15.799999
 21
20.067093
 31
0.0
  0
LINE
  8
LY_1
  6
CONTINUOUS
 62
     3
  5
239
 10
17.799989
 20
38.822342
 30
0.0
 11
27.5
 21
44.422638
 31
0.0
  0
LINE
  8
LY_1
  6
CONTINUOUS
 62
     3
  5
23A
 10
-27.457428
 20
45.0
 30
0.0
 11
27.457428
 21
45.0
 31
0.0
  0
LINE
  8
LY_1
  6
CONTINUOUS
 62
     3
  5
23B
 10
28.5
 20
53.5
 30
0.0
 11
28.5
 21
46.154694
 31
0.0
  0
LINE
  8
LY_1
  6
CONTINUOUS
 62
     3
  5
23C
 10
-29.0
 20
53.5
 30
0.0
 11
29.0
 21
53.5
 31
0.0
  0
LINE
  8
LY_1
  6
CONTINUOUS
 62
     3
  5
23D
 10
-17.0
 20
-26.150009
 30
0.0
 11
-18.33432
 21
-26.150009
 31
0.0
  0
LINE
  8
LY_1
  6
CONTINUOUS
 62
     3
  5
23E
 10
-20.213714
 20
-27.465971
 30
0.0
 11
-21.499999
 21
-30.999997
 31
0.0
  0
LINE
  8
LY_1
  6
CONTINUOUS
 62
     3
  5
23F
 10
17.0
 20
-26.150009
 30
0.0
 11
18.33432
 21
-26.150009
 31
0.0
  0
LINE
  8
LY_1
  6
CONTINUOUS
 62
     3
  5
240
 10
20.213714
 20
-27.465971
 30
0.0
 11
21.499999
 21
-30.999997
 31
0.0
  0
LINE
  8
LY_1
  6
CONTINUOUS
 62
     3
  5
241
 10
21.5
 20
30.0
 30
0.0
 11
21.5
 21
-31.0
 31
0.0
  0
LINE
  8
LY_1
  6
CONTINUOUS
 62
     3
  5
242
 10
31.5
 20
30.0
 30
0.0
 11
31.5
 21
-31.0
 31
0.0
  0
LINE
  8
LY_1
  6
CENTER
 62
   110
  5
243
 10
-36.5
 20
0.0
 30
0.0
 11
36.5
 21
0.0
 31
0.0
  0
LINE
  8
LY_1
  6
CENTER
 62
   110
  5
244
 10
0.0
 20
133.436523
 30
0.0
 11
0.0
 21
-29.270241
 31
0.0
  0
ENDSEC
  0
EOF
